osu file format v14

[General]
AudioFilename: audio.mp3
AudioLeadIn: 0
PreviewTime: 66529
Countdown: 0
SampleSet: Soft
StackLeniency: 0.3
Mode: 0
LetterboxInBreaks: 0
WidescreenStoryboard: 0

[Editor]
Bookmarks: 836,28835,39578,50358,58444,66529,90785,101590
DistanceSpacing: 1.4
BeatDivisor: 4
GridSize: 4
TimelineZoom: 1.9

[Metadata]
Title:Yume Tourou
TitleUnicode:夢灯籠
Artist:Konamilk
ArtistUnicode:粉ミルク
Creator:_FlameL
Version:Nikakis' Hard
Source:君の名は。
Tags:RADWIMPS Cover Acoustic ver version Kimi no na wa. Your Name. op opening Nikakis ShogunMoon Shunao
BeatmapID:1522898
BeatmapSetID:720433

[Difficulty]
HPDrainRate:4
CircleSize:3.8
OverallDifficulty:6
ApproachRate:7.5
SliderMultiplier:1.5
SliderTickRate:1

[Events]
//Background and Video events
0,0,"yourname1.jpg",0,0
//Break Periods
//Storyboard Layer 0 (Background)
//Storyboard Layer 1 (Fail)
//Storyboard Layer 2 (Pass)
//Storyboard Layer 3 (Foreground)
//Storyboard Sound Samples

[TimingPoints]
836,348.837209302326,4,2,1,25,1,0
836,-133.333333333333,4,2,1,25,0,0
6068,385.852090032154,4,2,1,25,1,0
6068,-117.647058823529,4,2,1,25,0,0
6453,348.837209302326,4,2,1,25,1,0
6453,-133.333333333333,4,2,1,25,0,0
17615,-133.333333333333,4,2,1,40,0,0
27383,341.880341880342,4,2,1,65,1,0
28750,342.857142857143,4,2,1,65,1,0
28750,-100,4,2,1,65,0,0
31492,337.078651685393,4,2,1,65,1,0
34188,336.889387984279,4,2,1,65,1,0
39578,-100,4,2,1,50,0,0
61139,-100,4,2,1,60,0,0
66024,-100,4,2,1,40,0,0
66529,-100,4,2,2,70,0,1
89437,-100,4,2,2,80,0,1
90111,-100,4,2,2,35,0,1
90785,339.943342776204,4,2,1,65,1,0
93504,337.078651685393,4,2,1,65,1,0
96200,336.889387984279,4,2,1,65,1,0
100579,-100,4,2,1,70,0,0
100916,-100,4,2,1,75,0,0
101253,-100,4,2,1,80,0,0

[Colours]
Combo1 : 114,114,114
Combo2 : 235,148,61
Combo3 : 203,230,51
Combo4 : 52,168,224
Combo5 : 223,101,237
Combo6 : 124,64,225
SliderBorder : 255,255,255
SliderTrackOverride : 18,35,45

[HitObjects]
92,356,836,6,0,P|44:327|28:276,1,112.500004291535,8|0,0:0|0:0,0:0:0:0:
108,276,1359,1,2,0:0:0:0:
68,208,1533,2,0,L|78:88,1,112.500004291535,0|2,0:0|0:0,0:0:0:0:
140,48,2056,1,0,0:0:0:0:
220,40,2231,6,0,L|332:30,2,112.500004291535,8|0|0,0:0|0:0|0:0,0:0:0:0:
232,196,3277,2,0,L|288:192,1,56.2500021457673,2|0,0:0|0:0,0:0:0:0:
365,181,3626,6,0,P|381:129|428:101,1,112.500004291535,8|0,0:0|0:0,0:0:0:0:
444,180,4149,2,0,L|454:292,1,112.500004291535,2|0,0:0|0:0,0:0:0:0:
428,368,4673,1,2,0:0:0:0:
275,339,5022,6,0,P|223:323|195:276,1,112.500004291535,8|0,0:0|0:0,0:0:0:0:
274,260,5545,2,0,L|386:250,1,112.500004291535,2|0,0:0|0:0,0:0:0:0:
454,292,6068,1,2,0:0:0:0:
352,172,6453,6,0,P|380:124|432:108,1,112.500004291535,8|0,0:0|0:0,0:0:0:0:
432,188,6976,1,2,0:0:0:0:
386,251,7150,2,0,L|273:260,1,112.500004291535,0|2,0:0|0:0,0:0:0:0:
196,240,7673,1,0,0:0:0:0:
128,200,7848,6,0,L|118:88,2,112.500004291535,8|0|0,0:0|0:0|0:0,0:0:0:0:
140,356,8894,2,0,L|196:352,1,56.2500021457673,2|0,0:0|0:0,0:0:0:0:
276,355,9243,6,0,P|259:303|212:276,1,112.500004291535,8|0,0:0|0:0,0:0:0:0:
136,248,9766,1,2,0:0:0:0:
60,224,9941,2,0,P|82:189|120:172,2,84.3750032186509
84,300,10639,2,0,L|196:290,1,112.500004291535,8|0,0:0|0:0,0:0:0:0:
212,212,11162,6,0,P|259:238|277:291,1,112.500004291535,2|0,0:0|0:0,0:0:0:0:
196,289,11685,1,2,0:0:0:0:
52,220,12034,6,0,L|40:88,1,112.500004291535,8|0,0:0|0:0,0:0:0:0:
100,56,12557,1,2,0:0:0:0:
168,12,12732,2,0,L|300:0,1,112.500004291535,0|2,0:0|0:0,0:0:0:0:
332,60,13255,1,0,0:0:0:0:
396,108,13429,6,0,L|408:240,1,112.500004291535,8|0,0:0|0:0,0:0:0:0:
348,272,13953,1,2,0:0:0:0:
344,352,14127,2,0,P|390:342|415:320,1,56.2500021457673
476,344,14476,2,0,P|466:297|444:272,1,56.2500021457673,2|0,0:0|0:0,0:0:0:0:
408,232,14825,6,0,P|356:216|328:169,1,112.500004291535,8|0,0:0|0:0,0:0:0:0:
404,156,15348,2,0,L|394:44,1,112.500004291535,2|0,0:0|0:0,0:0:0:0:
316,24,15871,1,2,0:0:0:0:
327,168,16220,6,0,P|311:220|264:248,1,112.500004291535,8|2,0:0|0:0,0:0:0:0:
116,192,16918,2,0,P|143:197|171:192,1,56.2500021457673,8|0,0:0|0:0,0:0:0:0:
248,168,17266,2,0,P|253:140|248:112,1,56.2500021457673,2|0,0:0|0:0,0:0:0:0:
300,52,17615,6,0,P|248:31|197:50,1,112.500004291535,8|0,0:0|0:0,0:0:0:0:
144,108,18139,1,2,0:0:0:0:
96,172,18313,2,0,L|89:251,2,56.2500021457673,0|0|2,0:0|0:0|0:0,0:0:0:0:
68,100,18836,1,0,0:0:0:0:
116,36,19011,6,0,L|228:46,1,112.500004291535,8|0,0:0|0:0,0:0:0:0:
328,168,19708,2,0,P|323:195|328:223,1,56.2500021457673
352,300,20057,2,0,P|380:305|408:300,1,56.2500021457673,2|0,0:0|0:0,0:0:0:0:
468,352,20406,6,0,P|489:300|470:249,1,112.500004291535,8|0,0:0|0:0,0:0:0:0:
412,196,20929,1,2,0:0:0:0:
348,148,21104,2,0,L|269:141,2,56.2500021457673,0|0|2,0:0|0:0|0:0,0:0:0:0:
420,112,21627,1,0,0:0:0:0:
480,164,21801,6,0,L|470:276,1,112.500004291535,8|0,0:0|0:0,0:0:0:0:
316,316,22499,2,0,P|289:321|261:316,1,56.2500021457673
184,292,22848,2,0,P|179:264|184:236,1,56.2500021457673,2|0,0:0|0:0,0:0:0:0:
132,176,23197,6,0,P|184:155|235:174,1,112.500004291535,8|0,0:0|0:0,0:0:0:0:
288,232,23720,1,2,0:0:0:0:
336,296,23894,2,0,L|343:375,2,56.2500021457673,0|0|2,0:0|0:0|0:0,0:0:0:0:
372,224,24418,1,0,0:0:0:0:
320,164,24592,6,0,L|208:174,1,112.500004291535,8|0,0:0|0:0,0:0:0:0:
52,204,25290,2,0,P|47:177|52:149,1,56.2500021457673
76,72,25639,2,0,P|104:67|132:72,1,56.2500021457673,2|0,0:0|0:0,0:0:0:0:
192,20,25987,6,0,P|213:72|194:123,1,112.500004291535,8|0,0:0|0:0,0:0:0:0:
131,71,26511,1,2,0:0:0:0:
108,148,26685,2,0,P|110:202|149:241,1,112.500004291535,0|2,0:0|0:0,0:0:0:0:
224,264,27208,1,0,0:0:0:0:
256,192,27383,5,8,0:0:0:0:
256,192,27468,12,0,28408,0:0:0:0:
452,44,28750,6,0,L|438:199,1,150,10|0,0:0|0:0,0:0:0:0:
428,300,29264,2,0,B|355:317|355:317|275:298,1,150,10|8,0:0|0:0,0:0:0:0:
216,223,29778,2,0,P|205:187|211:151,1,75,10|0,0:0|0:0,0:0:0:0:
187,49,30121,6,0,P|223:43|258:56,1,75,8|0,0:0|0:0,0:0:0:0:
211,150,30464,2,0,P|174:155|139:142,1,75,2|8,0:0|0:0,0:0:0:0:
56,78,30807,2,0,L|62:3,1,75,2|8,0:0|0:0,0:0:0:0:
187,49,31150,1,0,0:0:0:0:
42,227,31492,6,0,L|57:47,1,150,10|0,0:0|0:0,0:0:0:0:
140,20,31997,2,0,B|213:3|213:3|293:22,1,150,10|8,0:0|0:0,0:0:0:0:
352,97,32503,2,0,P|362:132|356:168,1,75,10|0,0:0|0:0,0:0:0:0:
381,271,32840,6,0,P|345:277|310:264,1,75,8|0,0:0|0:0,0:0:0:0:
355,169,33177,2,0,P|392:164|427:177,1,75,2|8,0:0|0:0,0:0:0:0:
487,263,33514,2,0,P|493:299|480:334,1,75,2|8,0:0|0:0,0:0:0:0:
376,360,33851,2,0,P|339:365|304:352,1,75,10|0,0:0|0:0,0:0:0:0:
244,240,34188,6,0,L|258:90,1,150,10|0,0:0|0:0,0:0:0:0:
184,16,34693,2,0,B|111:-2|111:-2|39:16,1,150,10|0,0:0|0:0,0:0:0:0:
4,116,35198,2,0,P|5:152|26:183,1,75,10|0,0:0|0:0,0:0:0:0:
36,288,35535,6,0,P|73:283|103:261,1,75,8|0,0:0|0:0,0:0:0:0:
208,256,35872,2,0,P|203:218|181:188,1,75,2|8,0:0|0:0,0:0:0:0:
175,84,36209,2,0,P|137:89|107:111,1,75,2|8,0:0|0:0,0:0:0:0:
181,188,36546,1,0,0:0:0:0:
308,4,36883,6,0,L|321:153,1,150,10|0,0:0|0:0,0:0:0:0:
336,256,37388,2,0,B|409:273|409:273|481:255,1,150,10|0,0:0|0:0,0:0:0:0:
508,153,37893,2,0,P|520:117|512:81,1,75,10|0,0:0|0:0,0:0:0:0:
434,10,38230,6,0,P|399:-3|362:2,1,75,8|0,0:0|0:0,0:0:0:0:
266,46,38567,2,0,P|252:80|258:117,1,75,2|8,0:0|0:0,0:0:0:0:
358,146,38904,2,0,L|351:72,1,75,2|8,0:0|0:0,0:0:0:0:
257,116,39241,2,0,L|264:190,1,75,10|0,0:0|0:0,0:0:0:0:
204,304,39578,6,0,L|54:317,1,150,10|0,0:0|0:0,0:0:0:0:
8,224,40083,1,8,0:0:0:0:
16,120,40252,2,0,L|20:44,1,75
116,8,40588,1,8,0:0:0:0:
200,72,40757,1,0,0:0:0:0:
288,132,40925,6,0,P|323:141|360:131,1,75,8|0,0:0|0:0,0:0:0:0:
456,172,41262,2,0,P|465:136|455:99,1,75,0|8,0:0|0:0,0:0:0:0:
400,12,41599,2,0,P|364:3|327:13,1,75
236,64,41936,1,8,0:0:0:0:
144,112,42104,1,0,0:0:0:0:
52,164,42273,6,0,L|38:315,1,150,8|0,0:0|0:0,0:0:0:0:
128,368,42778,1,8,0:0:0:0:
232,364,42947,2,0,P|267:365|301:347,1,75
372,268,43284,2,0,P|373:232|355:198,1,75,8|0,0:0|0:0,0:0:0:0:
360,92,43620,6,0,P|324:90|290:108,1,75,8|0,0:0|0:0,0:0:0:0:
184,100,43957,2,0,P|182:135|200:169,1,75,0|8,0:0|0:0,0:0:0:0:
200,276,44294,2,0,P|235:277|269:259,1,75,0|8,0:0|0:0,0:0:0:0:
372,268,44631,2,0,P|373:232|355:198,1,75,8|0,0:0|0:0,0:0:0:0:
280,96,44968,6,0,P|214:63|143:83,1,150,8|0,0:0|0:0,0:0:0:0:
88,172,45473,1,8,0:0:0:0:
176,232,45642,2,0,P|200:203|207:167,1,75
143,83,45979,1,8,0:0:0:0:
88,172,46147,1,0,0:0:0:0:
40,264,46316,6,0,P|43:301|64:331,1,75,8|0,0:0|0:0,0:0:0:0:
168,352,46652,2,0,P|204:344|231:319,1,75,0|8,0:0|0:0,0:0:0:0:
200,212,46989,2,0,P|273:212|328:260,1,150,0|8,0:0|0:0,0:0:0:0:
372,364,47495,1,0,0:0:0:0:
432,276,47663,6,0,L|428:200,1,75,8|0,0:0|0:0,0:0:0:0:
504,128,48000,2,0,L|500:52,1,75,0|8,0:0|0:0,0:0:0:0:
400,92,48337,2,0,P|321:103|244:54,1,150
180,0,48842,1,8,0:0:0:0:
72,8,49011,6,0,L|76:84,1,75,8|0,0:0|0:0,0:0:0:0:
0,156,49348,2,0,L|4:232,1,75,0|8,0:0|0:0,0:0:0:0:
100,188,49684,2,0,L|176:184,1,75
240,267,50021,1,8,0:0:0:0:
444,220,50358,6,0,P|445:293|397:348,1,150,8|2,0:0|0:0,0:0:0:0:
292,344,50864,1,10,0:0:0:0:
188,332,51032,2,0,P|152:324|124:300,1,75,0|2,0:0|0:0,0:0:0:0:
20,292,51369,2,0,P|28:255|52:227,1,75,8|2,0:0|0:0,0:0:0:0:
72,124,51706,6,0,P|109:132|137:156,1,75,8|2,0:0|0:0,0:0:0:0:
240,168,52043,2,0,P|232:204|207:232,1,75,2|8,0:0|0:0,0:0:0:0:
188,330,52380,2,0,P|151:322|123:298,1,75,2|0,0:0|0:0,0:0:0:0:
96,196,52716,2,0,P|123:171|160:164,1,75,8|2,0:0|0:0,0:0:0:0:
240,248,53053,6,0,L|389:234,1,150,8|2,0:0|0:0,0:0:0:0:
484,184,53559,1,10,0:0:0:0:
456,284,53727,2,0,P|427:308|391:315,1,75,8|2,0:0|0:0,0:0:0:0:
308,380,54064,2,0,P|283:351|276:315,1,75,8|2,0:0|0:0,0:0:0:0:
280,212,54401,6,0,L|286:137,1,75,8|0,0:0|0:0,0:0:0:0:
294,32,54738,2,0,P|257:39|229:63,1,75,8|2,0:0|0:0,0:0:0:0:
124,72,55075,2,0,P|131:108|155:136,1,75,2|8,0:0|0:0,0:0:0:0:
236,204,55412,2,0,P|207:228|171:235,1,75,8|2,0:0|0:0,0:0:0:0:
73,199,55748,6,0,P|74:125|124:71,1,150,8|2,0:0|0:0,0:0:0:0:
216,24,56254,1,10,0:0:0:0:
280,108,56422,2,0,P|308:131|344:139,1,75,0|2,0:0|0:0,0:0:0:0:
416,216,56759,2,0,P|439:187|447:151,1,75,8|2,0:0|0:0,0:0:0:0:
377,74,57096,6,0,P|353:102|345:138,1,75,8|0,0:0|0:0,0:0:0:0:
265,209,57433,2,0,P|293:232|329:240,1,75,2|8,0:0|0:0,0:0:0:0:
424,292,57770,2,0,P|368:339|295:338,1,150,2|8,0:0|0:0,0:0:0:0:
200,292,58275,1,2,0:0:0:0:
164,192,58444,6,0,P|170:155|195:127,1,75,8|0,0:0|0:0,0:0:0:0:
212,24,58780,2,0,P|249:32|278:55,1,75,8|8,0:0|0:0,0:0:0:0:
384,68,59117,2,0,P|377:104|353:133,1,75,0|8,0:0|0:0,0:0:0:0:
332,236,59454,2,0,P|295:229|267:204,1,75,8|8,0:0|0:0,0:0:0:0:
164,192,59791,6,0,P|141:220|134:257,1,75,8|0,0:0|0:0,0:0:0:0:
140,364,60128,2,0,P|175:369|210:356,1,75,0|8,0:0|0:0,0:0:0:0:
301,301,60465,2,0,P|324:272|331:235,1,75,0|8,0:0|0:0,0:0:0:0:
353,132,60802,2,0,P|346:94|323:66,1,75,8|0,0:0|0:0,0:0:0:0:
220,16,61139,6,0,L|71:30,1,150,8|8,0:0|0:0,0:0:0:0:
44,132,61644,2,0,L|58:281,1,150,8|8,0:0|0:0,0:0:0:0:
148,336,62149,2,0,B|224:348|224:348|297:322,1,150,8|0,0:0|0:0,0:0:0:0:
368,248,62655,2,0,P|391:276|399:312,2,75,8|0|8,0:0|0:0|0:0,0:0:0:0:
288,180,63160,2,0,L|139:194,1,150,8|0,0:0|0:0,0:0:0:0:
40,156,63665,1,8,0:0:0:0:
120,84,63834,6,0,P|188:56|257:80,1,150,8|0,0:0|0:0,0:0:0:0:
288,180,64339,2,0,L|400:170,1,112.5,8|0,0:0|0:0,0:0:0:0:
452,164,64676,1,8,0:0:0:0:
416,264,64844,2,0,L|267:278,1,150,8|0,0:0|0:0,0:0:0:0:
180,216,65350,2,0,P|110:202|50:239,1,112.5,8|0,0:0|0:0,0:0:0:0:
32,252,65687,1,8,0:0:0:0:
128,296,65855,2,0,L|122:371,2,75,8|8|8,0:0|0:0|0:0,0:0:0:0:
140,192,66360,1,8,0:0:0:0:
252,132,66529,6,0,P|275:160|283:196,1,75,14|0,0:0|0:0,0:0:0:0:
296,300,66866,2,0,P|332:292|361:269,1,75,2|8,0:0|0:0,0:0:0:0:
468,260,67203,2,0,P|459:223|436:194,1,75,0|8,0:0|0:0,0:0:0:0:
417,100,67540,2,0,P|381:108|352:132,1,75,8|2,0:0|0:0,0:0:0:0:
264,220,67876,6,0,P|240:190|232:154,1,75,14|0,0:0|0:0,0:0:0:0:
148,60,68213,2,0,P|177:36|213:28,1,75,8|2,0:0|0:0,0:0:0:0:
308,72,68550,2,0,P|331:101|339:137,1,75,0|8,0:0|0:0,0:0:0:0:
327,242,68887,2,0,P|290:250|261:273,1,75,8|2,0:0|0:0,0:0:0:0:
168,360,69224,6,0,L|19:374,1,150,14|0,0:0|0:0,0:0:0:0:
8,268,69729,1,8,0:0:0:0:
40,168,69898,2,0,P|105:134|176:152,1,150,0|8,0:0|0:0,0:0:0:0:
252,224,70403,1,2,0:0:0:0:
328,324,70572,6,0,P|399:341|464:308,1,150,14|2,0:0|0:0,0:0:0:0:
476,204,71077,2,0,L|488:60,1,112.5,8|0,0:0|0:0,0:0:0:0:
489,39,71414,1,8,0:0:0:0:
384,28,71582,1,8,0:0:0:0:
280,18,71751,1,2,0:0:0:0:
232,136,71919,6,0,P|260:159|296:167,1,75,14|0,0:0|0:0,0:0:0:0:
400,180,72256,2,0,P|392:216|369:245,1,75,2|8,0:0|0:0,0:0:0:0:
360,352,72593,2,0,P|323:343|294:320,1,75,0|8,0:0|0:0,0:0:0:0:
188,308,72930,2,0,P|196:272|220:243,1,75,8|2,0:0|0:0,0:0:0:0:
312,152,73267,6,0,P|282:128|246:120,1,75,14|0,0:0|0:0,0:0:0:0:
152,36,73604,2,0,P|128:65|120:101,1,75,2|8,0:0|0:0,0:0:0:0:
48,204,73940,2,0,P|77:227|113:234,1,75,0|8,0:0|0:0,0:0:0:0:
200,332,74277,2,0,P|223:302|230:266,1,75,8|2,0:0|0:0,0:0:0:0:
260,144,74614,6,0,L|111:158,1,150,14|2,0:0|0:0,0:0:0:0:
24,220,75120,1,8,0:0:0:0:
63,315,75288,2,0,P|128:348|199:331,1,150,0|8,0:0|0:0,0:0:0:0:
144,244,75793,1,2,0:0:0:0:
244,164,75962,6,0,P|315:147|380:180,1,150,14|2,0:0|0:0,0:0:0:0:
384,308,76467,1,8,0:0:0:0:
300,248,76636,2,0,P|277:277|270:313,2,75,0|8|8,0:0|0:0|0:0,0:0:0:0:
380,180,77141,1,2,0:0:0:0:
444,288,77309,6,0,P|414:310|378:318,1,75,14|0,0:0|0:0,0:0:0:0:
300,248,77646,1,2,0:0:0:0:
216,163,77815,2,0,P|150:129|79:146,1,150,8|8,0:0|0:0,0:0:0:0:
24,236,78320,2,0,L|34:348,1,112.5,8|0,0:0|0:0,0:0:0:0:
88,360,78657,6,0,P|153:326|224:342,1,150,14|2,0:0|0:0,0:0:0:0:
336,364,79162,1,8,0:0:0:0:
428,300,79331,2,0,L|503:294,2,75,0|8|8,0:0|0:0|0:0,0:0:0:0:
324,256,79836,1,2,0:0:0:0:
208,208,80004,6,0,L|194:59,1,150,14|2,0:0|0:0,0:0:0:0:
316,16,80510,2,0,B|388:-2|388:-2|468:17,1,150,8|8,0:0|0:0,0:0:0:0:
492,140,81015,2,0,P|484:194|447:236,1,112.5,8|0,0:0|0:0,0:0:0:0:
400,260,81352,6,0,P|334:226|263:242,1,150,14|2,0:0|0:0,0:0:0:0:
196,324,81857,2,0,L|47:338,1,150,8|8,0:0|0:0,0:0:0:0:
12,236,82363,2,0,P|20:199|43:170,1,75,8|2,0:0|0:0,0:0:0:0:
0,52,82700,6,0,P|71:33|136:67,1,150,14|2,0:0|0:0,0:0:0:0:
200,152,83205,2,0,L|214:301,1,150,8|8,0:0|0:0,0:0:0:0:
296,368,83710,2,0,P|332:359|361:336,1,75,8|2,0:0|0:0,0:0:0:0:
484,364,84047,6,0,P|485:290|437:235,1,150,14|2,0:0|0:0,0:0:0:0:
340,192,84552,2,0,P|286:184|244:147,1,112.5,8|0,0:0|0:0,0:0:0:0:
212,104,84889,2,0,P|182:127|146:135,1,75,8|8,0:0|0:0,0:0:0:0:
44,112,85226,1,2,0:0:0:0:
132,20,85395,6,0,P|203:1|268:35,1,150,14|2,0:0|0:0,0:0:0:0:
308,132,85900,2,0,L|294:281,1,150,8|2,0:0|0:0,0:0:0:0:
276,384,86405,2,0,P|240:375|211:352,1,75,8|2,0:0|0:0,0:0:0:0:
88,380,86742,6,0,P|87:306|135:251,1,150,14|2,0:0|0:0,0:0:0:0:
84,156,87248,2,0,P|155:137|220:171,1,150,8|8,0:0|0:0,0:0:0:0:
284,256,87753,2,0,P|313:279|349:288,1,75,8|2,0:0|0:0,0:0:0:0:
464,344,88090,6,0,L|471:237,1,75,14|0,0:0|0:0,0:0:0:0:
475,164,88427,1,0,0:0:0:0:
417,76,88595,2,0,P|346:57|281:91,1,150,8|8,0:0|0:0,0:0:0:0:
296,196,89100,2,0,P|288:250|251:292,1,112.5,8|0,0:0|0:0,0:0:0:0:
204,312,89437,5,10,0:0:0:0:
92,248,89606,1,8,0:0:0:0:
212,208,89774,1,4,0:0:0:0:
124,116,89943,2,0,P|132:79|156:50,1,75,14|0,0:0|0:0,0:0:0:0:
256,12,90280,1,0,0:0:0:0:
348,64,90448,2,0,P|309:104|255:116,1,112.5
204,116,90785,6,0,P|204:189|253:243,1,150,10|0,0:0|0:0,0:0:0:0:
304,336,91294,2,0,P|351:280|350:207,1,150,10|8,0:0|0:0,0:0:0:0:
452,188,91804,2,0,P|444:151|420:122,1,75,10|0,0:0|0:0,0:0:0:0:
324,84,92144,6,0,L|220:93,1,75,8|0,0:0|0:0,0:0:0:0:
164,156,92484,2,0,P|192:179|229:187,1,75,10|0,0:0|0:0,0:0:0:0:
308,260,92824,2,0,P|331:230|340:194,2,75,2|8|10,0:0|0:0|0:0,0:0:0:0:
208,292,93334,1,0,0:0:0:0:
84,252,93504,6,0,L|68:76,1,150,10|0,0:0|0:0,0:0:0:0:
127,15,94009,2,0,P|200:13|255:61,1,150,10|8,0:0|0:0,0:0:0:0:
360,68,94515,2,0,P|351:104|328:134,1,75,10|0,0:0|0:0,0:0:0:0:
223,127,94852,6,0,P|232:91|255:61,1,75,10|0,0:0|0:0,0:0:0:0:
360,68,95189,2,0,L|434:74,1,75,2|8,0:0|0:0,0:0:0:0:
484,168,95526,2,0,P|474:204|452:233,1,75,2|8,0:0|0:0,0:0:0:0:
376,160,95863,2,0,L|301:153,1,75,10|8,0:0|0:0,0:0:0:0:
208,240,96200,6,0,P|159:184|162:111,1,150,10|8,0:0|0:0,0:0:0:0:
128,12,96705,2,0,P|201:10|257:57,1,150,10|8,0:0|0:0,0:0:0:0:
360,71,97210,2,0,P|351:107|328:136,1,75,10|0,0:0|0:0,0:0:0:0:
316,240,97547,6,0,P|280:231|252:208,1,75,10|0,0:0|0:0,0:0:0:0:
327,136,97884,2,0,P|363:145|391:168,1,75,10|0,0:0|0:0,0:0:0:0:
316,240,98221,2,0,L|306:343,2,75,8|0|0,0:0|0:0|0:0,0:0:0:0:
327,136,98726,1,0,0:0:0:0:
232,52,98895,6,0,P|158:50|102:97,1,150,10|0,0:0|0:0,0:0:0:0:
12,148,99400,2,0,P|67:195|140:194,1,150,10|8,0:0|0:0,0:0:0:0:
248,192,99905,2,0,P|239:155|216:127,1,75,10|0,0:0|0:0,0:0:0:0:
288,52,100242,6,0,P|259:28|222:19,1,75,10|0,0:0|0:0,0:0:0:0:
116,20,100579,2,0,L|122:94,1,75,2|8,0:0|0:0,0:0:0:0:
168,188,100916,2,0,L|174:262,1,75,2|8,0:0|0:0,0:0:0:0:
256,364,101253,1,10,0:0:0:0:
256,236,101421,5,8,0:0:0:0:
