osu file format v14

[General]
AudioFilename: audio.mp3
AudioLeadIn: 0
PreviewTime: 66529
Countdown: 0
SampleSet: Soft
StackLeniency: 0.8
Mode: 0
LetterboxInBreaks: 0
WidescreenStoryboard: 0

[Editor]
Bookmarks: 836,28750,39578,50358,58444,61139,66529,90785,101590
DistanceSpacing: 1
BeatDivisor: 2
GridSize: 32
TimelineZoom: 1.1

[Metadata]
Title:Yume Tourou
TitleUnicode:夢灯籠
Artist:Konamilk
ArtistUnicode:粉ミルク
Creator:_FlameL
Version:Easy
Source:君の名は。
Tags:RADWIMPS Cover Acoustic ver version Kimi no na wa. Your Name. op opening Nikakis ShogunMoon Shunao
BeatmapID:1523015
BeatmapSetID:720433

[Difficulty]
HPDrainRate:2
CircleSize:2.5
OverallDifficulty:2.5
ApproachRate:3.5
SliderMultiplier:0.85
SliderTickRate:1

[Events]
//Background and Video events
0,0,"yourname1.jpg",0,0
//Break Periods
//Storyboard Layer 0 (Background)
//Storyboard Layer 1 (Fail)
//Storyboard Layer 2 (Pass)
//Storyboard Layer 3 (Foreground)
//Storyboard Sound Samples

[TimingPoints]
836,348.837209302326,4,2,1,25,1,0
6068,385.852090032154,4,2,1,25,1,0
6068,-90.0900900900901,4,2,1,25,0,0
6453,348.837209302326,4,2,1,25,1,0
16220,-100,4,2,1,30,0,0
16918,-100,4,2,1,35,0,0
17615,-100,4,2,1,40,0,0
27383,341.880341880342,4,2,1,55,1,0
28750,342.857142857143,4,2,1,65,1,0
31492,337.078651685393,4,2,1,65,1,0
34188,336.889387984279,4,2,1,65,1,0
39578,-100,4,2,1,50,0,0
58444,-100,4,2,1,60,0,0
66024,-100,4,2,1,40,0,0
66529,-100,4,2,2,70,0,1
89437,-100,4,2,2,80,0,1
90111,-100,4,2,1,15,0,1
90785,339.943342776204,4,2,1,65,1,0
93504,337.078651685393,4,2,1,65,1,0
96200,336.889387984279,4,2,1,65,1,0
100579,-100,4,2,1,75,0,0

[Colours]
Combo1 : 114,114,114
Combo2 : 235,148,61
Combo3 : 203,230,51
Combo4 : 52,168,224
Combo5 : 223,101,237
Combo6 : 124,64,225
SliderBorder : 255,255,255
SliderTrackOverride : 18,35,45

[HitObjects]
459,47,836,6,0,P|319:51|250:137,1,255,8|2,0:0|0:0,0:0:0:0:
286,210,2231,2,0,L|293:306,1,85,8|0,0:0|0:0,0:0:0:0:
377,289,2929,2,0,L|369:204,1,85,0|2,0:0|0:0,0:0:0:0:
430,144,3626,6,0,P|386:67|296:62,1,170,8|0,0:0|0:0,0:0:0:0:
228,35,4673,1,2,0:0:0:0:
252,116,5022,2,0,B|210:130|169:116|169:116|127:100|86:116,1,170,8|0,0:0|0:0,0:0:0:0:
22,173,6068,1,2,0:0:0:0:
9,259,6453,6,0,P|94:293|125:218,1,170,8|0,0:0|0:0,0:0:0:0:
211,257,7499,1,2,0:0:0:0:
247,333,7848,2,0,P|343:348|421:317,1,170,8|0,0:0|0:0,0:0:0:0:
436,243,8894,1,2,0:0:0:0:
358,207,9243,6,0,P|391:169|442:157,1,85,8|0,0:0|0:0,0:0:0:0:
509,163,9941,1,0,0:0:0:0:
470,87,10290,1,2,0:0:0:0:
396,44,10639,2,0,P|272:54|189:146,1,255,8|2,0:0|0:0,0:0:0:0:
155,224,12034,6,0,L|70:229,1,85,8|0,0:0|0:0,0:0:0:0:
71,314,12732,2,0,L|161:308,1,85,0|2,0:0|0:0,0:0:0:0:
229,266,13429,2,0,P|326:264|364:331,1,170,8|0,0:0|0:0,0:0:0:0:
279,336,14476,1,2,0:0:0:0:
229,266,14825,6,0,P|291:160|425:137,1,255,8|2,0:0|0:0,0:0:0:0:
425,50,16220,2,0,L|340:43,1,85,8|2,0:0|0:0,0:0:0:0:
262,78,16918,2,0,L|175:69,1,85,8|2,0:0|0:0,0:0:0:0:
92,64,17615,6,0,P|55:139|81:218,1,170,8|0,0:0|0:0,0:0:0:0:
165,224,18662,1,2,0:0:0:0:
250,231,19011,2,0,P|287:156|261:77,1,170,8|0,0:0|0:0,0:0:0:0:
177,69,20057,1,2,0:0:0:0:
171,153,20406,6,0,L|156:332,1,170,8|0,0:0|0:0,0:0:0:0:
237,350,21453,1,2,0:0:0:0:
317,322,21801,2,0,L|302:152,1,170,8|0,0:0|0:0,0:0:0:0:
361,91,22848,1,2,0:0:0:0:
443,112,23197,6,0,P|480:187|454:266,1,170,8|0,0:0|0:0,0:0:0:0:
386,316,24243,1,2,0:0:0:0:
331,250,24592,2,0,L|161:235,1,170,8|0,0:0|0:0,0:0:0:0:
100,175,25639,1,2,0:0:0:0:
169,126,25987,6,0,L|339:141,1,170,8|0,0:0|0:0,0:0:0:0:
404,86,27034,1,2,0:0:0:0:
322,55,27383,2,0,P|256:111|274:201,1,170,8|0,0:0|0:0,0:0:0:0:
213,25,28750,6,0,L|85:34,1,127.5,10|10,0:0|0:0,0:0:0:0:
156,141,29778,1,10,0:0:0:0:
113,214,30121,2,0,L|21:222,1,85,8|2,0:0|0:0,0:0:0:0:
35,306,30807,2,0,L|119:298,1,85,2|10,0:0|0:0,0:0:0:0:
192,251,31492,6,0,P|251:292|332:292,1,127.5,10|10,0:0|0:0,0:0:0:0:
291,170,32503,1,10,0:0:0:0:
359,220,32840,2,0,L|443:228,1,85,8|2,0:0|0:0,0:0:0:0:
453,143,33514,2,0,L|369:135,1,85,2|10,0:0|0:0,0:0:0:0:
372,50,34188,6,0,P|321:13|259:5,1,127.5,10|10,0:0|0:0,0:0:0:0:
274,131,35198,1,10,0:0:0:0:
195,96,35535,2,0,P|189:138|203:178,1,85,8|2,0:0|0:0,0:0:0:0:
158,250,36209,2,0,L|74:258,1,85,2|10,0:0|0:0,0:0:0:0:
74,343,36883,6,0,P|140:373|208:366,1,127.5,10|10,0:0|0:0,0:0:0:0:
158,250,37893,1,10,0:0:0:0:
235,285,38230,2,0,L|319:277,1,85,8|2,0:0|0:0,0:0:0:0:
312,191,38904,2,0,L|228:199,1,85,2|10,0:0|0:0,0:0:0:0:
170,135,39578,6,0,P|201:80|255:47,1,127.5,8|8,0:0|0:0,0:0:0:0:
132,11,40588,1,8,0:0:0:0:
64,62,40925,2,0,P|73:124|51:183,1,127.5,8|8,0:0|0:0,0:0:0:0:
170,135,41936,1,8,0:0:0:0:
227,199,42273,6,0,B|388:184,2,127.5,8|8|8,0:0|0:0|0:0,0:0:0:0:
190,275,43620,2,0,B|63:286,2,127.5,8|8|8,0:0|0:0|0:0,0:0:0:0:
227,199,44968,6,0,P|271:251|256:328,1,127.5,8|8,0:0|0:0,0:0:0:0:
395,313,45979,1,8,0:0:0:0:
439,240,46316,2,0,P|395:188|410:111,1,127.5,8|8,0:0|0:0,0:0:0:0:
270,126,47326,1,8,0:0:0:0:
227,199,47663,6,0,B|100:188,2,127.5,8|8|8,0:0|0:0|0:0,0:0:0:0:
270,126,49011,2,0,B|396:137,2,127.5,8|8|8,0:0|0:0|0:0,0:0:0:0:
283,42,50358,6,0,P|345:31|412:59,1,127.5,8|10,0:0|0:0,0:0:0:0:
477,157,51369,1,8,0:0:0:0:
442,234,51706,2,0,L|315:246,1,127.5,8|10,0:0|0:0,0:0:0:0:
362,127,52716,1,8,0:0:0:0:
313,57,53053,2,0,L|165:43,1,127.5,8|10,0:0|0:0,0:0:0:0:
236,162,54064,1,8,0:0:0:0:
186,232,54401,6,0,P|155:188|151:155,1,85,8|8,0:0|0:0,0:0:0:0:
113,82,55075,2,0,P|154:73|195:86,1,85,2|8,0:0|0:0,0:0:0:0:
236,162,55748,1,8,0:0:0:0:
172,272,56254,2,0,B|204:267|233:255|233:255|258:271|292:282,1,127.5,10|8,0:0|0:0,0:0:0:0:
367,318,57096,2,0,P|429:323|486:296,1,127.5,8|8,0:0|0:0,0:0:0:0:
406,196,58107,1,8,0:0:0:0:
461,131,58444,6,0,P|411:37|259:38,1,255,8|8,0:0|0:0,0:0:0:0:
217,91,59791,2,0,L|237:295,1,170,8|0,0:0|0:0,0:0:0:0:
172,319,60802,1,8,0:0:0:0:
117,253,61139,6,0,P|186:235|237:263,1,127.5,8|8,0:0|0:0,0:0:0:0:
323,170,62149,2,0,P|348:112|329:53,1,127.5,8|8,0:0|0:0,0:0:0:0:
211,104,63160,2,0,L|127:99,1,85,8|0,0:0|0:0,0:0:0:0:
40,96,63834,2,0,L|49:237,1,127.5,8|8,0:0|0:0,0:0:0:0:
132,318,64844,2,0,P|194:323|251:296,1,127.5,8|8,0:0|0:0,0:0:0:0:
171,195,65855,1,8,0:0:0:0:
249,162,66192,1,8,0:0:0:0:
180,111,66529,6,0,L|185:27,1,85,14|2,0:0|0:0,0:0:0:0:
99,21,67203,2,0,L|93:130,1,85,0|8,0:0|0:0,0:0:0:0:
9,106,67876,2,0,P|26:157|59:183,1,85,14|2,0:0|0:0,0:0:0:0:
132,184,68550,2,0,L|126:293,1,85,0|8,0:0|0:0,0:0:0:0:
84,340,69224,6,0,P|177:368|264:316,1,170,14|0,0:0|0:0,0:0:0:0:
278,264,70235,1,8,0:0:0:0:
239,187,70572,2,0,P|282:73|402:50,1,255,14|8,0:0|0:0,0:0:0:0:
469,102,71919,6,0,L|475:211,1,85,14|2,0:0|0:0,0:0:0:0:
480,271,72593,2,0,P|413:246|390:202,1,85,0|8,0:0|0:0,0:0:0:0:
320,243,73267,2,0,L|325:328,1,85,14|2,0:0|0:0,0:0:0:0:
240,335,73940,2,0,L|236:250,1,85,0|8,0:0|0:0,0:0:0:0:
169,197,74614,6,0,P|62:198|30:139,1,170,14|0,0:0|0:0,0:0:0:0:
115,132,75625,1,8,0:0:0:0:
197,112,75962,2,0,L|193:27,1,85,14|2,0:0|0:0,0:0:0:0:
278,23,76636,2,0,L|282:108,1,85,0|8,0:0|0:0,0:0:0:0:
320,183,77309,6,0,P|389:216|458:207,1,127.5,14|8,0:0|0:0,0:0:0:0:
479,92,78320,1,8,0:0:0:0:
403,50,78657,2,0,P|338:101|320:183,1,170,14|0,0:0|0:0,0:0:0:0:
347,262,79668,1,8,0:0:0:0:
292,326,80004,6,0,P|139:346|64:271,1,255,14|8,0:0|0:0,0:0:0:0:
100,205,81352,2,0,L|267:197,1,127.5,14|8,0:0|0:0,0:0:0:0:
158,91,82363,1,8,0:0:0:0:
217,30,82700,6,0,P|370:10|445:85,1,255,14|8,0:0|0:0,0:0:0:0:
506,120,84047,2,0,L|494:246,1,127.5,14|8,0:0|0:0,0:0:0:0:
389,174,85058,1,8,0:0:0:0:
313,213,85395,6,0,L|324:339,1,127.5,14|8,0:0|0:0,0:0:0:0:
208,288,86405,1,8,0:0:0:0:
132,247,86742,2,0,P|77:278|13:278,1,127.5,14|8,0:0|0:0,0:0:0:0:
44,154,87753,1,8,0:0:0:0:
128,159,88090,6,0,L|410:171,1,255,14|8,0:0|0:0,0:0:0:0:
385,84,89437,2,0,P|325:40|259:36,1,127.5,14|14,0:0|0:0,0:0:0:0:
239,242,90785,6,0,P|299:286|365:290,1,127.5,10|10,0:0|0:0,0:0:0:0:
340,165,91804,1,10,0:0:0:0:
417,129,92144,2,0,L|501:136,1,85,8|2,0:0|0:0,0:0:0:0:
495,221,92824,2,0,L|406:213,1,85,2|10,0:0|0:0,0:0:0:0:
340,165,93504,6,0,L|328:38,1,127.5,10|10,0:0|0:0,0:0:0:0:
224,112,94515,1,10,0:0:0:0:
146,78,94852,2,0,L|62:86,1,85,8|2,0:0|0:0,0:0:0:0:
70,170,95526,2,0,L|162:161,1,85,2|10,0:0|0:0,0:0:0:0:
209,226,96200,6,0,P|165:286|161:352,1,127.5,10|10,0:0|0:0,0:0:0:0:
285,328,97210,1,10,0:0:0:0:
358,371,97547,2,0,P|368:316|346:269,1,85,8|2,0:0|0:0,0:0:0:0:
433,246,98221,2,0,P|390:209|338:205,1,85,8|2,0:0|0:0,0:0:0:0:
348,119,98895,6,0,L|475:131,1,127.5,10|10,0:0|0:0,0:0:0:0:
421,15,99905,1,10,0:0:0:0:
336,25,100242,2,0,L|252:33,1,85,8|2,0:0|0:0,0:0:0:0:
166,44,100916,1,2,0:0:0:0:
218,111,101253,1,10,0:0:0:0:
