osu file format v14

[General]
AudioFilename: Vide Nostalgia.ogg
AudioLeadIn: 0
PreviewTime: 85160
Countdown: 0
SampleSet: Soft
StackLeniency: 0.7
Mode: 3
LetterboxInBreaks: 0
SpecialStyle: 0
WidescreenStoryboard: 0

[Editor]
DistanceSpacing: 0.8
BeatDivisor: 4
GridSize: 32
TimelineZoom: 1.2

[Metadata]
Title:Vide Nostalgia
TitleUnicode:Vide Nostalgia
Artist:Konami Amusement (Wakita Jun)
ArtistUnicode:Konami Amusement (脇田潤)
Creator:MJH
Version:Easy
Source:ノスタルジア FORTE
Tags:Video Game Instrumental Piano Classical Arcade ステージ Stage unlocks WAY OF NOSTALGIA Chapter 25 wac KONAMI BEMANI NOSTALGIA MJHs Kyousuke-
BeatmapID:3489665
BeatmapSetID:1707808

[Difficulty]
HPDrainRate:7
CircleSize:5
OverallDifficulty:7
ApproachRate:5
SliderMultiplier:1.4
SliderTickRate:1

[Events]
//Background and Video events
0,0,"vide.jpg",0,0
//Break Periods
//Storyboard Layer 0 (Background)
//Storyboard Layer 1 (Fail)
//Storyboard Layer 2 (Pass)
//Storyboard Layer 3 (Foreground)
//Storyboard Layer 4 (Overlay)
//Storyboard Sound Samples

[TimingPoints]
1387,944.88189,3,2,1,70,1,0
1387,-29.39814814,3,2,1,70,0,0
1623,833.333333,3,2,1,70,1,8
1623,-33.33333335,3,2,1,70,0,0
1832,794.701987,3,2,1,70,1,8
1832,-34.95370369,3,2,1,70,0,0
2030,952.380952,3,2,1,70,1,8
2030,-29.16666668,3,2,1,70,0,0
2268,1655.172414,3,2,1,70,1,8
2268,-16.78240741,3,2,1,70,0,0
3096,1363.636364,3,2,1,70,1,8
3096,-20.37037036,3,2,1,70,0,0
3778,1142.857143,3,2,1,70,1,8
3778,-24.30555555,3,2,1,70,0,0
4349,1206.030151,3,2,1,70,1,8
4349,-23.0324074,3,2,1,70,0,0
4952,1276.595745,3,2,1,70,1,0
4952,-21.75925925,3,2,1,70,0,0
5059,1428.571429,3,2,1,70,1,8
5059,-19.44444444,3,2,1,70,0,0
5297,1021.276596,3,2,1,70,1,8
5297,-27.19907407,3,2,1,70,0,0
5552,882.352941,3,2,1,70,1,8
5552,-31.48148149,3,2,1,70,0,0
5773,1111.111111,3,2,1,70,1,8
5773,-25,3,2,1,70,0,0
6050,923.076923,3,2,1,70,1,8
6050,-30.0925926,3,2,1,70,0,0
6281,1025.641026,3,2,1,70,1,8
6281,-27.08333332,3,2,1,70,0,0
6538,1100.917431,3,2,1,70,1,0
6538,-25.23148149,3,2,1,70,0,0
7088,1090.909091,3,2,1,70,1,8
7088,-25.46296296,3,2,1,70,0,0
7906,1121.495327,3,2,1,70,1,8
7906,-24.76851852,3,2,1,70,0,0
8187,1071.428571,3,2,1,70,1,0
8187,-25.92592594,3,2,1,70,0,0
8276,1739.130435,3,2,1,70,1,8
8276,-15.97222222,3,2,1,70,0,0
8566,923.076923,3,2,1,70,1,8
8566,-30.0925926,3,2,1,70,0,0
8796,800,3,2,1,70,1,8
8796,-34.72222222,3,2,1,70,0,0
8996,895.522388,3,2,1,70,1,8
8996,-31.01851852,3,2,1,70,0,0
9220,952.380952,3,2,1,70,1,8
9220,-29.16666668,3,2,1,70,0,0
9697,1034.482759,3,2,1,70,1,0
9697,-26.85185184,3,2,1,70,0,0
9783,1318.681319,3,2,1,70,1,8
9783,-21.06481481,3,2,1,70,0,0
10332,1126.760563,3,2,1,70,1,8
10332,-24.65277779,3,2,1,70,0,0
11459,857.142857,3,2,1,70,1,0
11459,-32.40740741,3,2,1,70,0,0
11530,1528.66242,3,2,1,70,1,8
11530,-18.1712963,3,2,1,70,0,0
11785,923.076923,3,2,1,70,1,8
11785,-30.0925926,3,2,1,70,0,0
12016,937.5,3,2,1,70,1,8
12016,-29.62962963,3,2,1,70,0,0
12250,1034.482759,3,2,1,70,1,8
12250,-26.85185184,3,2,1,70,0,0
12509,979.591837,3,2,1,70,1,8
12509,-28.35648147,3,2,1,70,0,0
12999,681.818182,3,2,1,70,1,0
12999,-40.74074073,3,2,1,70,0,0
13056,1558.441558,3,2,1,70,1,8
13056,-17.82407408,3,2,1,70,0,0
13705,2474.22680412371,3,2,1,70,1,8
13705,-11.22685185,3,2,1,70,0,0
14943,1387.28323699422,3,2,1,70,1,8
14943,-20.02314815,3,2,1,70,0,0
15636,1052.631579,3,2,1,70,1,0
15636,-26.38888889,3,2,1,70,0,0
15833,1395.348837,3,2,1,70,1,8
15833,-19.90740741,3,2,1,70,0,0
16269,875.912409,3,2,1,70,1,8
16269,-31.71296295,3,2,1,70,0,0
16707,668.523677,3,2,1,70,1,8
16707,-41.55092592,3,2,1,70,0,0
17041,779.220779,3,2,1,70,1,8
17041,-35.64814816,3,2,1,70,0,0
17431,648.648649,3,2,1,70,1,8
17431,-42.82407405,3,2,1,70,0,0
18080,705.882353,3,2,1,70,1,0
18080,-39.35185185,3,2,1,70,0,0
18433,526.315789,3,2,1,70,1,8
18433,-52.77777783,3,2,1,70,0,0
18696,606.060606,3,2,1,70,1,8
18696,-45.83333334,3,2,1,70,0,0
18999,610.687022900763,3,2,1,70,1,8
18999,-45.48611111,3,2,1,70,0,0
19304,604.534005037783,3,2,1,70,1,8
19304,-45.94907407,3,2,1,70,0,0
19908,606.060606060606,3,2,1,70,1,0
19908,-45.83333333,3,2,1,70,0,0
20211,582.524272,3,2,1,70,1,8
20211,-47.68518517,3,2,1,70,0,0
20502,570.071259,3,2,1,70,1,8
20502,-48.72685184,3,2,1,70,0,0
21642,594.059406,3,2,1,70,1,0
21642,-46.75925925,3,2,1,70,0,0
22236,576.923077,3,2,1,70,1,8
22236,-48.14814814,3,2,1,70,0,0
22525,588.235294,3,2,1,70,1,8
22525,-47.22222223,3,2,1,70,0,0
22819,568.720379,3,2,1,70,1,8
22819,-48.84259261,3,2,1,70,0,0
23388,555.555556,3,2,1,70,1,0
23388,-49.99999996,3,2,1,70,0,0
23666,582.524272,3,2,1,70,1,8
23666,-47.68518517,3,2,1,70,0,0
23957,631.578947,3,2,1,70,1,8
23957,-43.98148151,3,2,1,70,0,0
24273,652.173913,3,2,1,70,1,8
24273,-42.5925926,3,2,1,70,0,0
24599,588.235294,3,2,1,70,1,8
24599,-47.22222223,3,2,1,70,0,0
25187,645.16129,3,2,1,70,1,0
25187,-43.05555558,3,2,1,70,0,0
25348,631.578947,3,2,1,70,1,8
25348,-43.98148151,3,2,1,70,0,0
25506,659.340659,3,2,1,70,1,8
25506,-42.12962965,3,2,1,70,0,0
25836,640,3,2,1,70,1,8
25836,-43.40277778,3,2,1,70,0,0
26476,650.406504065041,3,2,1,70,1,8
26476,-42.70833333,3,2,1,70,0,0
27126,641.71123,3,2,1,70,1,0
27126,-43.28703703,3,2,1,70,0,0
27768,578.313253,3,2,1,70,1,8
27768,-48.03240741,3,2,1,70,0,0
28925,576.923077,3,2,1,70,1,0
28925,-48.14814814,3,2,1,70,0,0
40464,731.707317,3,2,1,70,1,8
40464,-37.96296297,3,2,1,70,0,0
41196,363.636364,3,2,1,70,1,1
41196,-76.38888881,3,2,1,70,0,1
41559,336.134454,3,2,1,70,1,9
41559,-82.63888884,3,2,1,70,0,1
41895,315.789474,3,2,1,70,1,9
41895,-87.96296288,3,2,1,70,0,1
42053,310.880829,3,2,1,70,1,9
42053,-89.35185186,3,2,1,70,0,1
42209,295.566502,3,2,1,70,1,1
42209,-93.98148163,3,2,1,70,0,1
42504,292.682927,3,2,1,70,1,9
42504,-94.90740735,3,2,1,70,0,1
42651,291.262136,3,2,1,70,1,9
42651,-95.37037034,3,2,1,70,0,1
42796,285.714286,3,2,1,70,1,9
42796,-97.22222212,3,2,1,70,0,1
43082,284.36019,3,2,1,70,1,1
43082,-97.68518504,3,2,1,70,0,1
43935,285.714286,3,2,1,70,1,1
43935,-97.22222212,3,2,1,70,0,1
54221,307.692308,3,2,1,70,1,1
54221,-90.27777769,3,2,1,70,0,1
54375,319.148936,3,2,1,70,1,9
54375,-87.03703708,3,2,1,70,0,1
54534,315.789474,3,2,1,70,1,8
54534,-87.96296288,3,2,1,70,0,0
55166,291.262136,3,2,1,70,1,1
55166,-95.37037034,3,2,1,70,0,1
55311,277.777778,3,2,1,70,1,9
55311,-99.99999992,3,2,1,70,0,1
55450,275.862069,3,2,1,70,1,9
55450,-100.6944444,3,2,1,70,0,1
56002,277.777778,3,2,1,70,1,9
56002,-99.99999992,3,2,1,70,0,1
56835,277.777778,6,2,1,70,1,1
56835,-99.99999992,6,2,1,70,0,1
73502,287.08134,3,2,1,70,1,1
73502,-96.75925916,3,2,1,70,0,1
73789,297.029703,3,2,1,70,1,9
73789,-93.51851851,3,2,1,70,0,1
74086,292.682927,3,2,1,70,1,9
74086,-94.90740735,3,2,1,70,0,1
74379,280.373832,3,2,1,70,1,9
74379,-99.07407399,3,2,1,70,0,1
74519,283.018868,3,2,1,70,1,9
74519,-98.14814812,3,2,1,70,0,1
74661,300,3,2,1,70,1,9
74661,-92.59259259,3,2,1,70,0,1
74961,289.855072,3,2,1,70,1,9
74961,-95.83333349,3,2,1,70,0,1
75250,335.195531,3,2,1,70,1,0
75250,-82.8703703,3,2,1,70,0,0
75418,276.497696,3,2,1,70,1,8
75418,-100.4629629,3,2,1,70,0,0
75556,300,3,2,1,70,1,8
75556,-92.59259259,3,2,1,70,0,0
75856,315.789474,3,2,1,70,1,8
75856,-87.96296288,3,2,1,70,0,0
76014,307.692308,3,2,1,70,1,8
76014,-90.27777769,3,2,1,70,0,0
76168,303.030303,3,2,1,70,1,8
76168,-91.66666668,3,2,1,70,0,0
76774,310.880829,3,2,1,70,1,8
76774,-89.35185186,3,2,1,70,0,0
77085,320.855615,3,2,1,70,1,0
77085,-86.57407407,3,2,1,70,0,0
77406,327.868852,3,2,1,70,1,8
77406,-84.72222234,3,2,1,70,0,0
77734,315.789474,3,2,1,70,1,8
77734,-87.96296288,3,2,1,70,0,0
77892,319.148936,3,2,1,70,1,8
77892,-87.03703708,3,2,1,70,0,0
78051,324.324324,3,2,1,70,1,8
78051,-85.64814823,3,2,1,70,0,0
78375,326.086957,3,2,1,70,1,8
78375,-85.18518506,3,2,1,70,0,0
78702,322.580645,3,2,1,70,1,8
78702,-86.11111115,3,2,1,70,0,0
79024,331.491713,3,2,1,70,1,0
79024,-83.79629622,3,2,1,70,0,0
79190,344.827586,3,2,1,70,1,8
79190,-80.5555556,3,2,1,70,0,0
79362,337.078652,3,2,1,70,1,8
79362,-82.40740733,3,2,1,70,0,0
79699,342.857143,3,2,1,70,1,8
79699,-81.01851848,3,2,1,70,0,0
80385,340.909091,3,2,1,70,1,8
80385,-81.48148146,3,2,1,70,0,0
81067,372.670807,3,2,1,70,1,0
81067,-74.53703713,3,2,1,70,0,0
81440,368.09816,3,2,1,70,1,8
81440,-75.46296286,3,2,1,70,0,0
81624,370.37037,3,2,1,70,1,8
81624,-75.00000008,3,2,1,70,0,0
81809,618.556701,3,2,1,70,1,8
81809,-44.90740741,3,2,1,70,0,0
83664,747.663551,3,2,1,70,1,0
83664,-37.1527778,3,2,1,70,0,0
85160,1818.181818,3,2,1,70,1,0
85160,-15.27777778,3,2,1,70,0,0
86069,1230.769231,3,2,1,70,1,8
86069,-22.56944444,3,2,1,70,0,0
86992,1250,3,2,1,70,1,8
86992,-22.22222222,3,2,1,70,0,0
87304,1066.666667,3,2,1,70,1,0
87304,-26.04166666,3,2,1,70,0,0
87838,1071.428571,3,2,1,70,1,8
87838,-25.92592594,3,2,1,70,0,0
88106,1224.489796,3,2,1,70,1,8
88106,-22.68518518,3,2,1,70,0,0
88412,1212.121212,3,2,1,70,1,8
88412,-22.91666667,3,2,1,70,0,0
89018,1176.470588,3,2,1,70,1,0
89018,-23.61111112,3,2,1,70,0,0
89606,1212.121212,3,2,1,70,1,8
89606,-22.91666667,3,2,1,70,0,0
90818,1170.731707,3,2,1,70,1,0
90818,-23.72685186,3,2,1,70,0,0
91404,1176.470588,3,2,1,70,1,8
91404,-23.61111112,3,2,1,70,0,0
91992,1428.571429,3,2,1,70,1,8
91992,-19.44444444,3,2,1,70,0,0
92706,1333.333333,3,2,1,70,1,0
92706,-20.83333334,3,2,1,70,0,0
93373,1355.932203,3,2,1,70,1,8
93373,-20.48611112,3,2,1,70,0,0
94051,1263.157895,3,2,1,70,1,8
94051,-21.99074074,3,2,1,70,0,0
94682,1263.157895,3,2,1,70,1,0
94682,-21.99074074,3,2,1,70,0,0
95314,1283.42246,3,2,1,70,1,8
95314,-21.64351852,3,2,1,70,0,0
95956,1666.666667,3,2,1,70,1,8
95956,-16.66666666,3,2,1,70,0,0
96372,1463.414634,3,2,1,70,1,8
96372,-18.98148148,3,2,1,70,0,0
96738,1428.571429,3,2,1,70,1,0
96738,-19.44444444,3,2,1,70,0,0
96917,1411.764706,3,2,1,70,1,8
96917,-19.67592592,3,2,1,70,0,0
98152,1481.481481,3,2,1,70,1,8
98152,-18.75000001,3,2,1,70,0,0
98522,1333.333333,3,2,1,70,1,8
98522,-20.83333334,3,2,1,70,0,0
98856,1428.571429,3,2,1,70,1,0
98856,-19.44444444,3,2,1,70,0,0
100284,1188.118812,3,2,1,70,1,8
100284,-23.37962963,3,2,1,70,0,0
100878,674.157303,3,2,1,70,1,0
100878,-41.20370373,3,2,1,70,0,0
113013,854.092527,3,2,1,70,1,0
113013,-32.52314814,3,2,1,70,0,0
113867,792.079208,3,2,1,70,1,8
113867,-35.06944444,3,2,1,70,0,0
115055,779.220779,3,2,1,70,1,8
115055,-35.64814816,3,2,1,70,0,0
115445,789.473684,3,2,1,70,1,0
115445,-35.18518519,3,2,1,70,0,0
116234,418.118467,3,2,1,70,1,0
116234,-66.43518517,3,2,1,70,0,0
117489,384.615385,3,2,1,70,1,8
117489,-72.22222215,3,2,1,70,0,0
118258,550.458716,3,2,1,70,1,1
118258,-50.46296293,3,2,1,70,0,1
118533,289.855072,3,2,1,70,1,9
118533,-95.83333349,3,2,1,70,0,1
118678,294.117647,3,2,1,70,1,9
118678,-94.44444446,3,2,1,70,0,1
118825,281.690141,3,2,1,70,1,9
118825,-98.61111106,3,2,1,70,0,1
118966,292.682927,3,2,1,70,1,9
118966,-94.90740735,3,2,1,70,0,1
119259,297.029703,3,2,1,70,1,1
119259,-93.51851851,3,2,1,70,0,1
119556,294.117647,3,2,1,70,1,9
119556,-94.44444446,3,2,1,70,0,1
120144,307.692308,3,2,1,70,1,1
120144,-90.27777769,3,2,1,70,0,1
120298,299.25187,3,2,1,70,1,9
120298,-92.82407417,3,2,1,70,0,1
120447,306.122449,3,2,1,70,1,9
120447,-90.74074073,3,2,1,70,0,1
120601,337.078652,3,2,1,70,1,9
120601,-82.40740733,3,2,1,70,0,1
120769,327.868852,3,2,1,70,1,9
120769,-84.72222234,3,2,1,70,0,1
121097,324.324324,3,2,1,70,1,1
121097,-85.64814823,3,2,1,70,0,1
121421,331.491713,3,2,1,70,1,9
121421,-83.79629622,3,2,1,70,0,1
121753,321.715818,3,2,1,70,1,9
121753,-86.34259251,3,2,1,70,0,1
122074,1290.32258064516,3,2,1,70,1,0
122074,-21.52777778,3,2,1,70,0,0
122396,609.137055358268,3,2,1,70,1,8
122396,-45.60185189,3,2,1,70,0,0
122548,670.391061,3,2,1,70,1,8
122548,-41.43518521,3,2,1,70,0,0
122715,662.983425,3,2,1,70,1,8
122715,-41.89814817,3,2,1,70,0,0
122881,666.666667,3,2,1,70,1,8
122881,-41.66666665,3,2,1,70,0,0
124214,909.090909,3,2,1,70,1,0
124214,-30.55555556,3,2,1,70,0,0
124442,784.313725,3,2,1,70,1,8
124442,-35.41666669,3,2,1,70,0,0
124638,827.586207,3,2,1,70,1,8
124638,-33.56481481,3,2,1,70,0,0
124845,937.5,3,2,1,70,1,8
124845,-29.62962963,3,2,1,70,0,0
125079,1200,3,2,1,70,1,8
125079,-23.14814815,3,2,1,70,0,0
125679,1500,3,2,1,70,1,8
125679,-18.51851852,3,2,1,70,0,0
126429,2016.806723,3,2,1,70,1,8
126429,-13.77314815,3,2,1,70,0,0
127437,2181.818182,3,2,1,70,1,8
127437,-12.73148148,3,2,1,70,0,0
128528,1100.917431,3,2,1,70,1,8
128528,-25.23148149,3,2,1,70,0,0
129629,1445.783133,3,2,1,70,1,0
129629,-19.21296296,3,2,1,70,0,0
131798,1283.42246,3,2,1,70,1,0
131798,-21.64351852,3,2,1,70,0,0
132440,1325.966851,3,2,1,70,1,8
132440,-20.94907407,3,2,1,70,0,0
133103,1500,3,2,1,70,1,8
133103,-18.51851852,3,2,1,70,0,0
133853,1578.947368,3,2,1,70,1,0
133853,-17.5925926,3,2,1,70,0,0
134642,1690.140845,3,2,1,70,1,8
134642,-16.43518519,3,2,1,70,0,0
135487,2051.282051,3,2,1,70,1,8
135487,-13.54166667,3,2,1,70,0,0
136513,2823.529412,2,2,1,70,1,0
136513,-10,2,2,1,70,0,0

[HitObjects]
51,192,1387,5,0,0:0:0:0:
153,192,3096,1,0,0:0:0:0:
459,192,3778,1,0,0:0:0:0:
255,192,4349,1,0,0:0:0:0:
51,192,4952,1,0,0:0:0:0:
357,192,4952,1,0,0:0:0:0:
255,192,6538,1,0,0:0:0:0:
51,192,6813,1,0,0:0:0:0:
357,192,7088,1,0,0:0:0:0:
51,192,7906,1,0,0:0:0:0:
153,192,8187,1,0,0:0:0:0:
459,192,8187,1,0,0:0:0:0:
153,192,9697,1,0,0:0:0:0:
255,192,9697,1,0,0:0:0:0:
357,192,10332,1,0,0:0:0:0:
153,192,11459,1,0,0:0:0:0:
357,192,11459,1,0,0:0:0:0:
51,192,12999,1,0,0:0:0:0:
153,192,12999,1,0,0:0:0:0:
255,192,13705,1,0,0:0:0:0:
153,192,14943,1,0,0:0:0:0:
459,192,15636,1,0,0:0:0:0:
357,192,16707,1,0,0:0:0:0:
153,192,17041,1,0,0:0:0:0:
255,192,17431,1,0,0:0:0:0:
459,192,18080,1,0,0:0:0:0:
357,192,18696,1,0,0:0:0:0:
153,192,18999,1,0,0:0:0:0:
255,192,19304,1,0,0:0:0:0:
51,192,19908,1,0,0:0:0:0:
153,192,20211,1,0,0:0:0:0:
357,192,20502,1,0,0:0:0:0:
255,192,21072,1,0,0:0:0:0:
459,192,21642,1,0,0:0:0:0:
459,192,22525,1,0,0:0:0:0:
255,192,22819,1,0,0:0:0:0:
153,192,23103,1,0,0:0:0:0:
357,192,23388,1,0,0:0:0:0:
51,192,23957,1,0,0:0:0:0:
255,192,24599,1,0,0:0:0:0:
357,192,25187,1,0,0:0:0:0:
153,192,25506,1,0,0:0:0:0:
51,192,25836,1,0,0:0:0:0:
459,192,26476,1,0,0:0:0:0:
153,192,27126,1,0,0:0:0:0:
255,192,27126,1,0,0:0:0:0:
51,192,28057,1,0,0:0:0:0:
357,192,28346,1,0,0:0:0:0:
459,192,28925,1,0,0:0:0:0:
255,192,29501,1,0,0:0:0:0:
51,192,30078,1,0,0:0:0:0:
357,192,30655,1,0,0:0:0:0:
255,192,30655,1,0,0:0:0:0:
153,192,31521,1,0,0:0:0:0:
459,192,31809,1,0,0:0:0:0:
357,192,32386,1,0,0:0:0:0:
255,192,32963,1,0,0:0:0:0:
51,192,33540,1,0,0:0:0:0:
255,192,34117,1,0,0:0:0:0:
153,192,34117,1,0,0:0:0:0:
51,192,34982,1,0,0:0:0:0:
357,192,35271,1,0,0:0:0:0:
459,192,35848,1,0,0:0:0:0:
255,192,36425,1,0,0:0:0:0:
51,192,37001,1,0,0:0:0:0:
357,192,37578,1,0,0:0:0:0:
255,192,37578,1,0,0:0:0:0:
153,192,38155,1,0,0:0:0:0:
357,192,38444,1,0,0:0:0:0:
255,192,39021,1,0,0:0:0:0:
459,192,39309,1,0,0:0:0:0:
255,192,39886,1,0,0:0:0:0:
153,192,40464,1,0,0:0:0:0:
459,192,41196,128,0,41895:0:0:0:0:
51,192,41196,1,0,0:0:0:0:
51,192,41895,1,0,0:0:0:0:
255,192,42209,1,0,0:0:0:0:
459,192,42504,1,0,0:0:0:0:
153,192,42796,1,0,0:0:0:0:
357,192,43082,1,0,0:0:0:0:
51,192,43366,1,0,0:0:0:0:
357,192,43650,1,0,0:0:0:0:
255,192,43935,1,0,0:0:0:0:
153,192,44220,1,0,0:0:0:0:
459,192,44506,1,0,0:0:0:0:
357,192,44792,1,0,0:0:0:0:
51,192,45077,1,0,0:0:0:0:
255,192,45363,1,0,0:0:0:0:
459,192,45649,1,0,0:0:0:0:
255,192,45935,1,0,0:0:0:0:
153,192,46220,1,0,0:0:0:0:
357,192,46506,1,0,0:0:0:0:
459,192,46792,1,0,0:0:0:0:
153,192,47077,1,0,0:0:0:0:
255,192,47363,1,0,0:0:0:0:
357,192,47649,1,0,0:0:0:0:
51,192,47935,1,0,0:0:0:0:
153,192,48220,128,0,49077:0:0:0:0:
459,192,49077,1,0,0:0:0:0:
255,192,49363,1,0,0:0:0:0:
51,192,49649,1,0,0:0:0:0:
357,192,49935,1,0,0:0:0:0:
153,192,50220,1,0,0:0:0:0:
459,192,50506,1,0,0:0:0:0:
51,192,50792,1,0,0:0:0:0:
255,192,51077,1,0,0:0:0:0:
357,192,51363,1,0,0:0:0:0:
51,192,51649,1,0,0:0:0:0:
153,192,51935,1,0,0:0:0:0:
459,192,52220,1,0,0:0:0:0:
357,192,52506,1,0,0:0:0:0:
153,192,52792,1,0,0:0:0:0:
459,192,53077,1,0,0:0:0:0:
51,192,53363,1,0,0:0:0:0:
255,192,53649,1,0,0:0:0:0:
357,192,53935,1,0,0:0:0:0:
255,192,54221,1,0,0:0:0:0:
459,192,54534,1,0,0:0:0:0:
153,192,54534,1,0,0:0:0:0:
255,192,55166,1,0,0:0:0:0:
51,192,55166,1,0,0:0:0:0:
255,192,55587,1,0,0:0:0:0:
51,192,55725,1,0,0:0:0:0:
459,192,56002,1,0,0:0:0:0:
357,192,56279,1,0,0:0:0:0:
153,192,56418,1,0,0:0:0:0:
255,192,56557,1,0,0:0:0:0:
357,192,56835,1,0,0:0:0:0:
51,192,57112,1,0,0:0:0:0:
153,192,57390,1,0,0:0:0:0:
255,192,57668,1,0,0:0:0:0:
357,192,57946,1,0,0:0:0:0:
153,192,58223,1,0,0:0:0:0:
459,192,58501,1,0,0:0:0:0:
255,192,58501,1,0,0:0:0:0:
459,192,58918,1,0,0:0:0:0:
255,192,59057,1,0,0:0:0:0:
51,192,59335,1,0,0:0:0:0:
153,192,59612,1,0,0:0:0:0:
357,192,59751,1,0,0:0:0:0:
255,192,59890,1,0,0:0:0:0:
153,192,60168,1,0,0:0:0:0:
459,192,60446,1,0,0:0:0:0:
357,192,60723,1,0,0:0:0:0:
255,192,61001,1,0,0:0:0:0:
153,192,61279,1,0,0:0:0:0:
357,192,61557,1,0,0:0:0:0:
459,192,61835,1,0,0:0:0:0:
51,192,61835,1,0,0:0:0:0:
255,192,62390,1,0,0:0:0:0:
357,192,62529,1,0,0:0:0:0:
153,192,63223,1,0,0:0:0:0:
357,192,63501,1,0,0:0:0:0:
459,192,63640,1,0,0:0:0:0:
51,192,63779,1,0,0:0:0:0:
153,192,64057,1,0,0:0:0:0:
255,192,64335,1,0,0:0:0:0:
357,192,64612,1,0,0:0:0:0:
459,192,64890,1,0,0:0:0:0:
51,192,65168,1,0,0:0:0:0:
357,192,65585,1,0,0:0:0:0:
153,192,65723,1,0,0:0:0:0:
459,192,66001,1,0,0:0:0:0:
255,192,66279,1,0,0:0:0:0:
357,192,66557,1,0,0:0:0:0:
51,192,66835,1,0,0:0:0:0:
153,192,67112,1,0,0:0:0:0:
459,192,67390,1,0,0:0:0:0:
357,192,67668,1,0,0:0:0:0:
255,192,67946,1,0,0:0:0:0:
153,192,68223,1,0,0:0:0:0:
357,192,68501,1,0,0:0:0:0:
51,192,68501,1,0,0:0:0:0:
51,192,68918,1,0,0:0:0:0:
357,192,69057,1,0,0:0:0:0:
255,192,69335,1,0,0:0:0:0:
153,192,69612,1,0,0:0:0:0:
357,192,69751,1,0,0:0:0:0:
51,192,69890,1,0,0:0:0:0:
255,192,70168,1,0,0:0:0:0:
459,192,70446,1,0,0:0:0:0:
153,192,70723,1,0,0:0:0:0:
255,192,71001,1,0,0:0:0:0:
357,192,71279,1,0,0:0:0:0:
255,192,71557,1,0,0:0:0:0:
459,192,71835,1,0,0:0:0:0:
153,192,71835,1,0,0:0:0:0:
153,192,72251,1,0,0:0:0:0:
459,192,72390,1,0,0:0:0:0:
357,192,72668,1,0,0:0:0:0:
255,192,72946,1,0,0:0:0:0:
459,192,73085,1,0,0:0:0:0:
153,192,73223,1,0,0:0:0:0:
357,192,73502,1,0,0:0:0:0:
51,192,73789,1,0,0:0:0:0:
153,192,74086,1,0,0:0:0:0:
459,192,74379,1,0,0:0:0:0:
255,192,74661,1,0,0:0:0:0:
51,192,74961,1,0,0:0:0:0:
459,192,75250,1,0,0:0:0:0:
357,192,75250,1,0,0:0:0:0:
51,192,75556,1,0,0:0:0:0:
153,192,75856,1,0,0:0:0:0:
255,192,76168,1,0,0:0:0:0:
357,192,76471,1,0,0:0:0:0:
459,192,76774,1,0,0:0:0:0:
357,192,77085,1,0,0:0:0:0:
255,192,77085,1,0,0:0:0:0:
153,192,77406,1,0,0:0:0:0:
255,192,77734,1,0,0:0:0:0:
357,192,78051,1,0,0:0:0:0:
459,192,78375,1,0,0:0:0:0:
357,192,78702,1,0,0:0:0:0:
153,192,79024,1,0,0:0:0:0:
51,192,79024,1,0,0:0:0:0:
255,192,79362,1,0,0:0:0:0:
459,192,79699,1,0,0:0:0:0:
153,192,80041,1,0,0:0:0:0:
255,192,80385,1,0,0:0:0:0:
357,192,80725,1,0,0:0:0:0:
459,192,81067,1,0,0:0:0:0:
51,192,81067,1,0,0:0:0:0:
357,192,81809,1,0,0:0:0:0:
153,192,81809,128,0,83664:0:0:0:0:
255,192,83664,1,0,0:0:0:0:
256,192,85160,1,0,0:0:0:0:
459,192,86069,1,0,0:0:0:0:
51,192,86992,1,0,0:0:0:0:
357,192,87304,1,0,0:0:0:0:
51,192,88106,1,0,0:0:0:0:
255,192,88412,1,0,0:0:0:0:
255,192,89018,1,0,0:0:0:0:
459,192,89606,1,0,0:0:0:0:
357,192,90515,1,0,0:0:0:0:
153,192,90818,1,0,0:0:0:0:
255,192,91698,1,0,0:0:0:0:
153,192,91992,1,0,0:0:0:0:
153,192,92706,1,0,0:0:0:0:
357,192,93373,1,0,0:0:0:0:
51,192,94051,1,0,0:0:0:0:
51,192,94682,1,0,0:0:0:0:
459,192,95956,1,0,0:0:0:0:
255,192,96372,1,0,0:0:0:0:
153,192,96738,1,0,0:0:0:0:
51,192,96738,1,0,0:0:0:0:
459,192,98152,1,0,0:0:0:0:
51,192,98856,1,0,0:0:0:0:
459,192,99570,128,0,100878:0:0:0:0:
255,192,100878,1,0,0:0:0:0:
153,192,100878,1,0,0:0:0:0:
357,192,101215,1,0,0:0:0:0:
153,192,101552,1,0,0:0:0:0:
459,192,101889,1,0,0:0:0:0:
255,192,102226,1,0,0:0:0:0:
357,192,102563,1,0,0:0:0:0:
153,192,102900,1,0,0:0:0:0:
51,192,102900,1,0,0:0:0:0:
459,192,103237,1,0,0:0:0:0:
51,192,103574,1,0,0:0:0:0:
357,192,103911,1,0,0:0:0:0:
153,192,104248,1,0,0:0:0:0:
357,192,104585,1,0,0:0:0:0:
459,192,104922,1,0,0:0:0:0:
255,192,104922,1,0,0:0:0:0:
51,192,105260,1,0,0:0:0:0:
357,192,105597,1,0,0:0:0:0:
153,192,105934,1,0,0:0:0:0:
255,192,106271,1,0,0:0:0:0:
51,192,106608,1,0,0:0:0:0:
459,192,106945,1,0,0:0:0:0:
357,192,106945,1,0,0:0:0:0:
153,192,107282,1,0,0:0:0:0:
357,192,107619,1,0,0:0:0:0:
51,192,107956,1,0,0:0:0:0:
459,192,108293,1,0,0:0:0:0:
51,192,108630,1,0,0:0:0:0:
357,192,108967,1,0,0:0:0:0:
255,192,108967,1,0,0:0:0:0:
153,192,109642,1,0,0:0:0:0:
459,192,110316,1,0,0:0:0:0:
255,192,110653,1,0,0:0:0:0:
51,192,110990,1,0,0:0:0:0:
153,192,111664,1,0,0:0:0:0:
460,192,111889,1,0,0:0:0:0:
358,192,112113,1,0,0:0:0:0:
460,192,112338,1,0,0:0:0:0:
153,192,112507,1,0,0:0:0:0:
51,192,113013,1,0,0:0:0:0:
459,192,113155,1,0,0:0:0:0:
255,192,113867,1,0,0:0:0:0:
153,192,115055,1,0,0:0:0:0:
153,192,115445,1,0,0:0:0:0:
357,192,115642,1,0,0:0:0:0:
51,192,116234,1,0,0:0:0:0:
255,192,116652,1,0,0:0:0:0:
459,192,117070,1,0,0:0:0:0:
153,192,117633,1,0,0:0:0:0:
459,192,118258,1,0,0:0:0:0:
255,192,118258,1,0,0:0:0:0:
357,192,118678,1,0,0:0:0:0:
153,192,118825,1,0,0:0:0:0:
357,192,118966,1,0,0:0:0:0:
51,192,119259,1,0,0:0:0:0:
51,192,119556,1,0,0:0:0:0:
255,192,119850,1,0,0:0:0:0:
153,192,120144,1,0,0:0:0:0:
459,192,120447,1,0,0:0:0:0:
255,192,120601,1,0,0:0:0:0:
459,192,120769,1,0,0:0:0:0:
153,192,121097,1,0,0:0:0:0:
357,192,121421,1,0,0:0:0:0:
459,192,121753,1,0,0:0:0:0:
255,192,122074,1,0,0:0:0:0:
51,192,122074,1,0,0:0:0:0:
255,192,123214,1,0,0:0:0:0:
153,192,124214,1,0,0:0:0:0:
51,192,125679,1,0,0:0:0:0:
459,192,126429,1,0,0:0:0:0:
357,192,127982,1,0,0:0:0:0:
357,192,128528,128,0,129629:0:0:0:0:
153,192,128528,1,0,0:0:0:0:
51,192,129629,1,0,0:0:0:0:
51,192,131798,1,0,0:0:0:0:
153,192,132440,1,0,0:0:0:0:
255,192,133103,1,0,0:0:0:0:
357,192,133853,1,0,0:0:0:0:
255,192,134642,1,0,0:0:0:0:
153,192,135487,1,0,0:0:0:0:
51,192,136513,128,0,142160:0:0:0:0:
