osu file format v14

[General]
AudioFilename: Rocket Knight Adventures Stage 1-1.mp3
AudioLeadIn: 1974
PreviewTime: -1
Countdown: 1
SampleSet: Soft
StackLeniency: 0.7
Mode: 0
LetterboxInBreaks: 1
WidescreenStoryboard: 0

[Editor]
Bookmarks: 61685,63247,64302,66527,68636,69104,121584
DistanceSpacing: 0.8
BeatDivisor: 6
GridSize: 32
TimelineZoom: 1

[Metadata]
Title:Rocket Knight Adventures Stage 1
TitleUnicode:Rocket Knight Adventures Stage 1
Artist:Konami
ArtistUnicode:Konami
Creator:Mifune24
Version:Rookie
Source:
Tags:
BeatmapID:29138
BeatmapSetID:6396

[Difficulty]
HPDrainRate:4
CircleSize:4
OverallDifficulty:5
ApproachRate:5
SliderMultiplier:1.7
SliderTickRate:1

[Events]
//Background and Video events
0,0,"the_rocket_knight_by_robaato-d32x4et.jpg",0,0
//Break Periods
2,58761,60485
2,127406,129052
//Storyboard Layer 0 (Background)
//Storyboard Layer 1 (Fail)
//Storyboard Layer 2 (Pass)
//Storyboard Layer 3 (Foreground)
//Storyboard Sound Samples

[TimingPoints]
459.818181818182,468.566966028895,4,2,0,100,1,0

[HitObjects]
256,32,459,6,0,B|128:32|128:128,1,170
256,128,1396,2,0,B|448:128,2,170
192,128,2568,5,2,0:0:0:0:
64,128,3036,1,2,0:0:0:0:
96,256,3505,1,2,0:0:0:0:
224,256,3974,1,2,0:0:0:0:
224,256,4208,2,2,P|320:288|384:256,1,170
416,128,5145,2,2,P|286:33|167:141,1,340
128,224,6785,5,2,0:0:0:0:
128,224,7254,1,4,0:0:0:0:
192,288,7956,6,0,B|320:288|320:160,1,170
224,128,8894,2,0,B|32:128,2,170
359,126,10299,5,2,0:0:0:0:
421,99,10534,2,2,P|437:146|293:163,1,255
247,40,11705,2,2,P|186:29|96:85,1,170
28,200,12642,2,2,P|66:269|272:195,1,340
416,128,15453,6,0,B|416:32|288:32,1,170
160,32,16391,2,0,B|64:32|0:160|96:288|192:256,1,340
301,261,17796,5,2,0:0:0:0:
369,264,18031,2,2,P|346:333|234:253,1,255
224,126,19202,2,2,P|273:46|460:140,1,340
480,256,20608,6,4,B|448:288|448:288|384:224|384:224|320:288|320:288|256:224|256:224|224:256,1,340
256,32,22951,6,0,B|352:32|416:128,2,170
256,160,24356,1,0,0:0:0:0:
256,160,24825,1,0,0:0:0:0:
288,288,25293,5,2,0:0:0:0:
219,289,25528,2,2,P|161:288|77:216,1,170
42,160,26231,1,2,0:0:0:0:
75,100,26465,1,2,0:0:0:0:
131,61,26699,2,6,B|227:-3|419:-3|483:93,2,340,6|6|2,0:0|0:0|0:0,0:0:0:0:
224,256,30213,5,0,0:0:0:0:
224,256,30448,2,0,P|294:302|383:297,1,170
502,246,31385,2,0,P|531:169|486:83,1,170
361,90,32322,2,0,P|299:135|218:82,1,170
87,88,33259,2,0,P|55:137|100:234,1,170
192,320,34196,5,2,0:0:0:0:
256,224,34665,1,2,0:0:0:0:
320,320,35133,1,2,0:0:0:0:
384,224,35602,1,2,0:0:0:0:
480,320,36070,2,2,B|480:128,3,170
384,32,37945,5,2,0:0:0:0:
320,128,38413,1,2,0:0:0:0:
256,32,38882,1,2,0:0:0:0:
192,128,39350,1,2,0:0:0:0:
153,45,39819,6,0,B|77:-27|-7:45,1,170
0,177,40756,2,0,B|76:249|160:177,1,170
288,128,41693,5,0,0:0:0:0:
416,128,42162,1,0,0:0:0:0:
448,256,42630,1,2,0:0:0:0:
320,256,43099,1,2,0:0:0:0:
192,256,43567,5,0,0:0:0:0:
64,256,44036,1,0,0:0:0:0:
96,128,44505,1,2,0:0:0:0:
224,128,44973,1,2,0:0:0:0:
314,229,45442,6,4,P|262:280|195:212,1,170
194,94,46379,2,4,P|246:43|313:111,1,170
314,229,47316,2,4,P|262:280|195:212,1,170
191,94,48253,5,2,0:0:0:0:
255,213,48722,1,2,0:0:0:0:
322,95,49190,2,4,P|354:159|322:255,1,170
256,352,50127,5,4,0:0:0:0:
160,256,50596,1,4,0:0:0:0:
256,160,51065,1,4,0:0:0:0:
160,320,52939,5,2,0:0:0:0:
160,320,53173,1,2,0:0:0:0:
352,256,53876,1,2,0:0:0:0:
352,256,54110,1,2,0:0:0:0:
160,192,54813,1,2,0:0:0:0:
160,192,55047,1,2,0:0:0:0:
320,96,55750,1,2,0:0:0:0:
320,96,55985,2,2,P|371:166|311:329,1,255
160,192,57390,5,2,0:0:0:0:
160,192,57624,2,2,B|352:192,2,170
253,36,61685,6,0,P|379:74|170:157,1,566.666666666667
256,192,64184,12,4,68636,0:0:0:0:
256,352,69104,6,0,B|128:352|128:256,1,170
256,256,70041,2,0,B|448:256,2,170
192,256,71213,5,2,0:0:0:0:
64,256,71681,1,2,0:0:0:0:
96,128,72150,1,2,0:0:0:0:
224,128,72619,1,2,0:0:0:0:
224,128,72853,2,2,P|320:96|384:128,1,170
416,256,73790,2,2,P|286:351|167:243,1,340
128,160,75430,5,2,0:0:0:0:
128,160,75899,1,4,0:0:0:0:
192,96,76601,6,0,B|320:96|320:224,1,170
224,256,77539,2,0,B|32:256,2,170
352,256,78944,5,2,0:0:0:0:
416,288,79179,2,2,P|448:192|288:224,1,340
256,288,80350,2,2,P|224:352|128:320,1,170
64,224,81287,2,2,P|134:82|320:96,1,340
416,256,84098,6,0,B|416:352|288:352,1,170
160,352,85036,2,0,B|64:352|0:224|96:96|192:128,1,340
301,123,86441,5,0,0:0:0:0:
369,120,86676,2,0,P|346:51|234:131,1,255
224,258,87847,2,0,P|273:338|460:244,1,340
480,128,89253,6,4,B|448:96|448:96|384:160|384:160|320:96|320:96|256:160|256:160|224:128,1,340
256,352,91596,6,0,B|352:352|416:256,2,170
256,224,93001,1,0,0:0:0:0:
256,224,93470,1,0,0:0:0:0:
288,96,93938,5,2,0:0:0:0:
219,97,94173,2,2,P|165:98|50:139,1,170
14,189,94876,1,2,0:0:0:0:
39,251,95110,1,2,0:0:0:0:
82,303,95344,2,6,B|178:367|370:367|434:271,2,340,6|6|2,0:0|0:0|0:0,0:0:0:0:
224,128,98858,5,0,0:0:0:0:
224,128,99093,2,0,P|294:82|383:87,1,170
502,138,100030,2,0,P|531:215|486:301,1,170
361,294,100967,2,0,P|299:249|218:302,1,170
87,296,101904,2,0,P|55:247|100:150,1,170
192,64,102841,5,2,0:0:0:0:
256,160,103310,1,2,0:0:0:0:
320,64,103778,1,2,0:0:0:0:
384,160,104247,1,2,0:0:0:0:
480,64,104715,2,2,B|480:256,3,170
384,352,106590,5,2,0:0:0:0:
320,256,107058,1,2,0:0:0:0:
256,352,107527,1,2,0:0:0:0:
192,256,107995,1,2,0:0:0:0:
153,339,108464,6,0,B|77:411|-7:339,1,170
0,207,109401,2,0,B|76:135|160:207,1,170
288,256,110338,5,0,0:0:0:0:
416,256,110807,1,0,0:0:0:0:
352,160,111275,1,2,0:0:0:0:
352,160,111744,1,2,0:0:0:0:
224,160,112212,5,0,0:0:0:0:
96,160,112681,1,0,0:0:0:0:
160,256,113150,1,2,0:0:0:0:
160,256,113618,1,2,0:0:0:0:
314,155,114087,6,4,P|262:104|195:172,1,170
194,290,115024,2,4,P|246:341|313:273,1,170
314,155,115961,2,4,P|262:104|195:172,1,170
191,290,116898,5,2,0:0:0:0:
255,171,117367,1,2,0:0:0:0:
322,289,117835,2,4,P|354:225|322:129,1,170
256,32,118772,5,4,0:0:0:0:
160,128,119241,1,4,0:0:0:0:
256,224,119710,1,4,0:0:0:0:
160,64,121584,5,2,0:0:0:0:
160,64,121818,1,2,0:0:0:0:
352,128,122521,1,2,0:0:0:0:
352,128,122755,1,2,0:0:0:0:
160,192,123458,1,2,0:0:0:0:
160,192,123692,1,2,0:0:0:0:
320,288,124395,1,2,0:0:0:0:
320,288,124630,2,2,P|371:218|311:55,1,255
160,160,126035,5,2,0:0:0:0:
160,160,126269,2,2,B|352:160,2,170
253,36,130252,6,0,P|379:74|170:157,1,566.666666666667
256,192,132829,12,4,137749,0:0:0:0:
