osu file format v14

[General]
AudioFilename: audio.mp3
AudioLeadIn: 0
PreviewTime: 168
Countdown: 1
SampleSet: Soft
StackLeniency: 0.3
Mode: 0
LetterboxInBreaks: 0
WidescreenStoryboard: 0

[Editor]
Bookmarks: 50992,51521,52050,52580,56639,79227,90521,113109
DistanceSpacing: 1.3
BeatDivisor: 4
GridSize: 8
TimelineZoom: 2.2

[Metadata]
Title:Duel Theme (F)
TitleUnicode:Duel Theme (F)
Artist:Konami
ArtistUnicode:Konami
Creator:AsyouSaidsir
Version:Hard
Source:Yugioh Online Duel Accelerator
Tags:yu-gi-oh online 3 duel monsters electronic this wont be ranked so might as well spam tags everywhere aaaaaaaaaaaaaaaaaaaaaaaaaaaaaaaaaaaaaaaaaaaaaaaaaaaaaaaaaaaaaaaaaaaaaaaaaaaaaaaaaaaaaaaaaaaaaaaaaaaaaaaaaaaaaaaaaaaaaaaaaaaaajgifigojisdfojgiofdsgfd;gklfsdkglfdjgoifdsgjfiodsgjodfisjgoifdsgaaa. TIL there's no tags limit, at all. I could go on like this for~ever and nothing could stop me. ♉ oh, you can even use symbols, that's neat. I doubt it'll be of any use
BeatmapID:1209091
BeatmapSetID:570402

[Difficulty]
HPDrainRate:5
CircleSize:3
OverallDifficulty:7
ApproachRate:8
SliderMultiplier:1.8
SliderTickRate:1

[Events]
//Background and Video events
0,0,"bg.jpg",0,0
//Break Periods
//Storyboard Layer 0 (Background)
//Storyboard Layer 1 (Fail)
//Storyboard Layer 2 (Pass)
//Storyboard Layer 3 (Foreground)
//Storyboard Sound Samples

[TimingPoints]
168.488003639773,352.941176470588,4,2,0,100,1,0
344,-100,4,2,2,100,0,0
13227,-100,4,2,2,40,0,0
13315,-100,4,2,2,100,0,0
18874,-100,4,2,2,40,0,0
18962,-100,4,2,2,100,0,0
24521,-100,4,2,2,40,0,0
24609,-100,4,2,2,100,0,0
30168,-100,4,2,2,40,0,0
30256,-100,4,2,2,100,0,0
58050,-100,4,2,2,75,0,0
58756,-100,4,2,2,35,0,0
59815,-100,4,2,2,100,0,0
63697,-100,4,2,2,75,0,0
64403,-100,4,2,2,35,0,0
65462,-100,4,2,2,100,0,0
80992,-100,4,2,2,40,0,0
81080,-100,4,2,2,100,0,0
86639,-100,4,2,2,40,0,0
86727,-100,4,2,2,100,0,0

[Colours]
Combo1 : 0,200,255
Combo2 : 125,125,255
Combo3 : 157,255,255
Combo4 : 62,62,255

[HitObjects]
48,154,168,6,0,P|105:101|143:100,1,90
130,185,521,1,8,0:0:0:0:
202,220,697,1,0,0:0:0:0:
254,285,874,2,0,P|271:360|253:394,1,90
284,206,1227,2,0,P|341:153|379:151,1,90,8|0,0:0|0:0,0:0:0:0:
363,237,1580,6,0,P|403:218|428:182,1,90
384,34,1933,1,8,0:0:0:0:
384,34,2109,1,0,0:0:0:0:
149,147,2462,1,0,0:0:0:0:
149,147,2639,2,0,P|109:166|84:202,1,90,8|0,0:0|0:0,0:0:0:0:
165,228,2992,6,0,P|205:209|230:173,1,90
211,88,3344,1,8,0:0:0:0:
149,147,3521,1,0,0:0:0:0:
230,173,3697,1,0,0:0:0:0:
312,197,3874,1,0,0:0:0:0:
246,260,4050,2,0,P|308:288|363:272,1,90,8|0,0:0|0:0,0:0:0:0:
394,223,4403,6,0,P|356:199|312:197,1,90
169,233,4756,1,8,0:0:0:0:
98,287,4933,1,0,0:0:0:0:
197,101,5286,1,0,0:0:0:0:
268,46,5462,2,0,P|315:20|368:23,1,90,8|0,0:0|0:0,0:0:0:0:
334,107,5815,6,0,P|392:120|426:160,1,90
344,194,6168,1,8,0:0:0:0:
432,237,6344,1,0,0:0:0:0:
343,275,6521,1,0,0:0:0:0:
432,319,6697,1,0,0:0:0:0:
256,319,6874,2,0,P|250:253|266:215,1,90,8|0,0:0|0:0,0:0:0:0:
344,187,7227,6,0,P|352:230|342:274,1,90
155,275,7580,1,8,0:0:0:0:
155,275,7756,1,0,0:0:0:0:
93,42,8109,1,0,0:0:0:0:
93,42,8286,2,0,P|136:33|180:43,1,90,8|0,0:0|0:0,0:0:0:0:
136,122,8639,6,0,P|179:132|223:123,1,90
292,77,8992,1,8,0:0:0:0:
301,161,9168,1,0,0:0:0:0:
356,225,9344,1,0,0:0:0:0:
436,231,9521,1,0,0:0:0:0:
356,225,9697,2,0,P|285:242|245:225,1,90,8|0,0:0|0:0,0:0:0:0:
200,197,10050,5,8,1:0:0:0:
195,188,10139,1,0,1:0:0:0:
190,180,10227,1,8,1:0:0:0:
185,171,10315,1,0,1:0:0:0:
179,163,10403,2,0,L|155:111,3,45,8|0|0|0,1:0|1:0|1:0|1:0,1:0:0:0:
125,92,10756,2,0,L|67:86,3,45,0|0|0|0,1:0|1:0|1:0|1:0,1:0:0:0:
41,111,11109,2,0,L|7:157,3,45,0|0|0|0,1:0|1:0|1:0|1:0,1:0:0:0:
20,192,11462,5,6,0:0:0:0:
247,135,11815,1,6,0:0:0:0:
110,256,12168,5,2,0:0:0:0:
165,71,12521,1,10,0:0:0:0:
193,224,12874,5,2,0:0:0:0:
86,111,13227,2,0,L|169:69,1,90,10|0,0:0|0:0,0:0:0:0:
256,76,13580,1,0,0:0:0:0:
345,70,13756,2,0,L|426:111,1,90,0|8,0:0|0:0,0:0:0:0:
386,192,14109,1,0,0:0:0:0:
467,230,14286,6,0,P|429:271|379:281,1,90
399,365,14639,2,0,P|339:343|315:293,1,90,8|0,0:0|0:0,0:0:0:0:
325,241,14992,1,0,0:0:0:0:
383,111,15168,1,0,0:0:0:0:
467,230,15344,2,4,P|429:271|379:281,1,90,8|0,0:0|0:0,0:0:0:0:
325,241,15697,6,0,P|283:224|255:190,1,90
332,158,16050,2,0,L|321:69,1,90,8|0,0:0|0:0,0:0:0:0:
255,9,16403,1,0,0:0:0:0:
191,69,16580,2,0,L|180:158,1,90,0|8,0:0|0:0,0:0:0:0:
54,358,17109,5,6,0:0:0:0:
232,344,17462,1,10,0:0:0:0:
26,265,17815,5,2,0:0:0:0:
239,246,18168,1,10,0:0:0:0:
35,171,18521,5,2,0:0:0:0:
213,157,18874,2,0,L|317:147,1,90,10|0,0:0|0:0,0:0:0:0:
302,148,19227,1,0,0:0:0:0:
253,70,19403,2,0,L|357:60,1,90,0|8,0:0|0:0,0:0:0:0:
432,50,19756,1,0,0:0:0:0:
459,136,19933,6,0,P|449:202|479:250,1,90
398,293,20286,2,0,P|332:283|284:313,1,90,8|0,0:0|0:0,0:0:0:0:
353,367,20639,1,0,0:0:0:0:
356,199,20815,1,0,0:0:0:0:
219,290,20992,2,0,P|175:299|132:287,1,90,8|0,0:0|0:0,0:0:0:0:
178,213,21344,6,0,P|221:203|264:215,1,90
330,275,21697,2,0,L|423:265,1,90,8|0,0:0|0:0,0:0:0:0:
487,192,22050,1,0,0:0:0:0:
419,118,22227,2,0,L|330:109,1,90,0|8,0:0|0:0,0:0:0:0:
85,68,22756,5,6,0:0:0:0:
213,235,23109,1,10,0:0:0:0:
208,35,23462,5,2,0:0:0:0:
94,263,23815,1,10,0:0:0:0:
85,68,24168,5,2,0:0:0:0:
213,235,24521,2,0,L|227:323,1,90,10|0,0:0|0:0,0:0:0:0:
148,366,24874,1,0,0:0:0:0:
69,324,25050,2,0,L|83:235,1,90,0|8,0:0|0:0,0:0:0:0:
148,172,25403,1,0,0:0:0:0:
84,107,25580,6,0,P|70:58|90:-1,1,90
159,57,25933,2,0,P|208:43|267:63,1,90,8|0,0:0|0:0,0:0:0:0:
309,200,26286,1,0,0:0:0:0:
148,172,26462,1,0,0:0:0:0:
309,200,26639,2,0,L|423:218,1,90,8|0,0:0|0:0,0:0:0:0:
339,282,26992,6,0,L|225:300,1,90
194,366,27344,2,0,P|162:308|169:259,1,90,8|0,0:0|0:0,0:0:0:0:
191,200,27697,1,0,0:0:0:0:
221,115,27874,2,0,P|214:70|188:34,1,90,0|8,0:0|0:0,0:0:0:0:
319,265,28403,5,6,0:0:0:0:
478,342,28756,1,10,0:0:0:0:
486,257,29109,5,2,0:0:0:0:
288,347,29462,1,10,0:0:0:0:
305,151,29815,5,2,0:0:0:0:
487,256,30168,2,0,P|493:300|477:342,1,90,10|0,0:0|0:0,0:0:0:0:
407,291,30521,1,0,0:0:0:0:
337,340,30697,2,0,P|322:298|329:254,1,90,0|8,0:0|0:0,0:0:0:0:
409,193,31050,1,0,0:0:0:0:
464,124,31227,6,0,P|400:106|348:127,1,90
300,156,31580,2,0,P|255:159|214:142,1,90,8|0,0:0|0:0,0:0:0:0:
269,73,31933,1,0,0:0:0:0:
238,242,32109,1,0,0:0:0:0:
125,133,32286,2,0,P|83:115|39:119,1,90,8|0,0:0|0:0,0:0:0:0:
71,202,32639,5,8,1:0:0:0:
20,306,32815,1,8,1:0:0:0:
127,356,32992,1,8,1:0:0:0:
176,250,33168,5,8,1:0:0:0:
188,245,33256,1,0,1:0:0:0:
201,242,33344,1,8,1:0:0:0:
214,240,33433,1,0,1:0:0:0:
227,239,33521,1,8,1:0:0:0:
240,236,33609,5,0,1:0:0:0:
253,235,33697,1,8,1:0:0:0:
266,233,33786,1,0,1:0:0:0:
279,230,33874,1,8,1:0:0:0:
291,225,33962,1,0,1:0:0:0:
302,218,34050,6,0,P|426:199|475:251,1,180,6|8,0:0|0:0,0:0:0:0:
210,166,34756,2,0,P|86:185|37:133,1,180,2|8,0:0|0:0,0:0:0:0:
377,290,35462,5,0,0:0:0:0:
135,94,35815,2,0,P|182:66|244:66,1,90,8|0,0:0|0:0,0:0:0:0:
306,70,36168,1,2,0:0:0:0:
384,113,36344,1,0,0:0:0:0:
423,194,36521,2,0,P|423:248|392:302,1,90,10|0,0:0|0:0,0:0:0:0:
342,220,36874,6,0,P|316:255|315:178,1,180,2|8,0:0|0:0,0:0:0:0:
369,138,37403,2,0,B|336:82|258:68|203:132|203:132|179:73|116:52|56:81,1,360,2|0,0:0|0:0,0:0:0:0:
110,167,38286,6,0,L|126:264,1,90
146,343,38639,1,8,0:0:0:0:
271,274,38815,2,0,L|285:185,1,90
285,185,39080,1,0,0:0:0:0:
285,185,39168,1,0,0:0:0:0:
401,115,39344,2,0,L|415:203,1,90,8|0,0:0|0:0,0:0:0:0:
401,115,39697,6,0,B|347:62|262:84|262:84|186:102|131:49,1,270,2|0,0:0|0:0,0:0:0:0:
129,49,40315,1,0,0:0:0:0:
110,36,40403,2,0,P|50:35|64:146,1,180,10|0,0:0|0:0,0:0:0:0:
305,253,41109,6,0,L|485:240,1,180,0|8,0:0|0:0,0:0:0:0:
207,334,41815,2,0,L|109:328,1,90
17,321,42168,1,8,0:0:0:0:
37,240,42344,1,0,0:0:0:0:
53,160,42521,2,0,P|48:89|215:102,1,270,2|0,0:0|0:0,0:0:0:0:
216,94,43139,1,0,0:0:0:0:
228,112,43227,2,0,P|334:113|330:62,1,180,10|0,0:0|0:0,0:0:0:0:
351,275,43933,6,0,P|401:309|443:304,1,90
416,226,44286,2,0,P|366:192|324:197,1,90,8|0,0:0|0:0,0:0:0:0:
272,241,44639,2,0,L|200:320,1,90
161,372,44992,1,8,0:0:0:0:
161,372,45168,1,0,0:0:0:0:
48,215,45344,6,0,L|172:187,1,90,2|0,0:0|0:0,0:0:0:0:
177,109,45697,2,0,L|301:81,1,90,8|0,0:0|0:0,0:0:0:0:
287,85,45962,1,0,0:0:0:0:
309,81,46050,2,0,B|443:54|443:54|432:215,1,270,2|0,0:0|0:0,0:0:0:0:
430,209,46668,1,0,0:0:0:0:
428,231,46756,6,0,P|453:287|348:298,1,180,2|8,0:0|0:0,0:0:0:0:
285,273,47286,1,0,0:0:0:0:
213,327,47462,2,0,P|196:262|219:212,1,90
244,119,47815,2,0,L|181:33,1,90,8|0,0:0|0:0,0:0:0:0:
100,48,48168,6,0,L|57:145,1,90,2|0,0:0|0:0,0:0:0:0:
25,212,48521,2,0,P|87:217|134:189,1,90,8|0,0:0|0:0,0:0:0:0:
199,226,48874,2,0,P|234:252|278:260,1,90
465,228,49227,1,8,0:0:0:0:
162,330,49580,6,0,L|62:356,1,90
8,292,49933,1,8,0:0:0:0:
48,211,50109,1,0,0:0:0:0:
87,130,50286,2,0,L|134:36,1,90
320,24,50639,1,8,0:0:0:0:
318,268,50992,6,0,P|354:305|426:302,1,90
390,230,51344,1,8,0:0:0:0:
464,192,51521,2,0,P|434:158|391:147,1,90
305,174,51874,1,0,0:0:0:0:
228,126,52050,1,8,0:0:0:0:
228,126,52227,2,0,L|136:65,1,90
55,148,52580,6,0,L|35:249,1,90,0|8,0:0|0:0,0:0:0:0:
127,233,52933,2,0,L|147:334,1,90
144,321,53286,1,0,0:0:0:0:
234,359,53462,1,8,0:0:0:0:
254,201,53639,1,0,0:0:0:0:
384,298,53815,6,0,P|432:328|492:321,1,90
452,240,54168,1,8,0:0:0:0:
439,151,54344,1,0,0:0:0:0:
401,68,54521,2,0,P|454:39|504:39,2,90,0|0|8,0:0|0:0|0:0,0:0:0:0:
348,141,55050,1,0,0:0:0:0:
288,209,55227,5,8,1:0:0:0:
268,219,55315,1,0,1:0:0:0:
246,226,55403,1,8,1:0:0:0:
223,226,55492,1,0,1:0:0:0:
201,219,55580,2,0,L|126:186,3,45,8|0|0|0,1:0|1:0|1:0|1:0,1:0:0:0:
157,178,55933,2,0,L|82:145,3,45,0|0|0|0,1:0|1:0|1:0|1:0,1:0:0:0:
112,137,56286,2,0,L|37:104,3,45,0|0|0|0,1:0|1:0|1:0|1:0,1:0:0:0:
61,98,56639,5,6,0:0:0:0:
299,55,56992,1,10,0:0:0:0:
222,314,57344,5,2,0:0:0:0:
179,76,57697,1,10,0:0:0:0:
439,151,58050,5,2,0:0:0:0:
201,194,58403,1,2,0:0:0:0:
415,155,58756,5,2,0:0:0:0:
224,189,59109,1,10,0:0:0:0:
282,23,59462,1,2,0:0:0:0:
415,155,59815,6,0,P|429:209|460:235,1,90,10|0,0:0|0:0,0:0:0:0:
351,230,60168,6,0,P|337:284|306:310,1,90,2|0,0:0|0:0,0:0:0:0:
267,235,60521,2,0,P|227:195|220:156,1,90,10|0,0:0|0:0,0:0:0:0:
306,160,60874,2,0,P|359:145|397:158,1,90,2|0,0:0|0:0,0:0:0:0:
436,224,61227,6,0,P|382:238|344:225,1,90,10|0,0:0|0:0,0:0:0:0:
306,160,61580,2,0,L|320:103,2,45,2|8|0,0:0|1:0|0:0,0:0:0:0:
229,194,61933,2,0,P|175:180|149:149,1,90,10|0,0:0|0:0,0:0:0:0:
224,108,62286,5,6,0:0:0:0:
468,157,62639,1,10,0:0:0:0:
288,276,62992,5,2,0:0:0:0:
44,227,63345,1,10,0:0:0:0:
314,169,63697,5,2,0:0:0:0:
280,340,64050,1,10,0:0:0:0:
197,214,64403,5,2,0:0:0:0:
231,43,64756,1,10,0:0:0:0:
314,169,65109,1,2,0:0:0:0:
314,169,65462,6,0,P|324:227|361:257,1,90,10|0,0:0|0:0,0:0:0:0:
225,167,65815,2,0,P|215:225|178:255,1,90,2|0,0:0|0:0,0:0:0:0:
144,179,66168,2,0,P|99:153|88:121,2,45,10|8|0,0:0|1:0|0:0,0:0:0:0:
162,95,66521,6,0,P|103:74|54:89,1,90,2|0,0:0|0:0,0:0:0:0:
162,95,66874,2,0,P|221:74|270:89,1,90,10|0,0:0|0:0,0:0:0:0:
331,108,67227,1,2,0:0:0:0:
351,117,67315,1,8,1:0:0:0:
371,126,67403,2,0,L|469:170,1,90,0|8,0:0|0:0,0:0:0:0:
81,224,67933,6,0,P|86:282|199:331,1,180,0|8,0:0|0:0,0:0:0:0:
172,243,68462,2,0,P|235:255|262:280,1,90
381,372,68815,1,0,0:0:0:0:
253,270,68992,1,8,0:0:0:0:
397,221,69168,2,0,P|436:200|461:163,1,90
379,136,69521,5,0,0:0:0:0:
251,34,69697,2,0,P|212:55|187:92,1,90,8|0,0:0|0:0,0:0:0:0:
270,120,70050,2,0,P|245:157|205:178,1,90
32,153,70403,1,8,0:0:0:0:
32,153,70580,1,0,0:0:0:0:
32,153,70756,6,0,B|120:184|120:184|224:176,1,180,0|8,0:0|0:0,0:0:0:0:
480,231,71462,1,0,0:0:0:0:
456,318,71639,5,0,0:0:0:0:
382,369,71815,1,8,0:0:0:0:
292,358,71992,1,0,0:0:0:0:
224,293,72168,6,0,P|211:232|308:249,1,180,0|8,0:0|0:0,0:0:0:0:
310,320,72697,2,0,P|279:364|245:382,1,90
158,366,73050,1,0,0:0:0:0:
141,195,73227,2,0,P|164:157|202:133,1,90,8|0,0:0|0:0,0:0:0:0:
328,157,73580,6,0,P|381:202|450:135,1,180,0|8,0:0|0:0,0:0:0:0:
379,81,74109,2,0,P|323:65|282:78,1,90
172,166,74462,1,0,0:0:0:0:
299,259,74639,2,0,P|366:289|417:286,1,90,8|0,0:0|0:0,0:0:0:0:
464,255,74992,5,0,0:0:0:0:
423,174,75168,2,0,P|356:144|305:147,1,90,0|8,0:0|0:0,0:0:0:0:
253,166,75521,1,0,0:0:0:0:
165,185,75697,2,0,P|121:176|82:153,1,90
8,101,76050,1,8,0:0:0:0:
26,12,76227,1,0,0:0:0:0:
103,57,76403,6,0,P|147:66|186:89,1,90
253,166,76756,2,0,P|291:188|335:197,1,90,8|0,0:0|0:0,0:0:0:0:
419,164,77109,1,0,0:0:0:0:
442,251,77286,1,0,0:0:0:0:
466,337,77462,2,0,P|395:327|366:297,1,90,8|0,0:0|0:0,0:0:0:0:
322,249,77815,5,0,0:0:0:0:
267,177,77992,2,0,P|227:156|183:157,1,90,0|8,0:0|0:0,0:0:0:0:
105,201,78344,1,0,0:0:0:0:
159,272,78521,2,0,P|198:292|242:291,1,90
325,255,78874,2,0,P|369:253|408:274,1,90,8|0,0:0|0:0,0:0:0:0:
466,343,79227,5,6,0:0:0:0:
356,153,79580,1,2,0:0:0:0:
466,343,79933,1,2,0:0:0:0:
356,153,80286,1,2,0:0:0:0:
466,343,80639,5,2,0:0:0:0:
356,153,80992,2,0,P|421:112|450:202,1,180,2|0,0:0|0:0,0:0:0:0:
387,238,81521,2,0,P|317:235|290:213,2,90
460,185,82050,6,0,P|425:113|356:153,1,180
302,225,82580,1,0,0:0:0:0:
396,363,82756,1,0,0:0:0:0:
302,225,82933,2,0,P|232:228|205:250,1,90
272,310,83286,1,0,0:0:0:0:
272,310,83462,5,0,0:0:0:0:
164,322,83639,1,0,0:0:0:0:
119,223,83815,2,0,P|186:156|277:136,1,180
393,161,84344,2,0,P|326:228|235:248,1,180
119,223,84874,5,6,0:0:0:0:
393,161,85227,1,2,0:0:0:0:
160,132,85580,1,2,2:0:0:0:
351,251,85933,1,2,2:0:0:0:
351,251,86286,5,2,0:0:0:0:
160,132,86639,2,0,P|141:70|54:109,1,180,2|0,0:0|0:0,0:0:0:0:
90,186,87168,2,0,P|131:215|199:211,2,90
54,103,87697,6,0,P|122:61|160:132,1,180
169,219,88227,1,0,0:0:0:0:
75,357,88403,1,0,0:0:0:0:
169,219,88580,2,0,P|213:225|248:252,1,90
177,308,88933,1,0,0:0:0:0:
177,308,89109,5,0,0:0:0:0:
281,335,89286,1,0,0:0:0:0:
334,241,89462,2,0,P|364:141|329:69,1,180
178,143,89992,2,0,P|148:243|183:315,1,180
176,308,90433,1,8,1:0:0:0:
176,308,90521,6,0,B|221:327|221:327|269:317,1,90,8|0,0:0|0:0,0:0:0:0:
233,237,90874,2,0,B|274:229|274:229|319:248,1,90,8|0,0:0|0:0,0:0:0:0:
359,338,91227,1,0,0:0:0:0:
262,318,91403,1,0,0:0:0:0:
221,156,91580,2,0,B|180:148|180:148|135:167,1,90,8|0,0:0|0:0,0:0:0:0:
91,245,91933,6,0,P|46:179|50:142,1,90
96,98,92286,2,0,L|202:55,1,90,8|0,0:0|0:0,0:0:0:0:
269,72,92639,1,0,0:0:0:0:
358,80,92815,1,0,0:0:0:0:
413,241,92992,2,0,L|307:284,1,90,8|0,0:0|0:0,0:0:0:0:
320,364,93344,6,0,P|249:317|240:276,1,90
179,374,93697,2,0,P|162:290|184:255,1,90,8|0,0:0|0:0,0:0:0:0:
227,227,94050,1,0,0:0:0:0:
227,136,94227,1,0,0:0:0:0:
149,177,94403,2,0,B|139:133|139:133|151:90,1,90,8|0,0:0|0:0,0:0:0:0:
227,136,94756,6,0,P|299:132|337:159,1,90
387,190,95109,2,0,P|429:202|473:192,1,90,8|0,0:0|0:0,0:0:0:0:
432,112,95462,1,0,0:0:0:0:
432,112,95639,1,0,0:0:0:0:
431,281,95815,2,0,L|431:379,1,90,8|0,0:0|0:0,0:0:0:0:
343,350,96168,6,0,P|299:365|234:337,1,90
295,273,96521,2,0,P|251:263|209:278,1,90,8|0,0:0|0:0,0:0:0:0:
149,345,96874,1,0,0:0:0:0:
59,351,97050,1,0,0:0:0:0:
21,189,97227,2,0,L|50:77,1,90,8|0,0:0|0:0,0:0:0:0:
121,147,97580,6,0,L|232:116,1,90
216,212,97933,2,0,L|328:241,1,90,8|0,0:0|0:0,0:0:0:0:
389,259,98286,1,0,0:0:0:0:
389,259,98462,1,0,0:0:0:0:
488,119,98639,2,0,L|376:90,1,90,8|0,0:0|0:0,0:0:0:0:
319,135,98992,6,0,P|272:146|249:117,1,90
178,61,99344,2,0,P|148:29|108:43,1,90,8|0,0:0|0:0,0:0:0:0:
49,111,99697,1,0,0:0:0:0:
34,200,99874,1,0,0:0:0:0:
41,345,100050,2,0,P|70:376|110:362,1,90,8|0,0:0|0:0,0:0:0:0:
193,326,100403,5,0,0:0:0:0:
281,309,100580,1,0,0:0:0:0:
369,294,100756,2,0,P|426:269|452:220,1,90,8|0,0:0|0:0,0:0:0:0:
362,204,101109,1,0,0:0:0:0:
362,204,101286,1,0,0:0:0:0:
351,114,101462,2,0,P|294:139|268:188,1,90,8|0,0:0|0:0,0:0:0:0:
236,239,101815,6,0,P|205:271|162:284,1,90
84,241,102168,2,0,P|114:208|157:195,1,90,8|0,0:0|0:0,0:0:0:0:
157,195,102521,1,0,0:0:0:0:
157,195,102697,1,0,0:0:0:0:
245,55,102874,2,0,P|275:22|318:9,1,90,8|0,0:0|0:0,0:0:0:0:
403,39,103227,6,0,L|415:140,1,90
389,215,103580,2,0,L|378:304,1,90,8|0,0:0|0:0,0:0:0:0:
306,358,103933,1,0,0:0:0:0:
306,358,104109,1,0,0:0:0:0:
232,304,104286,2,0,L|221:214,1,90,8|0,0:0|0:0,0:0:0:0:
218,124,104639,6,0,L|209:35,1,90
119,44,104992,2,0,L|128:133,1,90,8|0,0:0|0:0,0:0:0:0:
141,222,105344,1,0,0:0:0:0:
152,311,105521,1,0,0:0:0:0:
345,290,105697,2,0,L|354:201,1,90,8|0,0:0|0:0,0:0:0:0:
327,114,106050,6,0,P|272:93|266:56,1,90
195,124,106403,2,0,P|175:85|132:77,1,90,8|0,0:0|0:0,0:0:0:0:
52,117,106756,1,0,0:0:0:0:
24,202,106933,1,0,0:0:0:0:
61,283,107109,2,0,B|100:312|100:312|147:321,1,90,8|0,0:0|0:0,0:0:0:0:
230,298,107462,6,0,P|325:273|345:279,1,90
381,331,107815,2,0,P|286:356|266:350,1,90,8|0,0:0|0:0,0:0:0:0:
230,298,108168,1,0,0:0:0:0:
160,354,108344,1,0,0:0:0:0:
47,238,108521,2,0,P|44:178|70:126,1,90,8|0,0:0|0:0,0:0:0:0:
130,197,108874,6,0,P|180:164|238:160,1,90
205,249,109227,2,0,P|265:246|317:272,1,90,8|0,0:0|0:0,0:0:0:0:
247,334,109580,1,0,0:0:0:0:
247,334,109756,1,0,0:0:0:0:
209,159,109933,2,0,P|268:157|320:171,1,90,8|0,0:0|0:0,0:0:0:0:
358,253,110286,5,0,0:0:0:0:
250,262,110462,1,0,0:0:0:0:
141,267,110639,2,0,P|82:269|30:255,1,90,8|0,0:0|0:0,0:0:0:0:
100,165,110992,1,0,0:0:0:0:
100,165,111168,1,0,0:0:0:0:
102,353,111344,2,0,P|157:349|199:336,1,90,8|0,0:0|0:0,0:0:0:0:
250,262,111697,5,8,1:0:0:0:
261,246,111785,1,0,1:0:0:0:
276,235,111873,1,8,1:0:0:0:
293,228,111961,1,0,1:0:0:0:
306,224,112050,2,0,L|371:227,3,45,8|0|0|0,1:0|1:0|1:0|1:0,1:0:0:0:
384,256,112403,2,0,L|449:259,3,45,0|0|0|0,1:0|1:0|1:0|1:0,1:0:0:0:
456,294,112756,5,0,0:0:0:0:
56,90,113109,1,4,0:0:0:0:
