osu file format v14

[General]
AudioFilename: One Week Friends.mp3
AudioLeadIn: 0
PreviewTime: 51201
Countdown: 0
SampleSet: Normal
StackLeniency: 0.7
Mode: 0
LetterboxInBreaks: 1
WidescreenStoryboard: 1

[Editor]
DistanceSpacing: 1
BeatDivisor: 2
GridSize: 8
TimelineZoom: 1.3

[Metadata]
Title:Niji no Kakera(TV Size)
TitleUnicode:虹のかけら(TV Size)
Artist:Kon Natsumi
ArtistUnicode:昆 夏美
Creator:-Maruk-
Version:Normal
Source:一週間フレンズ。
Tags:opening One Week Friends isshuukan friends
BeatmapID:406071
BeatmapSetID:167132

[Difficulty]
HPDrainRate:4
CircleSize:3
OverallDifficulty:4
ApproachRate:4
SliderMultiplier:1
SliderTickRate:1

[Events]
//Background and Video events
Video,0,"One Week Friends.avi"
0,0,"One Week Friends.jpg",0,0
//Break Periods
//Storyboard Layer 0 (Background)
//Storyboard Layer 1 (Fail)
//Storyboard Layer 2 (Pass)
//Storyboard Layer 3 (Foreground)
//Storyboard Sound Samples

[TimingPoints]
520,454.545454545455,4,1,0,100,1,0
520,-100,4,1,0,60,0,0
50520,-100,4,1,0,5,0,0
51429,-83.3333333333333,4,1,0,90,0,1
80179,-100,4,1,0,90,0,0
82110,-100,4,1,0,5,0,0

[HitObjects]
344,112,520,6,0,L|344:32,3,50
248,96,1656,2,0,L|200:128,2,50
344,120,2565,2,0,L|392:168,2,50
248,152,3474,2,0,L|248:272,1,100
256,304,4156,2,0,B|320:344|344:280|408:312,1,150
256,192,5747,12,0,7792,0:0:0:0:
232,104,8474,6,0,P|256:80|296:72,1,50
320,88,8929,2,0,B|368:152|272:192|312:296,1,200
208,312,10292,2,0,P|144:272|96:192,1,150
136,176,11201,2,0,B|176:136|128:88|128:88|224:40,1,200
312,56,12565,2,0,L|312:-16,2,50
352,88,13247,2,0,P|392:128|408:224,1,150
360,304,14383,2,0,P|288:328|200:336,1,150
184,128,16201,6,0,L|184:192,2,50
232,112,16883,2,0,P|272:152|392:192,1,150
464,224,18247,1,0,0:0:0:0:
416,296,18701,2,0,B|392:352|344:320|344:320|312:368|264:320|264:320|232:368|160:328,1,300
160,232,20520,2,0,B|248:256|272:152|360:168,1,200
432,128,22338,6,0,P|408:192|344:272,1,150
312,248,23247,1,0,0:0:0:0:
272,208,23474,2,0,P|320:144|328:56,1,150
184,48,24838,2,0,P|96:56|8:88,1,150
48,160,25747,2,0,P|120:168|224:144,1,150
320,216,27110,6,0,L|320:280,2,50
368,200,27792,2,0,L|416:344,1,150
312,352,28929,2,0,P|240:360|168:328,1,150
272,216,30292,6,0,L|248:144,1,50
208,160,30747,2,0,L|112:240,1,100
176,312,31656,2,0,P|232:360|288:368,1,100
376,272,32792,6,0,L|376:184,1,50
336,192,33247,2,0,P|288:224|192:264,1,150
120,200,34383,2,0,L|120:144,1,50
256,192,34838,12,0,35974,0:0:0:0:
352,144,36429,6,0,L|352:208,1,50
312,224,36883,2,0,P|272:192|192:184,1,100
176,168,37565,2,0,P|168:112|128:80,1,100
88,168,38474,2,0,L|88:264,1,50
120,256,38929,1,0,0:0:0:0:
160,288,39156,1,0,0:0:0:0:
208,272,39383,6,0,P|216:216|256:144,1,100
336,192,40292,2,0,P|400:240|448:232,1,100
456,208,40974,1,0,0:0:0:0:
448,160,41201,2,0,P|424:88|376:56,1,100
312,96,42110,2,0,P|312:168|288:216,1,100
264,224,42792,2,0,P|248:272|264:304,1,50
104,320,43701,5,0,0:0:0:0:
72,280,43929,1,0,0:0:0:0:
88,232,44156,2,0,P|176:200|256:208,1,150
368,216,45520,2,0,L|368:136,1,50
336,128,45974,2,0,B|304:96|272:56|208:64,1,150
184,160,47110,2,0,L|176:256,1,50
256,192,47792,12,0,50520,0:0:0:0:
184,96,51429,6,0,P|304:64|376:120,1,179.999994506836
416,232,52565,2,0,L|416:292,2,59.9999981689454
360,232,53247,2,0,P|304:296|248:320,1,119.999996337891
216,328,53929,1,0,0:0:0:0:
160,320,54156,2,0,P|112:280|96:216,1,119.999996337891
120,176,54838,6,0,P|224:184|312:144,1,179.999994506836
328,112,55747,1,0,0:0:0:0:
224,168,56201,1,0,0:0:0:0:
248,80,56656,2,0,P|320:72|424:104,1,179.999994506836
424,160,57565,1,0,0:0:0:0:
424,160,57792,2,0,P|336:192|296:200,1,119.999996337891
272,240,58474,6,0,P|232:328|152:352,1,179.999994506836
112,336,59383,2,0,L|112:184,1,119.999996337891
112,160,60065,1,0,0:0:0:0:
168,128,60292,1,0,0:0:0:0:
224,120,60520,2,0,P|288:200|344:216,1,119.999996337891
344,184,61201,2,0,P|408:208|456:272,1,119.999996337891
344,320,62110,6,0,P|288:232|256:160,1,179.999994506836
232,112,63020,2,0,P|176:144|128:192,1,119.999996337891
168,240,63701,2,0,L|264:240,1,59.9999981689454
288,256,64156,2,0,P|360:248|432:120,1,179.999994506836
392,120,65065,2,0,B|320:144|320:144|288:96|288:96,1,119.999996337891
232,112,65974,6,0,P|152:112|88:160,1,119.999996337891
80,216,66656,2,0,P|176:240|272:240,1,179.999994506836
320,240,67565,1,0,0:0:0:0:
376,216,67792,2,0,P|320:176|296:112,1,119.999996337891
240,128,68474,2,0,B|160:152|208:64|88:48,1,179.999994506836
56,96,69383,6,0,P|32:152|64:264,1,179.999994506836
144,296,70292,1,0,0:0:0:0:
200,232,70747,2,0,P|248:168|248:104,1,119.999996337891
272,88,71429,2,0,P|352:88|448:120,1,179.999994506836
432,176,72338,2,0,P|360:216|328:264,1,119.999996337891
336,304,73020,6,0,B|304:360|304:360|256:304|224:352|224:352|144:328,1,239.999992675781
56,264,74383,6,0,L|128:208,1,59.9999981689454
136,192,74838,1,0,0:0:0:0:
184,152,75065,1,0,0:0:0:0:
304,112,75520,2,0,L|400:112,1,59.9999981689454
432,240,76429,6,0,P|376:304|352:312,1,59.9999981689454
352,328,76883,2,0,P|272:312|136:344,1,179.999994506836
128,288,77792,2,0,P|120:256|128:208,1,59.9999981689454
144,192,78247,1,0,0:0:0:0:
184,152,78474,1,0,0:0:0:0:
232,160,78701,2,0,P|312:192|368:192,1,119.999996337891
416,264,79383,2,0,P|384:344|296:384,1,179.999994506836
256,192,80292,12,0,82338,0:0:0:0:
