osu file format v14

[General]
AudioFilename: One Week Friends.mp3
AudioLeadIn: 0
PreviewTime: 51201
Countdown: 0
SampleSet: Soft
StackLeniency: 0.7
Mode: 0
LetterboxInBreaks: 1
WidescreenStoryboard: 1

[Editor]
DistanceSpacing: 1.5
BeatDivisor: 4
GridSize: 8
TimelineZoom: 1.3

[Metadata]
Title:Niji no Kakera(TV Size)
TitleUnicode:虹のかけら(TV Size)
Artist:Kon Natsumi
ArtistUnicode:昆 夏美
Creator:-Maruk-
Version:Hard Plus
Source:一週間フレンズ。
Tags:opening One Week Friends isshuukan friends
BeatmapID:406443
BeatmapSetID:167132

[Difficulty]
HPDrainRate:8
CircleSize:4
OverallDifficulty:7
ApproachRate:8
SliderMultiplier:1.6
SliderTickRate:1

[Events]
//Background and Video events
Video,0,"One Week Friends.avi"
0,0,"One Week Friends.jpg",0,0
//Break Periods
//Storyboard Layer 0 (Background)
//Storyboard Layer 1 (Fail)
//Storyboard Layer 2 (Pass)
//Storyboard Layer 3 (Foreground)
//Storyboard Sound Samples

[TimingPoints]
520,454.545454545455,4,2,0,100,1,0
520,-100,4,2,0,60,0,0
4156,-133.333333333333,4,2,0,80,0,0
4951,-100,4,2,0,80,0,0
47792,-200,4,2,0,80,0,0
50520,-100,4,2,0,80,0,0
51429,-66.6666666666667,4,2,0,90,0,1
80179,-100,4,2,0,90,0,0
82338,-100,4,2,0,5,0,0

[HitObjects]
341,328,520,6,0,L|344:242,1,80
384,184,974,1,0,0:0:0:0:
360,112,1201,2,0,P|305:85|206:93,1,160
144,136,1883,1,0,0:0:0:0:
200,192,2110,2,0,P|266:230|297:308,1,160
240,360,2792,1,0,0:0:0:0:
160,368,3020,2,0,P|104:320|96:224,1,160
144,128,3701,1,4,0:0:0:0:
256,176,3929,1,4,0:0:0:0:
419,190,4156,6,0,B|354:169|328:186|339:262|260:263,1,180.000006866455
120,312,5293,1,4,0:0:0:0:
88,304,5406,1,4,0:0:0:0:
56,288,5520,1,4,0:0:0:0:
0,232,5747,2,0,P|-2:163|62:83,1,160
128,80,6429,5,0,0:0:0:0:
272,152,6883,1,8,0:0:0:0:
272,152,6997,1,8,0:0:0:0:
272,152,7110,1,8,0:0:0:0:
184,240,7338,1,8,0:0:0:0:
256,336,7565,1,8,0:0:0:0:
256,336,7792,1,8,0:0:0:0:
394,208,8474,6,0,L|396:107,1,80
376,48,8929,2,0,P|298:44|224:95,1,160
176,144,9610,1,0,0:0:0:0:
112,192,9838,1,0,0:0:0:0:
168,248,10065,1,0,0:0:0:0:
224,304,10292,2,0,P|281:305|359:244,1,160
408,176,10974,1,0,0:0:0:0:
448,248,11201,2,0,L|448:336,1,80
368,328,11656,2,0,L|367:248,2,80,0|0|0,0:0|0:0|0:0,0:0:0:0:
136,184,12565,6,0,P|159:147|205:133,2,80
136,264,13247,2,0,P|181:280|300:255,1,160
280,184,13929,2,0,B|208:148|171:145|147:172|147:172|117:202,1,160
88,248,14610,1,0,0:0:0:0:
144,312,14838,1,0,0:0:0:0:
216,272,15065,2,0,L|296:224,1,80
352,184,15520,2,0,L|312:104,1,80
192,16,16201,6,0,P|152:16|112:40,2,80
216,96,16883,2,0,P|243:159|325:192,1,160
400,192,17565,2,0,P|425:268|391:345,1,160
320,344,18247,2,0,L|232:344,1,80
172,187,18701,2,0,P|179:266|168:352,1,160
88,344,19383,2,0,P|80:264|96:176,1,160
144,128,20065,1,0,0:0:0:0:
200,184,20292,1,0,0:0:0:0:
264,232,20520,2,0,B|338:182|385:247|443:172,1,160
456,128,21201,5,4,0:0:0:0:
384,272,21429,1,4,0:0:0:0:
288,200,21656,2,4,L|248:200,1,40
192,128,21883,1,4,0:0:0:0:
152,128,21997,1,4,0:0:0:0:
112,128,22110,1,4,0:0:0:0:
80,128,22224,1,4,0:0:0:0:
45,135,22338,2,10,P|18:209|58:278,1,160
160,208,23020,6,0,L|160:129,1,80
240,40,23474,2,0,L|239:144,1,80
328,208,23929,2,0,P|302:271|215:299,1,160
219,299,24497,1,0,0:0:0:0:
219,299,24610,1,0,0:0:0:0:
120,232,24838,6,0,B|136:160|56:136|128:64,1,160
216,24,25520,1,0,0:0:0:0:
264,136,25747,2,0,B|344:104|448:144,1,160
448,256,26429,1,0,0:0:0:0:
352,328,26656,1,0,0:0:0:0:
112,328,27110,6,0,L|112:248,2,80
232,336,27792,2,0,P|304:336|368:280,1,160
384,160,28474,1,0,0:0:0:0:
280,96,28701,1,0,0:0:0:0:
176,40,28929,2,0,P|167:78|177:117,1,80
208,232,29383,2,0,B|170:300|114:156|56:309,1,200
208,232,30292,6,0,L|208:144,1,80
320,192,30747,2,0,P|368:184|408:144,1,80
432,56,31201,1,0,0:0:0:0:
312,40,31429,2,0,P|272:48|232:72,1,80
144,144,31883,1,0,0:0:0:0:
192,256,32110,2,0,P|240:256|288:224,1,80
368,176,32565,5,0,0:0:0:0:
368,176,32679,1,0,0:0:0:0:
368,176,32792,1,0,0:0:0:0:
256,136,33020,2,0,L|160:104,1,80
72,64,33474,2,0,P|24:72|0:96,1,80
72,192,33929,2,0,P|56:272|88:352,1,160
256,192,34838,12,0,36202,0:0:0:0:
320,136,36429,5,8,0:0:0:0:
384,240,36656,1,8,0:0:0:0:
384,336,36883,2,0,B|336:368|296:376|232:360,1,160
200,136,37565,2,0,P|208:216|184:296,1,160
104,328,38247,1,8,0:0:0:0:
296,328,38474,1,8,0:0:0:0:
296,328,38701,5,8,0:0:0:0:
144,248,38929,1,8,0:0:0:0:
208,168,39156,1,0,0:0:0:0:
208,168,39383,2,0,B|224:216|304:192|328:264,1,160
424,280,40065,1,8,0:0:0:0:
416,176,40292,1,8,0:0:0:0:
368,72,40520,6,0,P|320:80|288:96,1,80
336,176,40974,1,0,0:0:0:0:
264,240,41201,2,0,P|216:256|168:248,1,80
128,192,41656,2,0,P|128:152|136:112,1,80
240,80,42110,2,0,L|240:176,1,80
240,296,42565,1,8,0:0:0:0:
368,216,42792,1,8,0:0:0:0:
240,192,43020,2,2,P|208:240|128:256,1,120
104,64,43701,6,0,L|104:160,1,80
72,232,44156,1,8,0:0:0:0:
128,304,44383,1,8,0:0:0:0:
200,344,44610,1,8,0:0:0:0:
280,352,44838,1,8,0:0:0:0:
360,344,45065,1,8,0:0:0:0:
432,312,45292,1,8,0:0:0:0:
424,112,45520,6,8,L|392:208,1,80
310,179,45974,2,8,L|336:104,1,80
248,88,46429,2,8,L|216:184,1,80
120,280,46883,2,8,L|200:240,1,80
248,176,47338,1,8,0:0:0:0:
288,296,47565,1,8,0:0:0:0:
376,336,47792,6,0,B|464:264|320:232|448:160|384:96,1,240
320,48,49383,2,2,L|280:48,1,40
176,120,49838,1,4,0:0:0:0:
216,288,50065,1,4,0:0:0:0:
344,168,50292,1,4,0:0:0:0:
104,280,51201,5,0,0:0:0:0:
120,296,51315,1,0,0:0:0:0:
144,312,51429,2,0,B|224:312|272:336|304:296,1,120.000004577637
336,256,51883,1,0,0:0:0:0:
368,152,52110,2,0,P|320:104|256:104,1,120.000004577637
112,96,52565,1,0,0:0:0:0:
40,192,52792,1,0,0:0:0:0:
112,288,53020,1,0,0:0:0:0:
192,208,53247,6,0,B|264:184|328:112|408:216,1,240.000009155274
392,296,53929,1,0,0:0:0:0:
392,296,54156,2,0,B|312:288|224:376|168:296,1,240.000009155274
96,176,54838,5,0,0:0:0:0:
96,176,54951,1,0,0:0:0:0:
96,176,55065,2,0,P|152:240|288:200,1,240.000009155274
312,120,55747,2,0,P|384:112|480:144,1,120.000004577637
464,248,56201,1,0,0:0:0:0:
408,312,56429,1,0,0:0:0:0:
336,344,56656,1,0,0:0:0:0:
272,256,56883,2,0,B|192:272|176:144|56:248,1,240.000009155274
64,320,57565,1,0,0:0:0:0:
64,320,57792,2,0,B|160:288|160:288|264:240,1,180.000006866455
320,272,58474,5,0,0:0:0:0:
320,272,58588,2,0,P|448:280|504:176,1,240.000009155274
408,144,59383,2,0,P|328:160|280:192,1,120.000004577637
295,179,59838,1,0,0:0:0:0:
208,120,60065,1,0,0:0:0:0:
144,192,60292,1,0,0:0:0:0:
144,192,60520,2,0,L|144:312,1,120.000004577637
224,352,60974,2,0,P|304:344|368:288,1,120.000004577637
400,272,61429,5,0,0:0:0:0:
424,248,61542,1,0,0:0:0:0:
448,224,61656,1,0,0:0:0:0:
408,136,62110,1,0,0:0:0:0:
408,136,62224,2,0,B|368:88|312:40|256:64,1,180.000006866455
264,168,62792,6,0,P|200:152|120:168,1,120.000004577637
96,232,63247,1,0,0:0:0:0:
112,312,63474,1,0,0:0:0:0:
192,336,63701,1,0,0:0:0:0:
272,336,63929,1,0,0:0:0:0:
352,296,64156,2,0,B|400:240|320:200|432:144|336:96|400:64,1,240.000009155274
394,66,64838,1,0,0:0:0:0:
448,168,65065,2,2,L|448:288,2,120.000004577637,0|0|0,0:0|0:0|0:0,0:0:0:0:
368,240,65747,5,0,0:0:0:0:
368,240,65860,1,0,0:0:0:0:
368,240,65974,2,0,P|328:304|288:312,1,120.000004577637
232,256,66429,2,0,P|192:208|120:200,1,120.000004577637
88,280,66883,2,0,P|128:320|216:328,1,120.000004577637
188,333,67338,1,0,0:0:0:0:
272,352,67565,1,0,0:0:0:0:
272,352,67792,2,0,B|232:280|232:280|296:216|296:216|312:144,1,240.000009155274
416,160,68474,1,0,0:0:0:0:
416,160,68701,2,0,B|400:240|400:240|440:280|440:280|360:368,1,240.000009155274
280,336,69383,5,0,0:0:0:0:
280,336,69497,1,0,0:0:0:0:
280,336,69610,2,0,P|208:320|168:256,1,120.000004577637
112,240,70065,2,0,P|88:160|104:80,1,120.000004577637
160,80,70520,1,0,0:0:0:0:
248,112,70747,2,0,L|248:240,2,120.000004577637
400,144,71429,6,0,P|368:208|208:224,1,240.000009155274
112,232,72110,1,0,0:0:0:0:
112,232,72338,2,0,P|192:320|312:352,1,240.000009155274
352,304,73020,5,0,0:0:0:0:
352,304,73133,1,0,0:0:0:0:
352,304,73247,2,0,P|304:296|256:240,1,120.000004577637
304,176,73701,2,0,B|368:152|408:152|408:152|416:112|408:16,1,240.000009155274
312,24,74383,1,0,0:0:0:0:
224,96,74610,1,0,0:0:0:0:
312,160,74838,1,0,0:0:0:0:
192,224,75065,2,0,P|104:216|64:240,1,120.000004577637
136,328,75520,1,0,0:0:0:0:
136,328,75747,2,0,P|200:360|312:336,1,180.000006866455
352,200,76429,6,0,B|320:160|392:96|352:48,1,120.000004577637
256,72,76883,1,8,0:0:0:0:
176,88,77110,1,8,0:0:0:0:
112,144,77338,1,8,0:0:0:0:
72,216,77565,1,8,0:0:0:0:
144,264,77792,2,8,L|144:384,1,120.000004577637
232,360,78247,2,8,L|232:224,1,120.000004577637
312,208,78701,1,8,0:0:0:0:
232,40,79383,6,0,B|176:104|288:160|216:272,1,240.000009155274
218,268,80065,1,0,0:0:0:0:
256,192,80292,12,0,82338,0:0:0:0:
