osu file format v14

[General]
AudioFilename: One Week Friends.mp3
AudioLeadIn: 0
PreviewTime: 51201
Countdown: 0
SampleSet: Normal
StackLeniency: 0.7
Mode: 0
LetterboxInBreaks: 1
WidescreenStoryboard: 1

[Editor]
DistanceSpacing: 1
BeatDivisor: 2
GridSize: 8
TimelineZoom: 1.3

[Metadata]
Title:Niji no Kakera(TV Size)
TitleUnicode:虹のかけら(TV Size)
Artist:Kon Natsumi
ArtistUnicode:昆 夏美
Creator:-Maruk-
Version:Easy
Source:一週間フレンズ。
Tags:opening One Week Friends isshuukan friends
BeatmapID:406069
BeatmapSetID:167132

[Difficulty]
HPDrainRate:2
CircleSize:3
OverallDifficulty:2
ApproachRate:2
SliderMultiplier:0.8
SliderTickRate:1

[Events]
//Background and Video events
Video,0,"One Week Friends.avi"
0,0,"One Week Friends.jpg",0,0
//Break Periods
2,5947,6914
//Storyboard Layer 0 (Background)
//Storyboard Layer 1 (Fail)
//Storyboard Layer 2 (Pass)
//Storyboard Layer 3 (Foreground)
//Storyboard Sound Samples

[TimingPoints]
520,454.545454545455,4,1,0,100,1,0
520,-100,4,1,0,60,0,0
50520,-100,4,1,0,5,0,0
51429,-83.3333333333333,4,1,0,90,0,1
80179,-100,4,1,0,90,0,0
82110,-100,4,1,0,5,0,0

[HitObjects]
104,120,520,6,0,P|176:96|232:104,1,120
296,136,1656,2,0,P|312:208|304:240,1,80
336,288,2565,2,0,P|384:312|432:312,1,80
440,240,3474,2,0,L|440:144,1,80
256,192,4156,12,0,5747,0:0:0:0:
144,96,8474,6,0,B|176:184|112:240|224:264|168:328,1,240
248,344,10292,2,0,P|328:336|368:288,1,120
392,240,11429,2,0,P|304:176|256:168,1,160
208,96,12565,2,0,L|104:80,1,80
48,128,13247,2,0,P|24:200|48:248,1,120
128,272,14383,2,0,P|216:256|248:208,1,120
232,144,16201,6,0,P|304:72|344:72,1,120
376,128,17338,2,0,L|376:256,1,120
256,224,18701,2,0,P|240:160|160:144,1,120
112,224,20065,1,0,0:0:0:0:
8,288,20520,2,0,P|56:336|152:344,1,160
224,320,22110,2,0,P|304:288|384:304,1,160
456,280,23474,6,0,P|432:192|408:176,1,120
256,224,24838,2,0,P|288:288|328:320,1,120
392,304,25747,2,0,P|440:264|456:208,1,120
336,144,27110,2,0,P|288:184|280:224,1,80
208,240,27792,2,0,P|152:208|96:200,1,120
48,280,28929,1,0,0:0:0:0:
120,336,29383,2,0,P|176:360|264:344,1,120
264,328,30292,6,0,L|288:232,1,80
280,144,31201,2,0,P|216:96|136:96,1,160
112,216,32792,2,0,B|136:208|184:256|184:256|248:232,1,120
280,192,33929,2,0,L|280:280,1,80
208,304,34838,2,0,B|144:288|144:288|112:184|144:136,1,200
232,72,36429,6,0,P|272:72|328:104,1,80
352,160,37338,1,0,0:0:0:0:
312,176,37565,2,0,P|232:168|152:200,1,160
120,264,38929,1,0,0:0:0:0:
184,312,39383,2,0,P|224:264|296:264,1,120
312,280,40292,2,0,P|376:280|432:216,1,120
400,208,41201,2,0,P|368:152|336:128,1,80
312,208,42110,2,0,P|216:240|144:240,1,160
72,160,43701,5,0,0:0:0:0:
144,120,44156,2,0,P|216:80|376:112,1,240
360,184,45974,2,0,P|248:240|128:200,1,240
256,192,47792,12,0,50520,0:0:0:0:
264,96,51429,6,0,P|320:112|392:208,1,143.999995605469
336,256,52565,2,0,P|248:240|200:192,2,143.999995605469
416,240,54156,2,0,P|456:184|464:136,1,95.9999970703126
408,64,55065,6,0,P|320:80|240:56,1,143.999995605469
200,120,56201,2,0,L|200:240,1,95.9999970703126
216,296,56883,2,0,B|288:344|288:344|344:296|416:360,1,191.999994140625
360,176,58474,6,0,P|280:216|208:232,1,143.999995605469
160,160,59610,2,0,P|80:176|48:280,1,191.999994140625
136,296,60974,2,0,L|200:296,1,47.9999985351563
232,120,62110,6,0,P|304:88|368:104,1,143.999995605469
368,152,63020,2,0,P|432:200|456:264,1,143.999995605469
360,280,64156,2,0,P|272:224|184:232,1,191.999994140625
209,169,65520,6,0,P|178:131|184:80,1,95.9999970703126
288,80,66429,1,0,0:0:0:0:
376,144,66883,2,0,P|416:200|416:240,1,95.9999970703126
360,296,67792,2,0,B|312:368|256:288|176:352,1,191.999994140625
80,240,69383,6,0,B|136:264|168:176|168:176|264:240|280:152,1,191.999994140625
320,232,70747,2,0,L|440:256,1,95.9999970703126
440,296,71429,2,0,P|392:328|256:344,1,191.999994140625
208,208,73020,6,0,B|288:216|344:168|344:168|392:136,1,191.999994140625
304,80,74383,2,0,P|240:80|144:104,1,143.999995605469
88,160,75520,2,0,L|88:240,1,47.9999985351563
208,128,76429,6,0,P|264:144|296:168,1,95.9999970703126
368,232,77338,2,0,P|328:288|256:336,1,143.999995605469
176,296,78701,2,0,P|168:208|232:128,1,191.999994140625
256,192,80292,12,0,82338,0:0:0:0:
