osu file format v14

[General]
AudioFilename: audio.mp3
AudioLeadIn: 0
PreviewTime: 50880
Countdown: 0
SampleSet: Soft
StackLeniency: 0.5
Mode: 0
LetterboxInBreaks: 0
WidescreenStoryboard: 1

[Editor]
DistanceSpacing: 1
BeatDivisor: 2
GridSize: 8
TimelineZoom: 1.4

[Metadata]
Title:Niji no Kakera (TV Size)
TitleUnicode:虹のかけら (TV Size)
Artist:Kon Natsumi
ArtistUnicode:昆夏美
Creator:pancakespk
Version:Mrgglock's Normal
Source:一週間フレンズ。
Tags:mrgglock keke tang kyairie notabox anime pop japanese jpop j-pop Isshuukan friends. one week friends op opening
BeatmapID:4198578
BeatmapSetID:2013573

[Difficulty]
HPDrainRate:4
CircleSize:3
OverallDifficulty:4
ApproachRate:5
SliderMultiplier:1.3
SliderTickRate:1

[Events]
//Background and Video events
0,0,"background.jpg",0,0
//Break Periods
//Storyboard Layer 0 (Background)
//Storyboard Layer 1 (Fail)
//Storyboard Layer 2 (Pass)
//Storyboard Layer 3 (Foreground)
//Storyboard Layer 4 (Overlay)
//Storyboard Sound Samples

[TimingPoints]
312,454.545454545455,4,2,1,40,1,0
312,-125,4,2,1,40,0,0
3948,-100,4,2,1,70,0,0
6675,-100,4,2,1,55,0,0
7357,-111.111111111111,4,2,1,55,0,0
7584,-111.111111111111,4,2,1,45,0,0
20766,-111.111111111111,4,2,1,50,0,0
22130,-100,4,2,1,60,0,0
36675,-111.111111111111,4,2,1,60,0,0
43948,-100,4,2,1,63,0,0
44630,-100,4,2,1,65,0,0
45312,-100,4,2,1,67,0,0
45766,-100,4,2,1,69,0,0
46448,-100,4,2,1,71,0,0
47130,-100,4,2,1,73,0,0
47584,-100,4,2,1,75,0,0
49175,-100,4,2,1,80,0,0
51221,-90.9090909090909,4,2,1,80,0,1
78493,-100,4,2,1,80,0,0
78607,-125,4,2,1,40,0,0
88948,-125,4,2,1,5,0,0

[Colours]
Combo1 : 184,119,255
Combo2 : 255,255,128
Combo3 : 55,181,255
Combo4 : 100,200,200

[HitObjects]
425,369,312,6,0,P|457:381|483:385,2,52,2|0|0,2:2|0:0|0:0,0:0:0:0:
390,330,993,1,2,2:2:0:0:
295,285,1448,2,0,P|263:297|237:301,2,52,0|0|2,0:0|0:0|2:2,0:0:0:0:
367,210,2357,2,0,P|399:222|425:226,2,52,0|0|2,0:0|0:0|2:2,0:0:0:0:
316,118,3266,1,2,2:2:0:0:
316,118,3493,2,0,P|327:90|336:39,1,52,2|0,3:2|0:0,0:0:0:0:
291,18,3948,6,0,B|227:-8|233:56|163:28,1,130,6|0,3:2|0:0,0:0:0:0:
109,0,4630,1,6,3:2:0:0:
29,102,5084,2,0,P|21:144|12:169,1,65,10|10,2:2|2:3,0:0:0:0:
40,224,5539,2,0,B|122:241|122:241|179:200|179:200|269:215|269:215|216:224|201:284,1,325,6|8,3:2|2:3,0:0:0:0:
316,334,7130,1,8,2:2:0:0:
316,334,7357,6,0,P|379:314|455:302,1,116.999996429443,4|0,2:3|0:0,0:0:0:0:
499,211,8266,2,0,P|464:203|428:167,1,58.4999982147217,2|2,2:2|2:2,0:0:0:0:
423,136,8721,1,2,2:2:0:0:
346,47,9175,2,0,P|289:37|234:70,1,116.999996429443,2|0,3:2|0:0,0:0:0:0:
208,177,10084,1,2,2:2:0:0:
90,172,10539,2,0,P|61:168|28:156,1,58.4999982147217,2|10,2:2|2:1,0:0:0:0:
4,107,10993,6,0,P|19:37|74:13,1,116.999996429443,2|0,3:2|0:0,0:0:0:0:
117,23,11675,1,8,2:1:0:0:
117,23,11902,1,2,2:2:0:0:
217,83,12357,2,0,P|207:111|203:140,2,58.4999982147217,2|10|2,2:2|2:1|3:2,0:0:0:0:
272,65,13039,2,0,B|317:85|317:85|421:59,1,116.999996429443,2|10,3:2|2:1,0:0:0:0:
438,50,13721,1,2,2:2:0:0:
494,152,14175,1,2,3:2:0:0:
409,234,14630,6,0,P|342:234|287:187,1,116.999996429443,2|0,3:2|0:0,0:0:0:0:
280,158,15312,1,8,2:1:0:0:
280,158,15539,1,2,2:2:0:0:
168,123,15993,2,0,P|180:95|187:59,2,58.4999982147217,2|10|2,2:2|2:1|3:2,0:0:0:0:
111,138,16675,2,0,P|56:195|67:246,1,116.999996429443,2|10,3:2|2:1,0:0:0:0:
84,279,17357,1,2,2:2:0:0:
229,377,18039,1,10,2:1:0:0:
303,287,18493,6,0,P|314:225|338:156,1,116.999996429443,2|8,3:2|2:1,0:0:0:0:
357,121,19175,1,2,2:2:0:0:
498,224,19857,2,0,P|504:260|495:286,1,58.4999982147217,10|2,2:1|3:2,0:0:0:0:
450,315,20312,2,0,B|404:309|404:309|382:324|382:324|304:313,1,116.999996429443,2|8,3:2|2:1,0:0:0:0:
285,308,20993,1,10,2:3:0:0:
285,308,21221,2,0,P|282:277|265:238,1,58.4999982147217,2|8,2:2|2:2,0:0:0:0:
237,204,21675,1,4,2:3:0:0:
359,159,22130,6,0,P|370:90|388:30,1,130,4|0,3:2|3:2,0:0:0:0:
329,2,22812,2,0,P|291:1|258:23,1,65,2|0,2:2|3:2,0:0:0:0:
230,66,23266,1,2,2:2:0:0:
109,16,23721,2,0,B|137:62|137:62|98:147,1,130,2|0,2:2|0:0,0:0:0:0:
78,192,24402,1,0,3:2:0:0:
78,192,24630,1,2,2:2:0:0:
5,299,25084,2,0,P|48:309|69:320,1,65,2|10,2:2|2:2,0:0:0:0:
114,362,25539,6,0,B|187:378|171:318|259:339,1,130,2|0,2:2|0:0,0:0:0:0:
300,350,26221,1,0,3:2:0:0:
358,234,26675,2,0,P|348:200|340:136,1,65,0|2,3:2|2:2,0:0:0:0:
292,129,27130,2,0,P|301:95|310:31,1,65,10|2,2:2|2:2,0:0:0:0:
347,15,27584,2,0,P|414:10|464:83,1,130,2|0,3:2|3:2,0:0:0:0:
469,115,28266,1,2,2:2:0:0:
509,238,28721,2,0,P|494:278|490:304,1,65,10|4,2:2|2:3,0:0:0:0:
506,367,29175,1,2,3:2:0:0:
506,367,29402,6,0,B|456:357|456:357|431:374|431:374|376:365,1,130,4|0,3:2|3:2,0:0:0:0:
320,346,30084,1,2,2:2:0:0:
247,237,30539,2,0,P|263:180|275:110,1,130,2|2,2:2|2:2,0:0:0:0:
260,46,31221,1,0,3:2:0:0:
142,4,31675,1,10,2:2:0:0:
142,4,31902,2,0,P|57:28|37:113,1,130,6|8,3:2|2:3,0:0:0:0:
36,124,32584,1,10,2:2:0:0:
151,184,33039,5,6,3:2:0:0:
151,184,33266,2,0,P|136:220|130:246,1,65,0|8,0:0|2:2,0:0:0:0:
73,277,33721,2,0,P|88:313|94:339,1,65,6|0,3:2|0:0,0:0:0:0:
140,383,34175,1,2,3:2:0:0:
255,322,34630,2,0,B|250:272|250:272|265:248|265:248|257:184,1,130,6|0,3:2|3:2,0:0:0:0:
209,153,35312,2,0,P|223:122|237:70,1,65,8|0,2:2|3:2,0:0:0:0:
211,31,35766,1,0,3:2:0:0:
338,4,36221,2,0,P|374:10|402:37,1,65,10|2,2:2|2:2,0:0:0:0:
414,82,36675,5,6,3:2:0:0:
414,82,36902,2,0,P|396:145|385:196,1,116.999996429443,0|2,3:2|3:2,0:0:0:0:
272,227,37812,2,0,P|212:247|197:301,1,116.999996429443,2|2,3:2|2:2,0:0:0:0:
219,353,38493,1,0,3:2:0:0:
219,353,38721,2,0,P|280:359|345:380,1,116.999996429443,2|2,3:2|3:2,0:0:0:0:
447,348,39630,2,0,P|482:304|450:217,1,116.999996429443,2|2,3:2|2:2,0:0:0:0:
439,209,40312,5,2,3:2:0:0:
439,209,40539,2,0,P|448:154|467:89,1,116.999996429443,0|2,3:2|3:2,0:0:0:0:
381,12,41448,1,2,3:2:0:0:
266,33,41902,2,0,B|241:76|241:76|266:149,1,116.999996429443,6|8,3:2|2:2,0:0:0:0:
289,197,42584,1,10,2:3:0:0:
289,197,42812,2,0,B|314:240|314:240|288:313,1,116.999996429443,6|0,3:2|3:2,0:0:0:0:
272,358,43493,1,10,2:3:0:0:
142,374,43948,6,0,P|64:366|23:280,1,130,14|0,2:2|3:2,0:0:0:0:
64,273,44630,2,0,P|99:264|139:264,2,65,10|0|0,2:2|3:2|3:2,0:0:0:0:
16,228,45312,1,10,2:2:0:0:
125,158,45766,2,0,P|112:89|91:31,1,130,10|0,2:2|3:2,0:0:0:0:
149,2,46448,2,0,P|177:23|239:14,1,65,10|0,2:2|3:2,0:0:0:0:
272,13,46902,1,2,3:2:0:0:
272,13,47130,1,10,2:2:0:0:
313,136,47584,6,0,B|334:183|334:183|309:265,1,130,6|8,3:2|2:2,0:0:0:0:
287,319,48266,1,0,3:2:0:0:
287,319,48493,2,0,P|365:363|432:318,1,130,0|8,3:2|2:2,0:0:0:0:
445,308,49175,2,0,P|448:252|469:170,1,130,6|0,3:2|3:2,0:0:0:0:
496,125,49857,1,8,2:2:0:0:
496,125,50084,1,8,2:2:0:0:
142,68,51221,6,0,B|77:48|77:48|21:76,2,107.25000327301,6|2|2,3:2|2:2|2:2,0:0:0:0:
194,191,52357,1,2,2:2:0:0:
194,191,52584,2,0,P|179:228|172:262,1,71.5000021820069,10|2,2:2|2:2,0:0:0:0:
187,321,53039,2,0,P|277:329|320:284,1,143.000004364014,2|8,3:2|2:2,0:0:0:0:
350,246,53721,1,2,2:2:0:0:
350,246,53948,2,0,P|332:190|322:102,1,143.000004364014,2|8,3:2|2:2,0:0:0:0:
197,74,54857,5,2,3:2:0:0:
177,168,55198,1,2,2:2:0:0:
155,262,55539,2,0,P|88:241|-3:234,1,143.000004364014,2|2,2:2|2:2,0:0:0:0:
4,170,56221,2,0,P|17:138|26:99,1,71.5000021820069,10|2,2:2|2:2,0:0:0:0:
6,40,56675,2,0,P|66:7|142:47,1,143.000004364014,2|8,3:2|2:2,0:0:0:0:
181,81,57357,1,2,2:2:0:0:
181,81,57584,1,2,3:2:0:0:
272,171,58039,2,0,P|316:154|350:151,1,71.5000021820069,8|2,2:2|2:2,0:0:0:0:
379,99,58493,6,0,B|362:37|362:37|391:-14,2,107.25000327301,6|2|2,3:2|2:2|2:2,0:0:0:0:
372,231,59630,1,2,2:2:0:0:
372,231,59857,2,0,P|336:218|291:213,1,71.5000021820069,10|2,2:2|2:2,0:0:0:0:
239,201,60312,2,0,P|203:214|158:219,1,71.5000021820069,2|0,3:2|0:0,0:0:0:0:
110,232,60766,1,10,2:2:0:0:
110,232,60993,2,0,P|81:314|130:358,1,143.000004364014,2|0,2:2|3:2,0:0:0:0:
173,370,61675,1,8,2:2:0:0:
238,258,62130,5,2,3:2:0:0:
332,279,62471,1,2,2:2:0:0:
426,299,62812,2,0,P|441:234|466:145,1,143.000004364014,2|2,2:2|2:2,0:0:0:0:
449,102,63493,1,2,3:2:0:0:
449,102,63721,2,0,B|372:81|392:140|304:116,1,143.000004364014,14|2,2:2|3:2,0:0:0:0:
250,99,64402,2,0,P|247:146|232:174,1,71.5000021820069,10|10,2:2|2:2,0:0:0:0:
194,216,64857,2,0,P|156:243|124:250,1,71.5000021820069,8|4,2:3|2:3,0:0:0:0:
68,240,65312,1,0,3:2:0:0:
23,118,65766,6,0,B|2:61|2:61|27:14,2,107.25000327301,4|2|2,3:2|2:2|2:2,0:0:0:0:
146,169,66902,1,2,2:2:0:0:
146,169,67130,2,0,P|150:133|164:89,1,71.5000021820069,10|2,2:2|2:2,0:0:0:0:
193,44,67584,2,0,P|283:69|307:131,1,143.000004364014,2|8,3:2|2:2,0:0:0:0:
365,141,68266,1,2,2:2:0:0:
365,141,68493,2,0,P|348:222|342:282,1,143.000004364014,2|8,3:2|2:2,0:0:0:0:
273,380,69402,5,2,3:2:0:0:
177,365,69743,1,2,2:2:0:0:
81,350,70084,2,0,P|98:291|111:211,1,143.000004364014,2|2,2:2|2:2,0:0:0:0:
147,157,70766,2,0,P|199:167|228:198,1,71.5000021820069,10|2,2:2|2:2,0:0:0:0:
258,223,71221,2,0,P|322:262|404:217,1,143.000004364014,2|8,3:2|2:2,0:0:0:0:
431,200,71902,1,2,2:2:0:0:
431,200,72130,1,2,3:2:0:0:
496,89,72584,2,0,P|461:83|409:66,1,71.5000021820069,8|2,2:2|2:2,0:0:0:0:
383,23,73039,6,0,B|317:39|317:39|276:14,2,107.25000327301,6|2|2,3:2|2:2|2:2,0:0:0:0:
329,142,74175,1,2,2:2:0:0:
329,142,74402,2,0,P|305:182|308:214,1,71.5000021820069,10|2,2:2|2:2,0:0:0:0:
328,266,74857,2,0,P|368:274|402:285,1,71.5000021820069,2|8,3:2|2:3,0:0:0:0:
460,313,75312,1,2,3:2:0:0:
460,313,75539,2,0,B|432:238|494:250|474:162,1,143.000004364014,14|0,2:2|3:2,0:0:0:0:
456,114,76221,1,10,2:2:0:0:
330,87,76675,6,0,B|272:82|272:82|250:105|250:105|171:99,1,143.000004364014,6|0,3:2|3:2,0:0:0:0:
139,123,77357,1,2,3:2:0:0:
139,123,77584,2,0,P|130:163|115:198,1,71.5000021820069,8|8,2:2|2:2,0:0:0:0:
154,257,78039,1,10,2:2:0:0:
154,257,78266,1,10,2:2:0:0:
154,257,78493,2,0,B|397:417|429:134|256:180,1,390,6|0,3:2|0:0,0:0:0:0:
180,122,80312,6,0,P|186:101|194:67,2,52,2|0|0,2:2|0:0|0:0,0:0:0:0:
141,156,80993,1,2,2:2:0:0:
216,227,81448,2,0,P|210:248|202:282,2,52,0|0|2,0:0|0:0|2:2,0:0:0:0:
314,192,82357,2,0,P|308:166|300:141,2,52,0|0|2,0:0|0:0|2:2,0:0:0:0:
356,221,83039,1,2,2:2:0:0:
437,156,83493,1,2,2:2:0:0:
507,232,83948,6,0,P|486:298|482:335,1,104,2|0,2:2|0:0,0:0:0:0:
474,383,84630,1,2,2:2:0:0:
370,382,85084,1,2,2:2:0:0:
303,302,85539,1,2,2:2:0:0:
256,192,85766,12,0,88948,0:0:0:0:
