osu file format v14

[General]
AudioFilename: audio.mp3
AudioLeadIn: 0
PreviewTime: 50880
Countdown: 0
SampleSet: Soft
StackLeniency: 0.5
Mode: 0
LetterboxInBreaks: 0
WidescreenStoryboard: 1

[Editor]
Bookmarks: 7584,22130,36675
DistanceSpacing: 2
BeatDivisor: 4
GridSize: 8
TimelineZoom: 1

[Metadata]
Title:Niji no Kakera (TV Size)
TitleUnicode:虹のかけら (TV Size)
Artist:Kon Natsumi
ArtistUnicode:昆夏美
Creator:pancakespk
Version:Kyairie's Insane
Source:一週間フレンズ。
Tags:mrgglock keke tang kyairie notabox anime pop japanese jpop j-pop Isshuukan friends. one week friends op opening
BeatmapID:4216674
BeatmapSetID:2013573

[Difficulty]
HPDrainRate:5
CircleSize:4.2
OverallDifficulty:7
ApproachRate:7.5
SliderMultiplier:1.8
SliderTickRate:1

[Events]
//Background and Video events
0,0,"background.jpg",0,0
//Break Periods
//Storyboard Layer 0 (Background)
//Storyboard Layer 1 (Fail)
//Storyboard Layer 2 (Pass)
//Storyboard Layer 3 (Foreground)
//Storyboard Layer 4 (Overlay)
//Storyboard Sound Samples

[TimingPoints]
312,454.545454545455,4,2,1,40,1,0
312,-166.666666666667,4,2,1,40,0,0
3948,-100,4,2,1,70,0,0
5539,-125,4,2,1,70,0,0
6675,-125,4,2,1,55,0,0
7584,-142.857142857143,4,2,1,45,0,0
20766,-142.857142857143,4,2,1,50,0,0
22130,-111.111111111111,4,2,1,60,0,0
36675,-125,4,2,1,60,0,0
43948,-111.111111111111,4,2,1,63,0,0
44630,-111.111111111111,4,2,1,65,0,0
45312,-111.111111111111,4,2,1,67,0,0
45766,-111.111111111111,4,2,1,69,0,0
46448,-111.111111111111,4,2,1,71,0,0
47130,-111.111111111111,4,2,1,73,0,0
47584,-111.111111111111,4,2,1,75,0,0
49175,-111.111111111111,4,2,1,80,0,0
51221,-100,4,2,1,80,0,1
78493,-125,4,2,1,80,0,1
78607,-125,4,2,1,40,0,1
80312,-166.666666666667,4,2,1,40,0,0
88948,-166.666666666667,4,2,1,5,0,0

[Colours]
Combo1 : 184,119,255
Combo2 : 255,255,128
Combo3 : 55,181,255
Combo4 : 100,200,200

[HitObjects]
201,247,312,6,0,P|227:254|253:262,1,53.9999983520508,2|0,2:2|0:0,0:0:0:0:
252,262,766,1,0,0:0:0:0:
156,327,993,2,0,P|104:341|53:358,1,107.999996704102,2|0,2:2|0:0,0:0:0:0:
52,358,1675,1,0,0:0:0:0:
82,258,1902,6,0,P|109:244|116:168,1,107.999996704102,2|0,2:2|0:0,0:0:0:0:
119,173,2584,1,0,0:0:0:0:
30,133,2812,2,0,P|1:107|0:68,1,80.9999975280763,2|0,2:2|0:0,0:0:0:0:
12,58,3266,6,0,P|24:55|38:52,1,26.9999991760254,2|0,2:2|0:0,0:0:0:0:
203,85,3493,2,0,P|229:80|255:74,1,53.9999983520508,2|0,3:2|0:0,0:0:0:0:
139,2,3948,6,0,P|119:93|101:191,1,180,6|0,3:2|0:0,0:0:0:0:
219,295,4630,2,0,P|210:250|201:206,1,90,6|0,3:2|0:0,0:0:0:0:
261,152,4971,1,8,2:2:0:0:
261,152,5084,1,10,2:2:0:0:
127,265,5312,1,10,2:3:0:0:
178,370,5539,6,0,B|263:421|333:315|266:333|340:223|424:287,1,288,6|0,3:2|0:0,0:0:0:0:
386,357,6675,5,8,2:3:0:0:
386,357,6789,1,8,2:2:0:0:
386,357,6902,1,8,2:2:0:0:
501,298,7130,2,0,P|492:261|485:225,1,72,8|4,2:2|2:3,0:0:0:0:
412,191,7471,1,4,2:3:0:0:
412,191,7584,6,0,P|426:128|438:65,1,125.999996154785,0|8,3:2|2:1,0:0:0:0:
363,1,8266,1,2,2:2:0:0:
253,82,8493,1,2,2:2:0:0:
253,82,8721,2,0,P|283:74|314:67,1,62.9999980773926,2|8,2:2|2:1,0:0:0:0:
215,161,9175,1,2,3:2:0:0:
215,161,9402,6,0,P|260:202|334:186,1,125.999996154785,0|8,3:2|2:1,0:0:0:0:
439,233,10084,2,0,P|446:264|453:295,1,62.9999980773926,2|0,2:2|0:0,0:0:0:0:
337,380,10539,1,2,2:2:0:0:
361,283,10766,1,10,2:1:0:0:
361,283,10993,1,2,3:2:0:0:
248,337,11221,6,0,P|211:344|172:352,1,62.9999980773926,0|0,3:2|0:0,0:0:0:0:
186,349,11675,1,8,2:1:0:0:
39,319,11902,2,0,P|90:272|162:287,1,125.999996154785,2|2,2:2|2:2,0:0:0:0:
54,191,12584,1,10,2:1:0:0:
54,191,12812,1,2,3:2:0:0:
113,101,13039,6,0,P|120:70|127:35,1,62.9999980773926,2|0,3:2|0:0,0:0:0:0:
191,151,13493,1,10,2:1:0:0:
191,151,13721,2,0,P|221:144|252:137,1,62.9999980773926,2|0,2:2|3:2,0:0:0:0:
312,27,14175,2,0,P|281:20|250:13,1,62.9999980773926,2|8,3:2|2:1,0:0:0:0:
384,80,14630,1,2,3:2:0:0:
384,80,14857,6,0,P|397:141|410:203,1,125.999996154785,0|8,3:2|2:1,0:0:0:0:
482,259,15539,2,0,P|475:289|468:320,1,62.9999980773926,2|0,2:2|0:0,0:0:0:0:
358,367,15993,1,2,2:2:0:0:
358,367,16221,2,0,P|326:374|295:381,1,62.9999980773926,10|2,2:1|3:2,0:0:0:0:
164,248,16675,6,0,P|217:288|206:356,1,125.999996154785,2|10,3:2|2:1,0:0:0:0:
309,277,17357,2,0,P|322:216|336:155,1,125.999996154785,2|0,2:2|0:0,0:0:0:0:
273,78,18039,2,0,P|266:47|259:16,1,62.9999980773926,10|0,2:1|3:2,0:0:0:0:
145,145,18493,6,0,P|175:152|206:160,1,62.9999980773926,2|0,3:2|0:0,0:0:0:0:
206,160,18948,1,8,2:1:0:0:
60,78,19175,2,0,P|122:63|182:47,1,125.999996154785,2|0,2:2|0:0,0:0:0:0:
291,94,19857,1,10,2:1:0:0:
291,94,20084,1,2,3:2:0:0:
401,0,20312,6,0,P|391:36|383:74,1,62.9999980773926,2|0,3:2|0:0,0:0:0:0:
385,61,20766,1,8,2:1:0:0:
497,186,20993,1,10,2:3:0:0:
347,226,21221,5,2,2:2:0:0:
347,226,21334,1,8,2:2:0:0:
347,226,21448,1,8,2:2:0:0:
406,154,21675,1,4,2:3:0:0:
510,355,21902,1,0,3:2:0:0:
510,355,22016,1,0,3:2:0:0:
510,355,22130,6,0,P|462:310|341:329,1,161.999995056153,4|0,3:2|3:2,0:0:0:0:
257,369,22812,2,0,P|266:329|275:290,1,80.9999975280763,2|0,2:2|3:2,0:0:0:0:
149,224,23266,1,2,2:2:0:0:
149,224,23493,2,0,P|158:263|167:303,1,80.9999975280763,8|2,2:2|2:2,0:0:0:0:
103,348,23834,1,2,2:2:0:0:
103,348,23948,6,0,P|29:337|30:260,1,161.999995056153,0|0,3:2|3:2,0:0:0:0:
211,150,24630,2,0,P|167:140|126:130,1,80.9999975280763,2|0,2:2|3:2,0:0:0:0:
1,80,25084,1,2,2:2:0:0:
72,194,25312,1,10,2:2:0:0:
127,51,25539,1,2,2:2:0:0:
127,51,25652,1,2,2:2:0:0:
127,51,25766,6,0,P|152:29|213:32,1,80.9999975280763,0|0,3:2|0:0,0:0:0:0:
343,109,26221,1,0,3:2:0:0:
273,213,26448,2,0,P|181:159|209:105,1,161.999995056153,0|2,0:0|2:2,0:0:0:0:
291,3,27130,1,10,2:2:0:0:
445,85,27357,1,2,2:2:0:0:
445,85,27471,1,2,2:2:0:0:
445,85,27584,6,0,P|433:130|423:174,2,80.9999975280763,2|0|0,3:2|0:0|3:2,0:0:0:0:
361,219,28266,2,0,P|385:309|405:397,1,161.999995056153,2|10,2:2|2:2,0:0:0:0:
463,253,28948,1,4,2:3:0:0:
300,327,29175,1,2,3:2:0:0:
300,327,29289,1,0,3:2:0:0:
300,327,29402,6,0,B|257:344|221:299|244:299|209:253|161:273,1,161.999995056153,4|0,3:2|3:2,0:0:0:0:
37,218,30084,1,2,2:2:0:0:
107,341,30312,1,2,3:2:0:0:
107,341,30539,2,0,P|131:251|151:163,1,161.999995056153,2|2,2:2|2:2,0:0:0:0:
220,59,31221,5,0,3:2:0:0:
71,133,31448,1,8,2:2:0:0:
240,203,31675,1,10,2:2:0:0:
131,43,31902,6,0,P|212:22|288:6,1,161.999995056153,6|8,3:2|2:3,0:0:0:0:
367,39,32471,1,8,2:3:0:0:
367,39,32584,1,10,2:2:0:0:
265,188,32812,1,10,2:2:0:0:
265,188,32925,1,8,2:2:0:0:
265,188,33039,6,0,P|261:148|284:114,1,80.9999975280763,6|0,3:2|0:0,0:0:0:0:
447,71,33493,1,8,2:2:0:0:
492,223,33721,6,0,P|481:264|473:302,1,80.9999975280763,6|0,3:2|0:0,0:0:0:0:
357,176,34175,1,2,3:2:0:0:
413,361,34402,1,8,2:2:0:0:
236,325,34630,6,0,P|174:274|79:291,1,161.999995056153,6|0,3:2|3:2,0:0:0:0:
22,210,35312,2,0,P|13:170|3:131,1,80.9999975280763,8|0,2:2|3:2,0:0:0:0:
68,86,35652,1,8,2:2:0:0:
68,86,35766,2,0,P|76:46|86:7,1,80.9999975280763,0|0,3:2|3:2,0:0:0:0:
147,146,36221,1,10,2:2:0:0:
251,40,36448,1,2,2:2:0:0:
342,198,36675,6,0,P|346:215|350:234,1,36,6|0,3:2|0:0,0:0:0:0:
416,180,36902,2,0,P|420:197|424:216,1,36,0|0,3:2|0:0,0:0:0:0:
243,377,37357,1,2,3:2:0:0:
243,377,37584,2,0,P|272:356|319:353,1,72,8|2,2:2|3:2,0:0:0:0:
180,307,38039,2,0,P|143:297|110:290,1,72,8|2,2:2|2:2,0:0:0:0:
24,226,38493,6,0,P|41:222|60:218,1,36,0|0,3:2|0:0,0:0:0:0:
6,152,38720,2,0,P|23:148|42:144,1,36,2|0,3:2|0:0,0:0:0:0:
137,11,39175,1,2,3:2:0:0:
137,11,39402,2,0,P|128:49|119:91,1,72,8|2,2:2|3:2,0:0:0:0:
232,141,39857,2,0,P|224:105|216:70,1,72,8|2,2:3|2:2,0:0:0:0:
367,20,40312,6,0,P|349:16|331:12,1,36,2|0,3:2|0:0,0:0:0:0:
349,94,40539,2,0,P|331:90|313:86,1,36,0|0,3:2|0:0,0:0:0:0:
475,157,40993,1,2,3:2:0:0:
475,157,41221,1,8,2:2:0:0:
419,260,41448,2,0,P|399:223|401:186,1,72,2|8,3:2|2:2,0:0:0:0:
512,383,41902,6,0,P|451:345|378:352,1,144,6|8,3:2|2:2,0:0:0:0:
287,228,42584,1,10,2:3:0:0:
153,327,42812,6,0,P|136:257|115:178,1,144,6|0,3:2|3:2,0:0:0:0:
19,114,43493,1,10,2:3:0:0:
208,63,43721,1,2,3:2:0:0:
208,63,43834,1,0,3:2:0:0:
208,63,43948,6,0,P|198:102|189:141,1,80.9999975280763,14|0,2:2|3:2,0:0:0:0:
265,230,44402,1,0,3:2:0:0:
363,135,44630,1,10,2:2:0:0:
417,291,44857,2,0,P|361:264|328:271,1,80.9999975280763,0|0,3:2|3:2,0:0:0:0:
193,317,45312,1,10,2:2:0:0:
354,364,45539,1,2,3:2:0:0:
259,212,45766,6,0,P|249:172|239:133,1,80.9999975280763,10|0,2:2|3:2,0:0:0:0:
356,18,46221,1,0,3:2:0:0:
468,126,46448,2,0,P|429:114|386:102,1,80.9999975280763,10|0,2:2|3:2,0:0:0:0:
163,90,46902,1,2,3:2:0:0:
339,194,47130,1,10,2:2:0:0:
239,2,47357,1,0,3:2:0:0:
146,183,47584,6,0,P|185:171|228:159,1,80.9999975280763,6|0,3:2|0:0,0:0:0:0:
89,40,48039,1,8,2:2:0:0:
54,253,48266,1,0,3:2:0:0:
54,253,48380,1,8,2:2:0:0:
54,253,48493,1,0,3:2:0:0:
174,72,48721,1,0,3:2:0:0:
1,152,48948,1,8,2:2:0:0:
218,280,49175,6,0,B|261:297|297:252|274:252|309:206|357:226,1,161.999995056153,6|0,3:2|3:2,0:0:0:0:
453,342,49857,1,8,2:2:0:0:
511,148,50084,1,8,2:2:0:0:
422,10,50993,5,2,2:2:0:0:
422,10,51107,1,2,2:2:0:0:
422,10,51221,2,0,P|432:64|440:104,1,90,6|0,3:2|0:0,0:0:0:0:
366,212,51675,1,8,2:2:0:0:
267,63,51902,2,0,P|257:117|249:157,1,90,2|0,2:2|3:2,0:0:0:0:
134,321,52357,5,2,2:2:0:0:
277,234,52584,1,10,2:2:0:0:
92,183,52812,1,2,2:2:0:0:
205,379,53039,6,0,P|266:329|384:339,1,180,2|8,3:2|2:2,0:0:0:0:
508,205,53721,1,2,2:2:0:0:
460,354,53948,2,0,P|450:309|441:265,1,90,2|0,3:2|0:0,0:0:0:0:
318,157,54402,1,8,2:2:0:0:
470,58,54630,1,2,2:2:0:0:
470,58,54743,1,2,2:2:0:0:
470,58,54857,6,0,P|421:47|371:38,1,90,2|0,3:2|0:0,0:0:0:0:
247,100,55312,1,8,2:2:0:0:
410,155,55539,2,0,P|365:163|321:173,1,90,2|0,2:2|3:2,0:0:0:0:
158,78,55993,1,2,2:2:0:0:
232,229,56221,2,0,P|228:281|192:318,1,90,10|2,2:2|2:2,0:0:0:0:
47,360,56675,6,0,P|66:275|90:177,1,180,2|8,3:2|2:2,0:0:0:0:
178,84,57357,1,2,2:2:0:0:
9,31,57584,2,0,P|19:74|29:118,1,90,2|0,3:2|0:0,0:0:0:0:
178,231,58039,2,0,P|216:203|268:204,1,90,8|2,2:2|2:2,0:0:0:0:
300,277,58380,1,2,2:2:0:0:
300,277,58493,6,0,P|351:328|469:321,1,180,6|8,3:2|2:2,0:0:0:0:
510,136,59175,2,0,P|466:145|421:154,1,90,2|0,2:2|3:2,0:0:0:0:
271,104,59630,1,2,2:2:0:0:
395,248,59857,1,10,2:2:0:0:
449,55,60084,1,2,2:2:0:0:
301,195,60312,6,0,P|256:186|212:176,1,90,2|0,3:2|0:0,0:0:0:0:
62,94,60766,1,10,2:2:0:0:
121,249,60993,2,0,B|168:230|208:280|183:280|222:331|275:309,1,180,2|0,2:2|3:2,0:0:0:0:
401,233,61675,2,0,P|391:189|382:144,1,90,8|2,2:2|2:2,0:0:0:0:
224,92,62130,6,0,P|233:48|242:3,1,90,2|0,3:2|0:0,0:0:0:0:
166,161,62584,1,8,2:2:0:0:
320,52,62812,2,0,P|408:48|479:103,1,180,2|2,2:2|2:2,0:0:0:0:
366,227,63493,1,2,3:2:0:0:
484,350,63721,6,0,P|465:266|442:159,1,180,14|2,2:2|3:2,0:0:0:0:
330,321,64402,1,10,2:2:0:0:
330,321,64516,1,2,2:2:0:0:
330,321,64630,2,0,P|339:277|349:233,1,90,10|8,2:2|2:3,0:0:0:0:
226,377,65084,1,4,2:3:0:0:
209,348,65199,1,4,2:3:0:0:
182,329,65312,1,0,3:2:0:0:
149,321,65426,1,0,3:2:0:0:
117,327,65539,2,0,P|95:322|73:317,1,45,6|6,2:3|2:3,0:0:0:0:
6,240,65766,6,0,P|50:230|94:220,1,90,4|0,3:2|0:0,0:0:0:0:
160,82,66220,1,8,2:2:0:0:
248,265,66448,2,0,P|274:220|268:172,1,90,2|0,2:2|3:2,0:0:0:0:
75,58,66902,1,2,2:2:0:0:
192,203,67129,1,10,2:2:0:0:
243,13,67357,1,2,2:2:0:0:
95,141,67584,6,0,P|80:217|61:318,1,180,2|8,3:2|2:2,0:0:0:0:
195,188,68266,1,2,2:2:0:0:
280,365,68493,2,0,P|271:320|263:276,1,90,2|0,3:2|0:0,0:0:0:0:
350,128,68947,1,8,2:2:0:0:
429,317,69175,1,2,2:2:0:0:
429,317,69289,1,2,2:2:0:0:
429,317,69402,6,0,P|467:339|512:340,1,90,2|0,3:2|0:0,0:0:0:0:
312,205,69857,1,8,2:2:0:0:
474,145,70084,2,0,P|481:100|489:56,1,90,2|0,2:2|3:2,0:0:0:0:
399,229,70538,1,2,2:2:0:0:
272,90,70766,2,0,P|263:45|256:1,1,90,10|2,2:2|2:2,0:0:0:0:
231,286,71221,6,0,B|184:305|144:255|169:255|130:204|77:226,1,180,2|8,3:2|2:2,0:0:0:0:
195,163,71902,1,2,2:2:0:0:
108,329,72130,2,0,P|63:322|19:314,1,90,2|0,3:2|0:0,0:0:0:0:
230,380,72584,2,0,P|274:371|318:364,1,90,8|2,2:2|2:2,0:0:0:0:
372,302,72925,1,2,2:2:0:0:
372,302,73039,6,0,P|366:213|312:142,1,180,6|8,3:2|2:2,0:0:0:0:
199,65,73721,2,0,P|187:119|177:172,1,90,2|0,2:2|3:2,0:0:0:0:
22,218,74175,1,2,2:2:0:0:
195,296,74402,1,10,2:2:0:0:
104,129,74629,1,2,2:2:0:0:
49,363,74857,6,0,P|77:315|74:265,1,90,2|8,3:2|2:3,0:0:0:0:
10,103,75311,1,2,3:2:0:0:
188,179,75539,2,0,P|276:159|398:133,1,180,14|0,2:2|3:2,0:0:0:0:
218,52,76221,1,10,2:2:0:0:
375,362,76675,5,6,3:2:0:0:
437,201,76902,1,0,3:2:0:0:
246,258,77130,2,0,P|289:267|333:277,1,90,0|2,3:2|3:2,0:0:0:0:
170,300,77584,5,8,2:2:0:0:
308,152,77812,1,8,2:2:0:0:
354,375,78039,1,10,2:2:0:0:
142,220,78266,1,10,2:2:0:0:
421,101,78493,6,0,B|464:88|505:147|472:211|403:225|387:196|341:248|341:248|327:180|298:197|246:150|249:79|314:48|345:80,1,504,6|0,3:2|0:0,0:0:0:0:
308,159,80312,6,0,P|281:165|255:170,1,53.9999983520508,2|0,2:2|0:0,0:0:0:0:
256,171,80766,1,0,0:0:0:0:
190,115,80993,2,0,P|137:103|84:92,1,107.999996704102,2|0,2:2|0:0,0:0:0:0:
84,92,81675,1,0,0:0:0:0:
35,202,81902,6,0,P|50:253|64:305,1,107.999996704102,2|0,2:2|0:0,0:0:0:0:
64,305,82584,1,0,0:0:0:0:
188,351,82812,2,0,P|215:337|222:261,1,107.999996704102,2|0,2:2|0:0,0:0:0:0:
143,210,83493,2,0,P|119:193|115:137,1,80.9999975280763,2|0,2:2|0:0,0:0:0:0:
126,131,83948,6,0,P|153:124|178:119,1,53.9999983520508,2|0,2:2|0:0,0:0:0:0:
178,119,84402,1,0,0:0:0:0:
327,70,84630,2,0,P|258:55|221:46,1,107.999996704102,2|2,2:2|2:2,0:0:0:0:
221,46,85312,1,0,0:0:0:0:
256,192,85539,1,2,2:2:0:0:
256,192,85652,12,0,88948,0:0:0:0:
