osu file format v14

[General]
AudioFilename: audio.mp3
AudioLeadIn: 0
PreviewTime: 50880
Countdown: 0
SampleSet: Soft
StackLeniency: 0.5
Mode: 0
LetterboxInBreaks: 0
WidescreenStoryboard: 0

[Editor]
DistanceSpacing: 1.3
BeatDivisor: 4
GridSize: 8
TimelineZoom: 1

[Metadata]
Title:Niji no Kakera (TV Size)
TitleUnicode:虹のかけら (TV Size)
Artist:Kon Natsumi
ArtistUnicode:昆夏美
Creator:pancakespk
Version:A Future With You
Source:一週間フレンズ。
Tags:mrgglock keke tang kyairie notabox anime pop japanese jpop j-pop Isshuukan friends. one week friends op opening
BeatmapID:4190243
BeatmapSetID:2013573

[Difficulty]
HPDrainRate:5.2
CircleSize:4
OverallDifficulty:7.6
ApproachRate:8
SliderMultiplier:1.6
SliderTickRate:1

[Events]
//Background and Video events
0,0,"background.jpg",0,0
//Break Periods
//Storyboard Layer 0 (Background)
//Storyboard Layer 1 (Fail)
//Storyboard Layer 2 (Pass)
//Storyboard Layer 3 (Foreground)
//Storyboard Layer 4 (Overlay)
//Storyboard Sound Samples

[TimingPoints]
312,454.545454545455,4,2,1,40,1,0
312,-142.857142857143,4,2,1,40,0,0
3948,-100,4,2,1,70,0,0
5539,-125,4,2,1,70,0,0
6675,-125,4,2,1,55,0,0
7584,-125,4,2,1,45,0,0
20766,-125,4,2,1,50,0,0
22130,-111.111111111111,4,2,1,60,0,0
33039,-100,4,2,1,60,0,0
34062,-100,4,2,1,5,0,0
34175,-100,4,2,1,60,0,0
36675,-111.111111111111,4,2,1,60,0,0
38380,-111.111111111111,4,2,1,5,0,0
38493,-111.111111111111,4,2,1,60,0,0
40198,-111.111111111111,4,2,1,5,0,0
40312,-111.111111111111,4,2,1,60,0,0
41902,-100,4,2,1,60,0,0
43948,-100,4,2,1,63,0,0
44630,-100,4,2,1,65,0,0
45312,-100,4,2,1,67,0,0
45766,-100,4,2,1,69,0,0
46448,-100,4,2,1,71,0,0
47130,-100,4,2,1,73,0,0
47584,-100,4,2,1,75,0,0
49175,-100,4,2,1,80,0,0
49516,-100,4,2,1,5,0,0
49630,-100,4,2,1,80,0,0
51221,-90.9090909090909,4,2,1,80,0,1
64062,-90.9090909090909,4,2,1,5,0,1
64175,-90.9090909090909,4,2,1,80,0,1
75880,-90.9090909090909,4,2,1,5,0,1
75993,-90.9090909090909,4,2,1,80,0,1
78493,-125,4,2,1,80,0,0
78607,-125,4,2,1,40,0,0
88948,-125,4,2,1,5,0,0

[Colours]
Combo1 : 184,119,255
Combo2 : 255,255,128
Combo3 : 55,181,255
Combo4 : 100,200,200

[HitObjects]
114,71,312,5,2,2:2:0:0:
192,92,539,1,0,0:0:0:0:
231,162,766,1,0,0:0:0:0:
114,71,993,1,2,2:2:0:0:
134,148,1448,5,0,0:0:0:0:
94,218,1675,1,0,0:0:0:0:
114,71,1902,1,2,2:2:0:0:
171,14,2357,5,0,0:0:0:0:
251,14,2584,1,0,0:0:0:0:
114,71,2812,1,2,2:2:0:0:
231,162,3266,5,2,2:2:0:0:
231,162,3493,2,0,P|222:110|216:87,1,55.9999982910157,2|0,3:2|0:0,0:0:0:0:
417,39,3948,6,0,P|444:104|414:191,1,160,6|0,3:2|0:0,0:0:0:0:
262,255,4630,2,0,P|301:262|340:274,1,80,6|0,3:2|0:0,0:0:0:0:
364,285,4971,1,8,2:2:0:0:
364,285,5084,1,10,2:2:0:0:
330,156,5312,1,10,2:3:0:0:
179,331,5539,6,0,B|88:314|90:394|-1:377,1,192,6|0,3:2|0:0,0:0:0:0:
90,247,6675,5,8,2:3:0:0:
90,247,6789,1,8,2:2:0:0:
90,247,6902,1,8,2:2:0:0:
198,162,7130,1,8,2:2:0:0:
275,272,7357,1,4,2:3:0:0:
283,273,7471,1,4,2:3:0:0:
291,275,7584,6,0,P|353:261|416:252,1,128,0|8,3:2|2:1,0:0:0:0:
486,188,8266,1,2,2:2:0:0:
486,188,8493,1,2,2:2:0:0:
454,91,8721,2,0,P|415:85|383:77,1,64,2|8,2:2|2:1,0:0:0:0:
285,93,9175,1,2,3:2:0:0:
214,31,9402,6,0,P|268:0|331:12,1,128,0|8,3:2|2:1,0:0:0:0:
371,124,10084,2,0,P|361:174|350:253,1,128,2|2,2:2|2:2,0:0:0:0:
268,305,10766,1,10,2:1:0:0:
186,257,10993,1,2,3:2:0:0:
101,313,11221,6,0,P|91:351|86:384,2,64,0|0|8,3:2|0:0|2:1,0:0:0:0:
186,257,11902,2,0,P|211:194|180:134,1,128,2|2,2:2|2:2,0:0:0:0:
145,9,12584,1,10,2:1:0:0:
97,91,12812,1,2,3:2:0:0:
238,40,13039,6,0,P|269:47|300:51,1,64,2|0,3:2|0:0,0:0:0:0:
381,15,13493,1,10,2:1:0:0:
447,111,13721,2,0,P|454:80|464:50,1,64,2|0,2:2|3:2,0:0:0:0:
351,133,14175,2,0,P|362:169|369:209,1,64,2|8,3:2|2:1,0:0:0:0:
436,279,14630,1,2,3:2:0:0:
436,279,14857,6,0,P|493:259|507:257,2,64,0|0|8,3:2|0:0|2:1,0:0:0:0:
347,342,15539,2,0,P|290:322|276:320,1,64,2|0,2:2|0:0,0:0:0:0:
190,375,15993,1,2,2:2:0:0:
133,304,16221,1,10,2:1:0:0:
41,348,16448,1,2,3:2:0:0:
133,304,16675,6,0,P|137:273|146:241,1,64,2|0,3:2|0:0,0:0:0:0:
124,145,17130,1,10,2:1:0:0:
44,92,17357,2,0,P|23:148|47:208,1,128,2|0,2:2|0:0,0:0:0:0:
169,225,18039,2,0,P|210:216|246:212,1,64,10|0,2:1|3:2,0:0:0:0:
351,300,18493,6,0,P|354:253|369:162,1,128,2|8,3:2|2:1,0:0:0:0:
431,101,19175,2,0,P|382:131|306:105,1,128,2|0,2:2|0:0,0:0:0:0:
233,171,19857,1,10,2:1:0:0:
158,107,20084,1,2,3:2:0:0:
71,155,20312,6,0,P|61:210|52:292,1,128,2|8,3:2|2:1,0:0:0:0:
197,384,20993,2,0,P|208:343|194:306,1,64,10|2,2:3|2:2,0:0:0:0:
197,296,21334,1,8,2:2:0:0:
197,296,21448,1,8,2:2:0:0:
110,348,21675,1,4,2:3:0:0:
296,343,21902,5,0,3:2:0:0:
296,343,22016,1,0,3:2:0:0:
296,343,22130,2,0,B|305:289|305:289|335:270|335:270|345:212,1,143.999995605469,4|0,3:2|3:2,0:0:0:0:
493,246,22812,2,0,P|446:256|419:248,1,71.9999978027344,2|0,2:2|3:2,0:0:0:0:
304,141,23266,2,0,P|338:130|373:136,1,71.9999978027344,2|8,2:2|2:2,0:0:0:0:
254,217,23721,1,2,2:2:0:0:
169,90,23948,6,0,B|136:95|104:117|104:117|65:95|39:67,1,143.999995605469,0|0,3:2|3:2,0:0:0:0:
173,175,24630,2,0,P|164:209|158:245,2,71.9999978027344,2|0|2,2:2|3:2|2:2,0:0:0:0:
264,107,25312,1,10,2:2:0:0:
210,13,25539,1,2,2:2:0:0:
353,155,25766,6,0,P|365:84|382:14,2,143.999995605469,0|0|0,3:2|3:2|3:2,0:0:0:0:
420,228,26902,1,2,2:2:0:0:
301,315,27130,1,10,2:2:0:0:
414,360,27357,1,2,2:2:0:0:
302,224,27584,6,0,B|234:225|241:278|164:272,1,143.999995605469,2|0,3:2|3:2,0:0:0:0:
94,383,28266,2,0,P|88:348|79:313,1,71.9999978027344,2|0,2:2|3:2,0:0:0:0:
123,190,28721,1,10,2:2:0:0:
0,242,28948,1,4,2:3:0:0:
35,63,29175,5,2,3:2:0:0:
35,63,29289,1,0,3:2:0:0:
35,63,29402,2,0,B|89:70|89:70|109:99|109:99|167:107,1,143.999995605469,4|0,3:2|3:2,0:0:0:0:
264,62,30084,1,2,2:2:0:0:
329,141,30312,1,2,3:2:0:0:
457,111,30539,1,2,2:2:0:0:
398,0,30766,2,0,P|389:34|383:70,1,71.9999978027344,8|2,2:2|2:2,0:0:0:0:
371,221,31221,5,0,3:2:0:0:
206,310,31448,1,8,2:2:0:0:
400,373,31675,1,10,2:2:0:0:
270,207,31902,2,0,P|290:274|307:356,1,143.999995605469,6|8,3:2|2:3,0:0:0:0:
311,368,32471,1,8,2:3:0:0:
311,368,32584,1,10,2:2:0:0:
451,255,32812,5,10,2:2:0:0:
451,255,32925,1,8,2:2:0:0:
451,255,33039,2,0,P|388:292|319:273,1,120,6|2,3:2|2:2,0:0:0:0:
318,275,33493,1,8,2:2:0:0:
176,154,33721,6,0,P|102:173|49:179,1,120,6|0,3:2|0:0,0:0:0:0:
24,180,34175,1,2,3:2:0:0:
134,39,34402,1,8,2:2:0:0:
249,225,34630,6,0,P|273:150|242:79,1,160,6|0,3:2|3:2,0:0:0:0:
100,123,35312,2,0,P|107:163|110:203,1,80,8|0,2:2|3:2,0:0:0:0:
114,230,35652,1,8,2:2:0:0:
114,230,35766,1,0,3:2:0:0:
31,294,35993,1,0,3:2:0:0:
180,384,36221,2,0,P|184:342|193:303,1,80,10|2,2:2|2:2,0:0:0:0:
189,163,36675,5,6,3:2:0:0:
367,217,36902,1,0,3:2:0:0:
367,217,37357,1,2,3:2:0:0:
306,102,37584,1,8,2:2:0:0:
369,18,37812,1,2,3:2:0:0:
442,129,38039,2,0,P|384:123|328:109,1,107.999996704102,8|0,2:2|0:0,0:0:0:0:
306,102,38493,5,0,3:2:0:0:
269,286,38721,1,2,3:2:0:0:
269,286,39175,1,2,3:2:0:0:
153,258,39402,1,8,2:2:0:0:
217,367,39630,1,2,3:2:0:0:
357,255,39857,2,0,P|362:214|380:139,1,107.999996704102,8|0,2:3|0:0,0:0:0:0:
385,118,40312,5,2,3:2:0:0:
201,154,40539,1,0,3:2:0:0:
201,154,40993,1,2,3:2:0:0:
57,104,41221,1,8,2:2:0:0:
168,0,41448,2,0,P|157:42|148:86,1,71.9999978027344,2|8,3:2|2:2,0:0:0:0:
43,257,41902,6,0,B|81:213|135:224|135:224|156:248|186:247,1,160,6|8,3:2|2:2,0:0:0:0:
365,222,42584,1,10,2:3:0:0:
231,384,42812,2,0,B|242:321|242:321|266:307|266:307|278:239,1,160,6|0,3:2|3:2,0:0:0:0:
245,72,43493,1,10,2:3:0:0:
433,163,43721,1,2,3:2:0:0:
433,163,43834,1,0,3:2:0:0:
433,163,43948,5,14,2:2:0:0:
477,81,44175,1,0,3:2:0:0:
433,0,44402,1,0,3:2:0:0:
317,118,44630,5,10,2:2:0:0:
273,200,44857,1,0,3:2:0:0:
317,281,45084,1,0,3:2:0:0:
439,204,45312,5,10,2:2:0:0:
317,118,45539,1,2,3:2:0:0:
164,288,45766,5,10,2:2:0:0:
49,154,45993,1,0,3:2:0:0:
175,188,46221,1,0,3:2:0:0:
40,293,46448,5,10,2:2:0:0:
120,92,46675,1,0,3:2:0:0:
172,198,46902,1,2,3:2:0:0:
209,53,47130,5,10,2:2:0:0:
151,295,47357,1,0,3:2:0:0:
398,207,47584,6,0,B|312:200|341:157|251:152,1,160,6|8,3:2|2:2,0:0:0:0:
210,40,48266,1,0,3:2:0:0:
210,40,48380,1,8,2:2:0:0:
210,40,48493,1,0,3:2:0:0:
400,107,48721,1,0,3:2:0:0:
178,199,48948,1,8,2:2:0:0:
295,0,49175,6,0,P|306:54|313:118,1,120,6|0,3:2|0:0,0:0:0:0:
315,149,49630,1,0,3:2:0:0:
433,21,49857,1,8,2:2:0:0:
137,80,50084,1,8,2:2:0:0:
46,42,50993,5,2,2:2:0:0:
46,42,51107,1,2,2:2:0:0:
46,42,51221,2,0,P|113:59|167:15,1,132.00000402832,6|2,3:2|2:2,0:0:0:0:
181,0,51675,1,8,2:2:0:0:
290,98,51902,2,0,P|334:89|376:77,1,88.000002685547,2|0,2:2|3:2,0:0:0:0:
205,147,52357,1,2,2:2:0:0:
304,6,52584,1,10,2:2:0:0:
363,171,52812,1,2,2:2:0:0:
123,83,53039,6,0,P|106:167|158:243,1,176.000005371094,2|8,3:2|2:2,0:0:0:0:
333,254,53721,1,2,2:2:0:0:
248,384,53948,2,0,P|239:331|227:288,1,88.000002685547,2|0,3:2|0:0,0:0:0:0:
278,154,54402,1,8,2:2:0:0:
482,297,54630,5,2,2:2:0:0:
482,297,54743,1,2,2:2:0:0:
482,297,54857,2,0,B|411:306|424:337|355:347,1,132.00000402832,2|2,3:2|2:2,0:0:0:0:
334,344,55312,1,8,2:2:0:0:
404,140,55539,2,0,P|415:182|422:225,1,88.000002685547,2|0,2:2|3:2,0:0:0:0:
437,366,55993,1,2,2:2:0:0:
333,254,56221,1,10,2:2:0:0:
512,212,56448,1,2,2:2:0:0:
335,44,56675,6,0,P|261:96|163:75,1,176.000005371094,2|8,3:2|2:2,0:0:0:0:
3,147,57357,1,2,2:2:0:0:
66,0,57584,2,0,P|78:49|84:88,1,88.000002685547,2|0,3:2|0:0,0:0:0:0:
53,236,58039,1,8,2:2:0:0:
180,121,58266,1,2,2:2:0:0:
233,358,58493,6,0,P|296:340|362:328,1,132.00000402832,6|2,3:2|2:2,0:0:0:0:
387,322,58948,1,8,2:2:0:0:
481,173,59175,2,0,P|495:216|481:255,1,88.000002685547,2|0,2:2|3:2,0:0:0:0:
378,112,59630,1,2,2:2:0:0:
292,263,59857,1,10,2:2:0:0:
395,215,60084,1,2,2:2:0:0:
319,27,60312,6,0,P|277:39|234:47,1,88.000002685547,2|0,3:2|0:0,0:0:0:0:
372,117,60766,1,10,2:2:0:0:
512,0,60993,2,0,P|493:85|480:173,1,176.000005371094,2|0,2:2|3:2,0:0:0:0:
400,281,61675,1,8,2:2:0:0:
268,157,61902,1,2,2:2:0:0:
184,345,62130,6,0,P|128:312|66:328,1,132.00000402832,2|2,3:2|2:2,0:0:0:0:
45,344,62584,1,8,2:2:0:0:
150,187,62812,2,0,P|141:228|132:273,1,88.000002685547,2|0,2:2|3:2,0:0:0:0:
233,260,63266,1,2,2:2:0:0:
45,191,63493,1,2,3:2:0:0:
290,382,63721,6,0,B|299:329|299:329|318:310|318:310|329:237,1,132.00000402832,14|0,2:2|0:0,0:0:0:0:
332,226,64175,1,2,3:2:0:0:
366,82,64402,5,10,2:2:0:0:
366,82,64516,1,2,2:2:0:0:
366,82,64630,2,0,P|337:84|309:91,1,44.0000013427735,10|2,2:2|2:2,0:0:0:0:
208,47,64857,5,8,2:3:0:0:
187,72,64971,1,8,2:3:0:0:
179,103,65084,1,4,2:3:0:0:
185,136,65198,1,4,2:3:0:0:
204,162,65312,2,0,P|233:164|261:171,1,44.0000013427735,0|0,3:2|3:2,0:0:0:0:
423,224,65539,5,6,2:3:0:0:
423,224,65652,1,6,2:3:0:0:
423,224,65766,2,0,P|382:263|295:260,1,132.00000402832,4|2,3:2|2:2,0:0:0:0:
287,254,66221,1,8,2:2:0:0:
322,87,66448,2,0,P|334:134|340:178,1,88.000002685547,2|0,2:2|3:2,0:0:0:0:
199,323,66902,1,2,2:2:0:0:
370,294,67130,1,10,2:2:0:0:
224,188,67357,1,2,2:2:0:0:
58,384,67584,6,0,P|49:296|29:209,1,176.000005371094,2|8,3:2|2:2,0:0:0:0:
151,63,68266,1,2,2:2:0:0:
289,116,68493,2,0,P|332:103|375:95,1,88.000002685547,2|0,3:2|0:0,0:0:0:0:
242,0,68948,1,8,2:2:0:0:
23,118,69175,5,2,2:2:0:0:
23,118,69289,1,2,2:2:0:0:
23,118,69402,2,0,B|97:117|73:165|163:160,1,132.00000402832,2|2,3:2|2:2,0:0:0:0:
178,160,69857,1,8,2:2:0:0:
288,255,70084,2,0,P|276:297|266:340,1,88.000002685547,2|0,2:2|3:2,0:0:0:0:
182,264,70539,1,2,2:2:0:0:
374,305,70766,1,10,2:2:0:0:
284,161,70993,1,2,2:2:0:0:
481,0,71221,6,0,P|512:78|480:157,1,176.000005371094,2|8,3:2|2:2,0:0:0:0:
373,215,71902,1,2,2:2:0:0:
263,67,72130,2,0,P|316:85|354:94,1,88.000002685547,2|0,3:2|0:0,0:0:0:0:
472,248,72584,1,8,2:2:0:0:
292,274,72812,1,2,2:2:0:0:
167,52,73039,6,0,B|115:62|115:62|98:86|98:86|17:101,1,132.00000402832,6|2,3:2|2:2,0:0:0:0:
23,98,73493,1,8,2:2:0:0:
174,232,73721,2,0,P|171:188|164:144,1,88.000002685547,2|0,2:2|3:2,0:0:0:0:
263,186,74175,1,2,2:2:0:0:
125,307,74402,2,0,P|164:324|207:317,1,88.000002685547,10|2,2:2|2:2,0:0:0:0:
450,384,74857,5,2,3:2:0:0:
466,276,75084,1,8,2:3:0:0:
482,167,75312,1,2,3:2:0:0:
220,73,75539,6,0,P|270:108|361:69,1,132.00000402832,14|0,2:2|0:0,0:0:0:0:
355,83,75993,1,0,3:2:0:0:
285,230,76221,2,0,P|280:187|272:144,1,88.000002685547,10|2,2:2|2:2,0:0:0:0:
81,2,76675,6,0,P|104:109|108:160,1,132.00000402832,6|2,3:2|2:2,0:0:0:0:
111,165,77130,1,0,3:2:0:0:
42,268,77357,1,2,3:2:0:0:
204,131,77584,1,8,2:2:0:0:
0,100,77812,1,8,2:2:0:0:
147,250,78039,1,10,2:2:0:0:
252,10,78266,1,10,2:2:0:0:
323,303,78493,6,0,B|254:266|168:308|203:339|93:398|6:352|6:352|62:369|111:328,1,448,6|0,3:2|0:0,0:0:0:0:
147,250,80312,5,2,2:2:0:0:
155,170,80539,1,0,0:0:0:0:
103,108,80766,1,0,0:0:0:0:
147,250,80993,1,2,2:2:0:0:
82,203,81448,5,0,0:0:0:0:
3,217,81675,1,0,0:0:0:0:
147,250,81902,1,2,2:2:0:0:
220,217,82357,5,0,0:0:0:0:
248,141,82584,1,0,0:0:0:0:
147,250,82812,1,2,2:2:0:0:
59,172,83039,6,0,P|55:143|47:110,1,64,2|0,2:2|0:0,0:0:0:0:
134,95,83493,2,0,P|138:124|146:157,1,64,2|0,2:2|0:0,0:0:0:0:
296,257,83948,5,2,2:2:0:0:
374,275,84175,1,0,0:0:0:0:
441,231,84402,1,0,0:0:0:0:
347,128,84630,5,2,2:2:0:0:
374,275,85084,5,2,2:2:0:0:
296,257,85312,1,0,0:0:0:0:
347,128,85539,1,2,2:2:0:0:
256,192,85652,12,0,88948,0:0:0:0:
