osu file format v14

[General]
AudioFilename: audio.mp3
AudioLeadIn: 0
PreviewTime: 37670
Countdown: 0
SampleSet: Soft
StackLeniency: 0.7
Mode: 0
LetterboxInBreaks: 0
WidescreenStoryboard: 1

[Editor]
Bookmarks: 747,13054,19208,23247,25362,31516,35362,37670,49977,56131,62093,62285,68439,72670,74593,86900,93033,93226,99208,111516,117664,123823
DistanceSpacing: 0.8
BeatDivisor: 16
GridSize: 8
TimelineZoom: 2.100006

[Metadata]
Title:Bliznets
TitleUnicode:Близнец
Artist:Komsomol'sk
ArtistUnicode:Комсомольск
Creator:posydomojka
Version:Normal
Source:
Tags:komsomolsk gambatte _Everlasting даша дарья дерюгина арина андреева russian indie rock alternative ближний свет blizhniy svet low beam
BeatmapID:3182751
BeatmapSetID:1530296

[Difficulty]
HPDrainRate:3
CircleSize:3.2
OverallDifficulty:4
ApproachRate:5
SliderMultiplier:1.4
SliderTickRate:1

[Events]
//Background and Video events
0,0,"74588934_p0.jpg",0,0
//Break Periods
//Storyboard Layer 0 (Background)
//Storyboard Layer 1 (Fail)
//Storyboard Layer 2 (Pass)
//Storyboard Layer 3 (Foreground)
//Storyboard Layer 4 (Overlay)
//Storyboard Sound Samples

[TimingPoints]
568,359.281437125749,4,2,1,60,1,0
747,384,4,2,1,60,1,0
11499,410.958904109589,4,2,1,60,1,0
11909,379.746835443038,4,2,1,60,1,0
13048,385.232744783307,4,2,1,50,1,0
22293,377.358490566038,4,2,1,50,1,0
23802,410.958904109589,4,2,1,50,1,0
24212,373.831775700935,4,2,1,50,1,0
25333,413.793103448276,4,2,1,50,1,0
25746,365.853658536585,4,2,1,50,1,0
26111,387.096774193548,4,2,1,50,1,0
26885,385.232744783307,4,2,1,50,1,0
37671,384,4,2,1,65,1,0
49191,388.349514563107,4,2,1,65,1,0
49967,384.615384615385,4,2,1,70,1,0
55736,393.44262295082,4,2,1,70,1,0
56129,384.615384615385,4,2,1,70,1,0
62282,393.44262295082,4,2,1,50,1,0
62675,382.165605095541,4,2,1,50,1,0
63821,384.615384615385,4,2,1,50,1,0
69974,379.746835443038,4,2,1,50,1,0
71492,392.156862745098,4,2,1,50,1,0
72276,383.386581469649,4,2,1,50,1,0
73042,384.615384615385,4,2,1,50,1,0
74580,-100,4,2,1,55,0,0
82272,385.852090032154,4,2,1,55,1,0
85358,361.44578313253,4,2,1,55,1,0
86080,400,4,2,1,55,1,0
86480,384.615384615385,4,2,1,55,1,0
86864,398.671096345515,4,2,1,60,1,0
87661,382.165605095541,4,2,1,60,1,0
88425,384,4,2,1,60,1,0
89961,-100,4,2,1,65,0,0
90729,388.349514563107,4,2,1,65,1,0
91505,384,4,2,1,65,1,0
93041,382.165605095542,4,2,1,70,1,0
94569,385.232744783307,4,2,1,70,1,0
95917,-100,4,2,1,70,0,0
96109,390.243902439025,4,2,1,70,1,0
97474,-100,4,2,1,80,0,0
98840,348.837209302326,4,2,1,80,1,0
99014,375,4,2,1,80,1,0
99201,384,4,2,1,80,1,0
99585,-100,4,2,1,65,0,0
108417,388.978930307942,4,2,1,65,1,0
109972,379.746835443038,4,2,1,65,1,0
111490,384.615384615385,4,2,1,70,1,0
112836,-102.040816326531,4,2,1,70,0,0
113028,402.68456375839,4,2,1,70,1,0
113833,382.165605095542,4,2,1,70,1,0
115361,388.349514563107,4,2,1,70,1,0
116914,379.746835443039,4,2,1,70,1,0
117673,383.386581469649,4,2,1,70,1,0
120740,384.615384615385,4,2,1,70,1,0
123624,352.941176470588,4,2,1,70,1,0
123800,415.944540727903,4,2,1,70,1,0
134198,390.243902439025,4,2,1,30,1,0
134783,375,4,2,1,30,1,0
135533,340.909090909091,4,2,1,30,1,0
135873,400,4,2,1,30,1,0
136273,384.615384615385,4,2,1,30,1,0

[Colours]
Combo1 : 136,154,255
Combo2 : 255,255,128

[HitObjects]
22,96,747,6,0,P|80:62|168:71,1,140,2|10,1:2|0:0,0:0:0:0:
218,153,1515,2,0,P|263:161|302:157,2,70,2|2|8,0:0|1:2|0:0,0:0:0:0:
186,199,2091,2,0,P|170:263|172:366,1,140,2|2,1:2|0:0,0:0:0:0:
274,372,2859,1,2,0:0:0:0:
342,283,3243,6,0,P|392:286|427:295,2,70,2|10|2,1:2|0:0|0:0,0:0:0:0:
305,240,3819,2,0,P|291:169|308:78,1,140,2|8,1:2|0:0,0:0:0:0:
276,50,4395,1,2,0:0:0:0:
165,71,4779,2,0,P|127:82|88:73,2,70,2|10|2,1:2|0:0|1:2,0:0:0:0:
191,120,5355,2,0,P|192:190|180:272,1,140,2|8,0:0|0:0,0:0:0:0:
138,294,5931,1,2,0:0:0:0:
244,342,6315,1,2,1:2:0:0:
244,342,6507,2,0,P|301:338|327:308,1,70,10|10,0:0|0:0,0:0:0:0:
362,350,6891,6,0,B|392:276|392:264|397:199,1,140,2|8,1:2|0:0,0:0:0:0:
352,178,7467,1,2,0:0:0:0:
330,72,7851,1,2,1:2:0:0:
330,72,8043,2,0,P|273:69|250:60,1,70,10|2,0:0|1:2,0:0:0:0:
230,112,8427,2,0,P|195:113|160:118,1,70,2|2,0:2|0:0,0:0:0:0:
48,117,9003,2,0,P|45:153|74:338,1,210,2|10,0:0|0:0,0:0:0:0:
177,293,9963,6,0,B|267:292|219:348|328:350,1,140,2|8,1:2|0:0,0:0:0:0:
470,379,10923,1,0,1:3:0:0:
470,379,11115,2,0,P|473:320|492:208,1,140,8|2,0:2|0:0,0:0:0:0:
438,208,11704,1,2,0:0:0:0:
505,118,12098,2,0,P|485:58|403:57,1,140,2|0,1:2|1:0,0:0:0:0:
382,93,12668,2,0,P|337:101|290:99,1,70,10|8,0:0|0:0,0:0:0:0:
282,54,13048,6,0,P|240:41|123:35,1,140,2|10,1:2|0:0,0:0:0:0:
95,60,13625,1,2,0:0:0:0:
160,150,14011,2,0,P|158:200|153:229,1,70,2|8,1:2|0:0,0:0:0:0:
109,251,14396,2,0,B|187:243|158:303|256:287,1,140,2|2,1:2|0:0,0:0:0:0:
280,184,15166,2,0,P|331:160|425:179,1,140,2|2,0:0|1:2,0:0:0:0:
430,224,15744,1,8,0:0:0:0:
434,335,16129,6,0,B|369:361|369:361|317:315,1,140,0|10,1:0|0:0,0:0:0:0:
235,246,16900,1,2,0:0:0:0:
235,246,17092,2,0,P|162:261|79:273,1,140,2|2,1:2|1:2,0:0:0:0:
42,173,17863,2,0,P|49:119|50:87,1,70,2|10,0:0|0:0,0:0:0:0:
140,36,18441,1,2,0:0:0:0:
140,36,18633,2,0,B|231:33|191:75|292:71,1,140,2|2,0:0|0:0,0:0:0:0:
318,38,19211,5,2,1:0:0:0:
427,60,19596,1,8,0:0:0:0:
380,163,19982,1,2,0:0:0:0:
380,163,20174,2,0,P|370:231|374:309,1,140,0|2,1:0|1:2,0:0:0:0:
283,369,20945,1,2,0:0:0:0:
176,355,21330,1,2,0:0:0:0:
176,355,21523,2,0,P|132:282|137:226,1,140,2|8,0:0|0:0,0:0:0:0:
171,187,22100,1,2,0:0:0:0:
155,80,22481,1,2,0:0:0:0:
155,80,22670,2,0,P|214:61|288:100,1,140,8|0,0:0|0:0,0:0:0:0:
311,46,23236,5,2,1:2:0:0:
311,46,23425,2,0,P|350:54|392:56,1,70,10|2,0:0|1:2,0:0:0:0:
439,68,23802,1,2,0:0:0:0:
439,68,24007,1,2,0:0:0:0:
349,135,24398,1,2,1:2:0:0:
333,249,24772,1,2,1:2:0:0:
333,249,24959,2,0,P|338:298|337:331,1,70,8|8,0:3|0:3,0:0:0:0:
391,336,25333,1,0,1:0:0:0:
440,235,25746,6,0,P|425:187|335:162,1,140,10|0,0:0|0:0,0:0:0:0:
313,112,26304,2,0,P|270:107|232:98,1,70,2|8,1:2|0:0,0:0:0:0:
219,50,26691,1,2,1:2:0:0:
111,83,27077,1,2,0:0:0:0:
174,175,27462,2,0,P|175:231|155:339,1,140,2|2,0:0|1:2,0:0:0:0:
203,352,28040,2,0,P|259:341|292:346,1,70,8|2,0:0|0:0,0:0:0:0:
321,377,28425,5,2,1:2:0:0:
321,377,28618,1,2,0:0:0:0:
415,317,29003,2,0,P|411:243|415:155,1,140,2|2,0:0|1:2,0:0:0:0:
434,125,29581,2,0,P|399:122|353:105,1,70,8|2,0:0|1:2,0:0:0:0:
331,67,29966,2,0,P|225:75|200:107,1,140,2|10,0:0|0:0,0:0:0:0:
202,207,30737,2,0,P|153:170|66:187,1,140,2|10,0:0|0:0,0:0:0:0:
43,222,31315,1,10,0:0:0:0:
43,222,31507,5,2,1:0:0:0:
0,321,31893,1,8,0:0:0:0:
109,362,32278,1,0,0:0:0:0:
109,362,32470,2,0,P|164:353|259:348,1,140,0|2,1:0|1:2,0:0:0:0:
360,344,33241,1,2,0:0:0:0:
449,268,33626,1,2,0:0:0:0:
377,181,34011,2,0,P|374:132|379:94,1,70,2|8,1:2|0:0,0:0:0:0:
342,66,34397,2,0,P|263:66|196:75,1,140,2|0,0:0|0:0,0:0:0:0:
147,82,34974,1,8,0:0:0:0:
35,74,35360,6,0,P|35:120|41:144,1,70,2|2,0:0|1:2,0:0:0:0:
90,169,35745,2,0,P|90:215|79:243,1,70,10|2,0:0|1:2,0:0:0:0:
57,289,36130,1,2,0:0:0:0:
57,289,36323,1,2,0:0:0:0:
167,309,36708,2,0,B|247:302|208:372|318:355,1,140,2|2,1:2|1:2,0:0:0:0:
340,330,37286,1,10,0:0:0:0:
452,336,37671,5,0,1:2:0:0:
492,231,38055,1,10,0:0:0:0:
404,160,38439,1,2,0:0:0:0:
404,160,38631,2,0,P|369:159|327:173,1,70,2|8,1:2|0:0,0:0:0:0:
291,203,39015,2,0,P|218:203|140:188,1,140,2|2,1:2|0:0,0:0:0:0:
108,93,39783,1,2,0:0:0:0:
108,93,39975,2,0,P|164:81|209:78,1,70,2|2,0:0|1:2,0:0:0:0:
287,96,40551,6,0,P|360:48|416:69,1,140,2|2,0:0|0:0,0:0:0:0:
429,111,41127,2,0,P|429:163|438:198,1,70,10|2,0:0|0:0,0:0:0:0:
463,232,41511,1,2,0:0:0:0:
463,232,41703,1,2,1:2:0:0:
399,324,42087,2,0,B|316:305|346:377|260:355,1,140,2|0,1:2|0:0,0:0:0:0:
218,378,42663,2,0,P|176:358|156:332,1,70,10|0,0:2|0:0,0:0:0:0:
146,291,43047,1,2,0:0:0:0:
146,291,43239,1,2,1:2:0:0:
155,179,43623,1,2,1:2:0:0:
260,48,44199,6,0,P|312:69|343:65,1,70,10|2,0:0|0:0,0:0:0:0:
356,23,44583,1,2,0:0:0:0:
356,23,44775,2,0,P|411:10|448:28,1,70,2|8,1:2|0:0,0:0:0:0:
476,27,45159,2,0,P|469:107|441:176,1,140,2|2,1:2|0:0,0:0:0:0:
387,256,45927,2,0,P|341:249|266:305,1,140,2|2,0:0|1:2,0:0:0:0:
222,334,46503,2,0,P|166:335|147:306,1,70,8|8,0:0|0:0,0:0:0:0:
140,275,46887,6,0,P|141:218|131:118,1,140,2|10,1:2|0:0,0:0:0:0:
187,36,47655,2,0,P|227:26|270:30,1,70,2|2,0:0|1:2,0:0:0:0:
276,80,48039,2,0,P|316:90|359:86,1,70,10|2,0:0|1:2,0:0:0:0:
367,39,48423,1,2,1:2:0:0:
367,39,48615,1,10,0:0:0:0:
439,125,48999,1,10,0:0:0:0:
459,237,49385,2,0,P|398:229|313:239,1,140,4|8,0:3|0:0,0:0:0:0:
280,196,49967,6,0,B|223:146|223:146|141:184,1,140,2|8,1:2|0:0,0:0:0:0:
56,203,50736,2,0,P|53:239|40:301,1,70,2|2,0:0|1:2,0:0:0:0:
63,326,51120,1,8,0:0:0:0:
168,365,51505,2,0,P|257:332|302:333,1,140,2|10,0:0|0:0,0:0:0:0:
344,369,52082,1,2,0:0:0:0:
436,306,52467,2,0,P|430:252|430:209,1,70,0|8,1:0|0:0,0:0:0:0:
394,193,52851,1,10,0:0:0:0:
394,193,53043,6,0,B|308:206|343:129|236:155,1,140,0|10,1:0|0:0,0:0:0:0:
207,246,53813,2,0,P|215:285|217:334,2,70,2|2|10,0:0|1:2|0:2,0:0:0:0:
119,176,54582,2,0,P|44:167|-8:226,1,140,2|10,0:0|0:0,0:0:0:0:
14,260,55159,1,2,0:0:0:0:
83,347,55543,2,0,P|115:360|150:365,1,70,0|10,1:0|0:0,0:0:0:0:
264,368,56129,5,0,1:0:0:0:
345,291,56513,2,0,B|406:210|406:210|356:113,1,210,8|0,0:0|1:0,0:0:0:0:
312,78,57282,1,8,0:0:0:0:
217,137,57667,2,0,P|148:132|78:139,1,140,2|10,0:0|0:0,0:0:0:0:
35,175,58244,1,2,0:0:0:0:
102,271,58629,1,0,1:2:0:0:
102,271,58821,1,10,0:0:0:0:
214,265,59205,6,0,P|247:285|284:379,1,140,0|10,1:0|0:2,0:0:0:0:
379,314,59975,2,0,P|415:320|449:308,1,70,2|2,0:0|1:2,0:0:0:0:
476,261,60359,1,10,0:0:0:0:
500,149,60744,2,0,P|513:80|512:10,1,140,2|10,0:0|0:0,0:0:0:0:
459,23,61321,1,2,0:0:0:0:
389,104,61705,1,0,1:0:0:0:
389,104,61898,2,0,P|333:117|300:116,1,70,10|10,0:0|0:0,0:0:0:0:
272,93,62282,1,2,1:2:0:0:
170,175,62675,5,10,0:0:0:0:
170,175,62866,2,0,P|225:193|266:278,1,140,2|2,0:0|1:2,0:0:0:0:
217,362,63630,2,0,P|153:360|67:337,1,140,2|2,1:2|0:0,0:0:0:0:
46,234,64397,1,2,0:0:0:0:
95,133,64782,2,0,P|169:138|239:161,1,140,2|2,1:2|0:0,0:0:0:0:
276,141,65359,6,0,P|327:103|407:134,1,140,2|8,1:2|0:0,0:0:0:0:
416,174,65936,1,2,0:0:0:0:
326,240,66321,1,2,1:2:0:0:
364,350,66705,1,2,1:2:0:0:
364,350,66897,2,0,P|305:334|203:326,1,140,2|10,0:0|0:0,0:0:0:0:
125,291,67667,1,2,0:0:0:0:
125,291,67859,2,0,P|105:227|113:137,1,140,2|2,1:2|0:0,0:0:0:0:
144,111,68436,5,0,1:0:0:0:
220,29,68821,2,0,P|264:34|299:36,1,70,10|2,0:0|0:0,0:0:0:0:
336,4,69205,2,0,P|388:17|411:112,1,140,2|10,0:0|0:0,0:0:0:0:
374,127,69782,1,2,1:2:0:0:
475,173,70163,2,0,P|478:228|475:253,1,70,2|8,0:0|0:0,0:0:0:0:
492,296,70543,2,0,P|436:263|359:297,1,140,2|2,0:0|1:2,0:0:0:0:
347,337,71113,1,8,0:0:0:0:
275,250,71492,5,0,1:0:0:0:
199,332,71884,2,0,P|147:344|111:344,1,70,8|0,0:0|0:0,0:0:0:0:
78,322,72276,1,0,0:0:0:0:
118,217,72659,1,10,0:0:0:0:
57,122,73042,6,0,P|126:93|208:101,1,140,0|8,1:0|0:0,0:0:0:0:
235,127,73618,1,2,1:2:0:0:
336,173,74003,2,0,P|327:207|325:242,2,70,2|10|8,1:2|0:0|0:0,0:0:0:0:
377,135,74580,6,0,P|455:152|522:122,1,140,2|8,1:0|0:0,0:0:0:0:
510,75,75157,1,2,0:1:0:0:
421,6,75542,2,0,P|362:-1|319:-2,1,70,2|10,1:2|0:0,0:0:0:0:
248,42,76118,2,0,P|162:96|161:196,1,210,2|2,0:1|0:1,0:0:0:0:
121,303,77080,1,0,1:0:0:0:
121,303,77272,2,0,P|183:309|207:309,1,70,10|2,0:0|0:0,0:0:0:0:
235,275,77657,6,0,B|326:264|285:329|387:309,1,140,2|8,1:2|0:0,0:0:0:0:
414,336,78234,1,2,0:0:0:0:
485,250,78618,2,0,P|487:215|491:180,1,70,0|10,1:0|0:0,0:0:0:0:
399,115,79195,2,0,P|373:212|278:245,1,210,2|2,0:0|1:2,0:0:0:0:
171,284,80157,2,0,P|159:332|158:367,2,70,2|8|10,1:2|0:0|0:0,0:0:0:0:
123,261,80734,5,0,1:0:0:0:
177,163,81118,1,8,0:0:0:0:
286,218,81503,1,2,0:0:0:0:
286,218,81695,1,0,1:0:0:0:
307,327,82080,6,0,P|382:329|455:309,1,140,2|2,1:2|0:0,0:0:0:0:
494,213,82850,2,0,P|481:142|483:64,1,140,2|2,0:0|1:2,0:0:0:0:
445,31,83429,1,8,0:0:0:0:
333,17,83815,6,0,P|252:14|170:132,2,210,2|2|10,1:0|1:0|0:0,0:0:0:0:
420,114,85358,1,10,0:0:0:0:
420,114,85538,2,0,P|405:217|403:277,1,140,2|10,1:2|0:0,0:0:0:0:
331,339,86280,2,0,P|276:332|244:332,1,70,0|10,1:0|0:0,0:0:0:0:
154,298,86864,1,0,1:0:0:0:
216,205,87262,5,8,0:0:0:0:
149,115,87661,2,0,P|217:122|304:134,1,140,0|8,1:0|0:0,0:0:0:0:
314,81,88234,2,0,P|383:101|405:164,1,140,8|0,0:0|1:0,0:0:0:0:
363,198,88809,1,8,0:0:0:0:
467,238,89193,1,0,1:0:0:0:
396,325,89577,1,8,0:0:0:0:
284,314,89961,6,0,P|198:297|138:309,1,140,2|8,1:2|0:0,0:0:0:0:
104,340,90537,1,10,0:0:0:0:
104,340,90729,2,0,P|82:251|83:170,1,140,2|8,1:2|0:0,0:0:0:0:
109,165,91311,1,10,0:0:0:0:
109,165,91505,1,2,1:2:0:0:
185,83,91889,2,0,P|239:92|273:92,2,70,10|10|2,0:0|0:0|1:2,0:0:0:0:
167,29,92465,2,0,P|106:28|27:79,1,140,2|10,1:2|0:2,0:0:0:0:
12,115,93041,5,0,1:0:0:0:
121,140,93423,1,8,0:0:0:0:
122,252,93805,2,0,P|92:257|42:260,2,70,0|0|8,1:0|1:0|0:0,0:0:0:0:
159,293,94378,2,0,P|242:298|296:361,1,140,8|0,0:0|1:0,0:0:0:0:
331,361,94954,1,10,0:0:0:0:
378,259,95339,2,0,P|388:194|388:158,1,70,2|2,1:2|1:2,0:0:0:0:
362,80,95917,5,10,0:0:0:0:
263,29,96304,1,2,1:2:0:0:
163,81,96694,1,10,0:0:0:0:
163,81,96889,2,0,P|169:126|171:170,1,70,2|2,1:2|1:2,0:0:0:0:
237,240,97474,2,0,P|300:249|387:265,1,140,10|10,0:0|0:0,0:0:0:0:
390,211,98060,1,8,0:0:0:0:
390,211,98255,2,0,P|445:199|482:197,1,70,10|8,0:0|0:0,0:0:0:0:
484,146,98645,1,10,0:0:0:0:
406,67,99014,1,10,0:0:0:0:
244,107,99585,5,14,0:2:0:0:
326,191,99969,1,2,0:0:0:0:
326,191,100161,2,0,P|328:247|316:285,1,70,2|8,1:2|0:0,0:0:0:0:
297,309,100545,1,2,1:2:0:0:
190,272,100929,1,2,0:0:0:0:
123,362,101313,1,2,0:0:0:0:
123,362,101505,2,0,P|89:369|48:366,1,70,2|2,0:0|1:2,0:0:0:0:
27,259,102081,6,0,P|11:204|-1:114,1,140,2|2,0:0|0:0,0:0:0:0:
43,87,102657,2,0,P|76:71|121:64,1,70,10|2,0:0|0:0,0:0:0:0:
165,88,103041,1,2,0:0:0:0:
165,88,103233,1,2,1:2:0:0:
265,37,103617,2,0,P|325:62|338:154,1,140,2|0,1:2|0:0,0:0:0:0:
337,185,104193,2,0,P|341:219|353:252,1,70,10|0,0:2|0:0,0:0:0:0:
382,306,104577,1,2,0:0:0:0:
382,306,104769,1,2,1:2:0:0:
271,326,105153,1,0,1:0:0:0:
114,266,105729,6,0,P|112:213|131:183,1,70,10|2,0:0|0:0,0:0:0:0:
159,167,106113,1,2,0:0:0:0:
159,167,106305,2,0,P|172:112|154:75,1,70,2|8,1:2|0:0,0:0:0:0:
130,60,106689,2,0,P|209:48|272:69,1,140,2|2,1:2|0:0,0:0:0:0:
377,79,107457,2,0,P|386:153|365:246,1,140,2|2,0:0|1:2,0:0:0:0:
325,240,108033,2,0,P|322:280|332:323,1,70,8|0,0:0|0:0,0:0:0:0:
278,334,108417,6,0,P|211:349|110:363,1,140,0|8,1:0|0:0,0:0:0:0:
85,262,109194,2,0,P|93:196|85:164,1,70,10|2,0:0|1:2,0:0:0:0:
46,162,109583,2,0,P|33:105|33:65,1,70,2|10,0:0|1:2,0:0:0:0:
64,45,109972,1,10,0:0:0:0:
174,82,110351,1,8,0:0:0:0:
174,82,110541,1,10,0:0:0:0:
213,186,110921,2,0,P|284:197|354:236,1,140,10|10,0:0|0:0,0:0:0:0:
379,270,111490,5,2,1:2:0:0:
472,208,111874,1,8,0:0:0:0:
444,99,112259,2,0,L|369:89,1,70,2|0,0:0|1:2,0:0:0:0:
325,112,112643,1,10,0:0:0:0:
325,112,112836,2,0,P|242:93|218:26,1,140,2|2,1:2|0:0,0:0:0:0:
169,23,113430,1,10,0:0:0:0:
75,94,113833,2,0,P|68:165|83:250,1,140,2|10,0:0|0:0,0:0:0:0:
131,333,114597,6,0,P|207:328|285:324,1,140,2|8,1:2|0:0,0:0:0:0:
309,283,115170,1,2,0:0:0:0:
419,261,115555,2,0,L|414:176,1,70,0|10,1:2|0:2,0:0:0:0:
381,147,115943,2,0,B|317:178|317:178|256:130,1,140,2|2,1:2|0:0,0:0:0:0:
266,80,116526,1,10,0:0:0:0:
156,50,116914,2,0,P|112:43|83:56,1,70,10|0,0:0|1:0,0:0:0:0:
56,97,117293,1,10,0:0:0:0:
24,210,117673,6,0,P|15:267|18:355,1,140,2|8,1:2|0:0,0:0:0:0:
121,300,118439,1,2,0:0:0:0:
121,300,118631,2,0,P|179:306|212:313,1,70,0|10,1:0|0:0,0:0:0:0:
225,353,119014,2,0,P|288:336|315:250,1,140,2|2,1:2|0:0,0:0:0:0:
293,223,119589,1,10,0:0:0:0:
399,186,119973,2,0,P|402:137|386:36,1,140,2|8,0:0|0:0,0:0:0:0:
279,33,120740,6,0,P|215:83|144:65,1,140,2|8,1:2|0:2,0:0:0:0:
133,27,121316,1,2,0:0:0:0:
70,119,121701,1,0,1:2:0:0:
70,119,121893,2,0,L|61:197,1,70,10|10,0:0|0:2,0:0:0:0:
44,242,122278,6,0,P|99:260|196:265,1,140,2|10,1:2|0:0,0:0:0:0:
224,304,122855,1,10,0:0:0:0:
303,225,123240,2,0,P|360:227|398:246,1,70,8|10,0:0|0:0,0:0:0:0:
421,275,123624,1,8,0:0:0:0:
421,275,123800,1,4,1:2:0:0:
