osu file format v14

[General]
AudioFilename: audio.mp3
AudioLeadIn: 0
PreviewTime: 37670
Countdown: 0
SampleSet: Soft
StackLeniency: 0.7
Mode: 0
LetterboxInBreaks: 0
WidescreenStoryboard: 1

[Editor]
Bookmarks: 747,13054,19208,23247,25362,31516,35362,37670,49977,56131,62093,62285,68439,72670,74593,86900,93033,93226,99208,111516,117664,123823
DistanceSpacing: 1.2
BeatDivisor: 4
GridSize: 8
TimelineZoom: 4.900003

[Metadata]
Title:Bliznets
TitleUnicode:Близнец
Artist:Komsomol'sk
ArtistUnicode:Комсомольск
Creator:posydomojka
Version:Hard
Source:
Tags:komsomolsk gambatte _Everlasting даша дарья дерюгина арина андреева russian indie rock alternative ближний свет blizhniy svet low beam
BeatmapID:3147065
BeatmapSetID:1530296

[Difficulty]
HPDrainRate:4
CircleSize:3.6
OverallDifficulty:7
ApproachRate:7
SliderMultiplier:1.5
SliderTickRate:1

[Events]
//Background and Video events
0,0,"74588934_p0.jpg",0,0
//Break Periods
2,124000,133883
//Storyboard Layer 0 (Background)
//Storyboard Layer 1 (Fail)
//Storyboard Layer 2 (Pass)
//Storyboard Layer 3 (Foreground)
//Storyboard Layer 4 (Overlay)
//Storyboard Sound Samples

[TimingPoints]
568,359.281437125749,4,2,1,60,1,0
747,384,4,2,1,60,1,0
11499,410.958904109589,4,2,1,60,1,0
11704,-97.0873786407767,4,2,1,60,0,0
11909,379.746835443038,4,2,1,60,1,0
13048,385.232744783307,4,2,1,50,1,0
22100,-99.009900990099,4,2,1,50,0,0
22293,377.358490566038,4,2,1,50,1,0
23802,410.958904109589,4,2,1,50,1,0
24212,373.831775700935,4,2,1,50,1,0
25333,413.793103448276,4,2,1,50,1,0
25746,365.853658536585,4,2,1,50,1,0
26111,387.096774193548,4,2,1,50,1,0
26885,385.232744783307,4,2,1,50,1,0
37671,384,4,2,1,65,1,0
37671,-86.9565217391304,4,2,1,65,0,0
49191,388.349514563107,4,2,1,65,1,0
49579,-86.9565217391303,4,2,1,65,0,0
49967,384.615384615385,4,2,1,70,1,0
50351,-86.9565217391304,4,2,1,70,0,0
55736,393.44262295082,4,2,1,70,1,0
56129,384.615384615385,4,2,1,70,1,0
56129,-86.9565217391304,4,2,1,70,0,0
62282,393.44262295082,4,2,1,50,1,0
62675,382.165605095541,4,2,1,50,1,0
63821,384.615384615385,4,2,1,50,1,0
69782,-99.009900990099,4,2,1,50,0,0
69974,379.746835443038,4,2,1,50,1,0
71492,392.156862745098,4,2,1,50,1,0
72276,383.386581469649,4,2,1,50,1,0
73042,384.615384615385,4,2,1,50,1,0
73234,-95.2380952380952,4,2,1,50,0,0
74580,-95.2380952380952,4,2,1,55,0,0
82272,385.852090032154,4,2,1,55,1,0
82850,-95.2380952380952,4,2,1,55,0,0
85358,361.44578313253,4,2,1,55,1,0
85900,-105.263157894737,4,2,1,55,0,0
86080,400,4,2,1,55,1,0
86480,384.615384615385,4,2,1,55,1,0
86864,398.671096345515,4,2,1,60,1,0
87661,382.165605095541,4,2,1,60,1,0
87661,-85.4700854700855,4,2,1,60,0,0
88425,384,4,2,1,60,1,0
88809,-85.4700854700855,4,2,1,60,0,0
89961,-85.4700854700855,4,2,1,65,0,0
90729,388.349514563107,4,2,1,65,1,0
90729,-85.4700854700855,4,2,1,65,0,0
91505,384,4,2,1,65,1,0
91505,-85.4700854700855,4,2,1,65,0,0
93041,382.165605095542,4,2,1,70,1,0
93423,-85.4700854700855,4,2,1,70,0,0
94569,385.232744783307,4,2,1,70,1,0
94954,-85.4700854700855,4,2,1,70,0,0
95917,-85.4700854700855,4,2,1,75,0,0
96109,390.243902439025,4,2,1,75,1,0
96304,-85.4700854700855,4,2,1,75,0,0
97474,-85.4700854700855,4,2,1,80,0,0
98840,348.837209302326,4,2,1,80,1,0
99014,375,4,2,1,80,1,0
99201,384,4,2,1,65,1,0
99201,-85.4700854700855,4,2,1,65,0,0
99961,-100,4,2,1,65,0,0
108417,388.978930307942,4,2,1,65,1,0
109972,379.746835443038,4,2,1,65,1,0
111111,-83.3333333333333,4,2,1,65,0,0
111490,384.615384615385,4,2,1,70,1,0
111490,-83.3333333333333,4,2,1,70,0,0
112836,-85.4700854700855,4,2,1,70,0,0
113028,402.68456375839,4,2,1,70,1,0
113430,-83.3333333333333,4,2,1,70,0,0
113833,382.165605095542,4,2,1,70,1,0
114215,-83.3333333333333,4,2,1,70,0,0
115361,388.349514563107,4,2,1,70,1,0
115361,-83.3333333333333,4,2,1,70,0,0
116914,379.746835443039,4,2,1,70,1,0
117293,-83.3333333333333,4,2,1,70,0,0
117673,383.386581469649,4,2,1,70,1,0
118439,-83.3333333333333,4,2,1,70,0,0
120740,384.615384615385,4,2,1,70,1,0
121893,-83.3333333333333,4,2,1,70,0,0
123432,-71.4285714285714,4,2,1,70,0,0
123624,352.941176470588,4,2,1,70,1,0
123624,-71.4285714285714,4,2,1,70,0,0
123800,415.944540727903,4,2,1,70,1,0
134198,390.243902439025,4,2,1,30,1,0
134783,375,4,2,1,30,1,0
135533,340.909090909091,4,2,1,30,1,0
135873,400,4,2,1,30,1,0
136273,384.615384615385,4,2,1,30,1,0

[Colours]
Combo1 : 136,154,255
Combo2 : 255,255,128

[HitObjects]
389,372,568,5,8,0:0:0:0:
389,372,657,1,8,0:0:0:0:
389,372,747,2,0,L|404:275,1,75,2|0,1:2|0:0,0:0:0:0:
323,252,1131,2,0,L|317:163,1,75,10|0,0:0|0:0,0:0:0:0:
378,110,1515,5,2,0:0:0:0:
325,36,1707,2,0,P|270:32|232:9,1,75,2|8,1:2|0:0,0:0:0:0:
193,92,2091,2,0,P|113:98|56:126,1,112.5,2|0,1:2|0:0,0:0:0:0:
83,109,2475,2,0,P|72:142|110:198,1,75,2|8,0:0|0:0,0:0:0:0:
171,202,2859,1,2,0:0:0:0:
310,303,3243,6,0,P|301:345|300:389,2,75,2|10|2,1:2|0:0|0:0,0:0:0:0:
222,322,3819,2,0,P|165:344|49:338,1,150,2|8,1:2|0:0,0:0:0:0:
25,271,4395,1,2,0:0:0:0:
72,194,4587,2,0,P|128:182|175:188,1,75,2|2,0:0|1:2,0:0:0:0:
207,229,4971,2,0,P|254:227|363:204,1,150,10|2,0:0|0:0,0:0:0:0:
297,33,5931,5,2,0:0:0:0:
375,92,6123,2,0,P|435:112|461:98,1,75,2|2,0:0|1:2,0:0:0:0:
493,196,6507,1,10,0:0:0:0:
493,196,6603,1,0,3:0:0:0:
493,196,6699,2,0,P|486:224|484:260,1,37.5,10|0,0:0|0:0,0:0:0:0:
448,252,6891,6,0,P|403:299|413:392,1,150,2|8,1:2|0:0,0:0:0:0:
322,374,7467,2,0,P|247:367|176:343,1,150,2|2,0:0|1:2,0:0:0:0:
181,248,8043,2,0,P|139:251|92:269,1,75,10|2,0:0|1:2,0:0:0:0:
39,319,8427,5,2,0:2:0:0:
123,348,8619,2,0,P|192:340|259:305,1,112.5,2|0,0:0|0:0,0:0:0:0:
231,323,9003,6,0,P|270:279|228:206,1,150,2|0,0:0|1:0,0:0:0:0:
152,183,9579,2,0,P|129:148|139:104,1,75,10|0,0:0|0:0,0:0:0:0:
192,50,9963,1,2,1:2:0:0:
369,18,10347,6,0,P|434:24|457:31,1,75,8|0,0:0|3:0,0:0:0:0:
509,87,10731,2,0,P|494:141|486:221,1,112.5,0|0,0:0|3:0,0:0:0:0:
486,196,11115,1,8,0:2:0:0:
405,234,11307,1,0,1:2:0:0:
448,324,11499,5,2,0:0:0:0:
348,369,11704,2,0,P|267:367|230:344,1,112.5,2|0,1:2|0:0,0:0:0:0:
240,352,12098,1,2,1:2:0:0:
75,281,12478,1,0,1:0:0:0:
148,229,12668,6,0,P|151:206|160:173,1,37.5,10|0,0:0|0:0,0:0:0:0:
111,179,12858,2,0,P|108:160|104:142,1,37.5,8|0,0:0|0:0,0:0:0:0:
137,111,13048,6,0,P|167:58|255:60,1,150,2|10,1:2|0:0,0:0:0:0:
296,132,13625,2,0,P|363:144|440:137,1,112.5,2|0,0:0|0:0,0:0:0:0:
407,142,14011,1,2,1:2:0:0:
477,99,14203,1,8,0:0:0:0:
496,179,14396,6,0,P|494:227|498:349,1,150,2|2,1:2|0:0,0:0:0:0:
424,369,14974,1,8,0:0:0:0:
344,344,15166,2,0,P|346:269|344:194,1,150,2|2,0:0|1:2,0:0:0:0:
405,138,15744,1,8,0:0:0:0:
323,83,15937,6,0,P|235:87|201:167,1,150,2|2,0:0|0:0,0:0:0:0:
163,205,16515,2,0,P|120:221|71:197,1,75,10|2,0:0|0:0,0:0:0:0:
53,141,16900,1,2,0:0:0:0:
8,210,17092,2,0,P|13:271|14:295,1,75,2|0,1:2|0:0,0:0:0:0:
112,303,17478,6,0,B|199:299|153:353|258:343,1,150,2|2,1:2|0:0,0:0:0:0:
326,301,18056,2,0,P|324:347|324:384,1,75,10|2,0:0|1:2,0:0:0:0:
242,373,18441,1,2,0:0:0:0:
205,303,18633,2,0,B|121:281|71:354|71:354,1,150,2|2,0:0|0:0,0:0:0:0:
31,280,19211,6,0,P|13:180|10:32,1,225,2|2,1:0|1:0,0:0:0:0:
177,14,20174,1,0,1:0:0:0:
231,75,20367,1,8,0:0:0:0:
297,26,20560,2,0,P|368:32|466:62,1,150,2|2,1:2|0:0,0:0:0:0:
418,131,21137,2,0,P|368:145|331:134,1,75,8|2,0:0|0:0,0:0:0:0:
263,137,21523,2,0,P|261:196|279:305,1,150,2|8,0:0|0:0,0:0:0:0:
328,348,22100,2,0,P|407:338|456:397,1,150,2|2,0:0|0:0,0:0:0:0:
491,309,22670,6,0,P|519:269|502:237,1,75,8|0,0:0|0:0,0:0:0:0:
436,213,23047,2,0,P|425:135|432:77,1,112.5,0|2,0:0|0:0,0:0:0:0:
427,101,23425,1,10,0:0:0:0:
482,39,23613,1,2,1:2:0:0:
404,0,23802,5,2,0:0:0:0:
339,67,24007,2,0,P|270:65|230:53,1,75,2|8,0:0|0:0,0:0:0:0:
183,115,24398,2,0,P|171:37|87:15,1,150,2|2,1:2|1:2,0:0:0:0:
37,60,24959,2,0,P|39:84|35:130,1,37.5,8|8,0:3|0:3,0:0:0:0:
78,119,25146,2,0,P|74:147|76:183,1,37.5,8|8,0:3|0:3,0:0:0:0:
44,191,25333,1,0,1:0:0:0:
202,235,25746,6,0,B|293:226|248:295|350:287,1,150,10|0,0:0|0:0,0:0:0:0:
363,364,26304,2,0,P|402:349|452:362,1,75,2|8,1:2|0:0,0:0:0:0:
481,285,26691,2,0,P|489:218|483:131,1,150,2|2,1:2|0:0,0:0:0:0:
411,99,27270,1,8,0:0:0:0:
450,26,27462,2,0,P|387:4|335:10,1,112.5,2|0,0:0|0:0,0:0:0:0:
342,7,27848,1,2,1:2:0:0:
294,75,28040,2,0,P|239:77|199:55,1,75,8|2,0:0|0:0,0:0:0:0:
157,17,28425,5,2,1:2:0:0:
120,91,28618,2,0,P|128:144|130:191,1,75,2|8,0:0|0:0,0:0:0:0:
209,186,29003,2,0,P|204:243|205:325,1,112.5,2|0,0:0|0:0,0:0:0:0:
203,298,29389,1,2,1:2:0:0:
151,363,29581,2,0,P|102:337|67:358,1,75,8|2,0:0|1:2,0:0:0:0:
25,285,29966,5,2,0:0:0:0:
82,225,30159,1,2,0:0:0:0:
29,161,30352,2,0,P|27:113|19:77,1,75,10|2,0:0|0:0,0:0:0:0:
77,25,30737,2,0,P|133:38|148:107,1,112.5,2|0,0:0|0:0,0:0:0:0:
152,84,31122,1,10,0:0:0:0:
192,157,31315,1,10,0:0:0:0:
261,111,31507,6,0,B|349:97|306:181|406:161,1,150,2|8,1:0|0:0,0:0:0:0:
459,116,32085,2,0,P|479:74|430:33,1,112.5,2|0,1:0|0:0,0:0:0:0:
398,48,32470,2,0,P|359:58|311:54,1,75,0|8,1:0|0:0,0:0:0:0:
266,116,32856,6,0,P|187:106|116:76,1,150,2|2,1:2|0:0,0:0:0:0:
231,203,33626,2,0,P|161:230|87:239,1,150,2|2,0:0|1:2,0:0:0:0:
48,312,34204,1,8,0:0:0:0:
112,363,34397,1,2,0:0:0:0:
178,313,34589,6,0,P|236:306|281:358,1,112.5,0|0,1:0|0:0,0:0:0:0:
307,363,34974,2,0,P|363:365|384:334,1,75,8|0,0:0|0:0,0:0:0:0:
380,273,35360,1,2,0:0:0:0:
449,228,35552,1,2,1:2:0:0:
387,172,35745,2,0,P|385:140|375:86,1,75,10|0,0:0|1:2,0:0:0:0:
298,54,36130,6,0,P|264:46|188:-3,2,112.5,2|2|2,0:0|0:0|1:2,0:0:0:0:
118,74,37093,1,2,1:2:0:0:
118,74,37286,1,10,0:0:0:0:
285,198,37671,6,0,P|342:165|407:190,1,129.375002467632,0|0,1:2|0:0,0:0:0:0:
437,147,38055,2,0,P|426:210|430:256,1,86.2500016450882,10|0,0:0|0:0,0:0:0:0:
347,299,38439,1,2,0:0:0:0:
426,364,38631,2,0,P|481:354|492:307,1,86.2500016450882,2|8,1:2|0:0,0:0:0:0:
441,214,39015,6,0,P|450:143|439:11,1,172.500003290176,2|2,1:2|0:0,0:0:0:0:
333,100,39591,1,8,0:0:0:0:
270,11,39783,1,2,0:0:0:0:
192,78,39975,2,0,P|146:80|88:91,1,86.2500016450882,2|2,0:0|1:2,0:0:0:0:
18,30,40359,1,8,0:0:0:0:
36,131,40551,6,0,P|42:200|41:293,1,129.375002467632,2|0,0:0|0:0,0:0:0:0:
42,260,40935,1,2,0:0:0:0:
102,344,41127,2,0,P|125:291|153:278,1,86.2500016450882,10|2,0:0|0:0,0:0:0:0:
217,202,41511,1,2,0:0:0:0:
217,202,41703,2,0,P|274:217|299:328,1,172.500003290176,2|2,1:2|1:2,0:0:0:0:
475,200,42471,5,0,0:0:0:0:
380,157,42663,2,0,B|402:55|463:124|466:-1,1,172.500003290176,10|2,0:2|0:0,0:0:0:0:
361,20,43239,2,0,P|332:24|283:37,1,43.1250008225441,8|0,0:0|0:0,0:0:0:0:
275,0,43431,2,0,P|246:4|164:29,1,86.2500016450882,8|8,0:0|0:0,0:0:0:0:
159,129,43815,6,0,P|109:93|40:107,1,129.375002467632,0|0,1:0|0:0,0:0:0:0:
5,70,44199,2,0,P|13:127|14:183,1,86.2500016450882,10|2,0:0|0:0,0:0:0:0:
89,226,44583,1,2,0:0:0:0:
38,316,44775,2,0,P|68:312|138:318,1,86.2500016450882,2|8,1:2|0:0,0:0:0:0:
196,241,45159,2,0,P|282:262|298:362,1,172.500003290176,2|2,1:2|0:0,0:0:0:0:
401,377,45735,1,8,0:0:0:0:
465,295,45927,2,0,P|458:211|468:103,1,172.500003290176,2|2,0:0|1:2,0:0:0:0:
362,103,46503,2,0,P|362:48|353:7,1,86.2500016450882,8|8,0:0|0:0,0:0:0:0:
257,49,46887,6,0,P|182:62|75:85,1,172.500003290176,2|10,1:2|0:0,0:0:0:0:
25,164,47463,1,0,1:0:0:0:
128,172,47655,2,0,P|111:226|105:278,1,86.2500016450882,2|2,0:0|1:2,0:0:0:0:
0,280,48039,2,0,P|17:334|23:386,1,86.2500016450882,10|2,0:0|1:2,0:0:0:0:
125,371,48423,5,0,1:2:0:0:
125,371,48615,2,0,P|177:317|274:355,1,172.500003290176,10|10,0:0|0:0,0:0:0:0:
331,266,49191,1,8,0:3:0:0:
409,363,49385,1,4,0:3:0:0:
470,306,49579,2,0,P|477:254|487:212,1,86.2500016450882,8|8,0:0|0:0,0:0:0:0:
383,135,49967,5,0,1:2:0:0:
454,66,50159,1,2,0:0:0:0:
375,13,50351,2,0,P|308:31|226:42,1,129.375002467632,8|0,0:0|0:0,0:0:0:0:
241,87,50736,2,0,P|189:54|138:67,1,86.2500016450882,2|2,0:0|1:2,0:0:0:0:
93,121,51120,1,8,0:0:0:0:
13,69,51313,1,0,1:0:0:0:
102,0,51505,6,0,P|90:58|90:108,2,86.2500016450882,2|2|10,0:0|0:0|0:0,0:0:0:0:
194,46,52082,1,2,0:0:0:0:
166,126,52274,2,0,P|157:206|158:232,1,86.2500016450882,2|0,0:0|1:0,0:0:0:0:
102,278,52659,2,0,P|139:254|196:267,1,86.2500016450882,8|10,0:0|0:0,0:0:0:0:
247,203,53043,6,0,P|346:224|391:297,1,172.500003290176,0|10,1:0|0:0,0:0:0:0:
415,373,53620,1,2,0:0:0:0:
470,296,53813,2,0,P|473:243|488:178,1,86.2500016450882,2|2,0:0|1:2,0:0:0:0:
400,152,54197,1,10,0:2:0:0:
475,95,54390,1,2,1:2:0:0:
417,19,54582,6,0,P|355:24|304:40,2,86.2500016450882,2|2|10,0:0|0:0|0:0,0:0:0:0:
322,4,55159,1,2,0:0:0:0:
280,88,55351,2,0,P|238:98|195:99,1,86.2500016450882,2|0,0:0|1:0,0:0:0:0:
121,38,55736,1,10,0:0:0:0:
109,227,56129,6,0,P|97:150|94:45,1,172.500003290176,0|10,1:0|0:0,0:0:0:0:
231,186,56898,2,0,P|223:239|205:288,1,86.2500016450882,2|0,0:0|1:0,0:0:0:0:
132,321,57282,1,8,0:0:0:0:
200,377,57475,1,2,1:2:0:0:
269,325,57667,6,0,P|330:339|346:389,1,86.2500016450882,2|2,0:0|0:0,0:0:0:0:
427,373,58052,1,10,0:0:0:0:
427,373,58244,2,0,P|457:343|499:342,1,86.2500016450882,2|2,0:0|0:0,0:0:0:0:
436,272,58629,1,0,1:2:0:0:
510,206,58821,1,10,0:0:0:0:
393,171,59013,6,2,P|404:97|408:-14,1,172.500003290176,2|0,0:0|0:0,0:1:0:0:
356,81,59590,2,0,P|304:87|258:47,1,86.2500016450882,10|2,0:2|0:0,0:0:0:0:
222,8,59975,1,2,0:0:0:0:
164,71,60167,1,2,1:2:0:0:
71,19,60359,2,0,P|80:57|78:122,1,86.2500016450882,10|2,0:0|1:2,0:0:0:0:
154,160,60744,6,0,P|143:220|145:256,2,86.2500016450882,2|2|10,0:0|0:0|0:0,0:0:0:0:
228,203,61321,1,2,0:0:0:0:
289,142,61513,2,0,P|343:134|402:137,1,86.2500016450882,2|0,0:0|1:0,0:0:0:0:
434,195,61898,1,10,0:0:0:0:
364,269,62090,1,10,0:0:0:0:
454,372,62282,1,2,1:2:0:0:
468,206,62675,6,0,P|388:165|381:112,1,150,10|0,0:0|0:0,0:0:0:0:
380,27,63248,1,2,1:2:0:0:
310,74,63439,1,8,0:0:0:0:
245,27,63630,6,0,P|178:10|70:0,1,150,2|2,1:2|0:0,0:0:0:0:
43,67,64205,1,8,0:0:0:0:
90,134,64397,2,0,P|157:124|167:100,1,75,2|0,0:0|0:0,0:0:0:0:
212,62,64782,2,0,P|201:129|195:244,1,150,2|2,1:2|0:0,0:0:0:0:
125,254,65359,6,0,P|143:336|222:347,1,150,2|8,1:2|0:0,0:0:0:0:
260,298,65936,2,0,P|300:282|336:299,1,75,2|0,0:0|0:0,0:0:0:0:
360,367,66321,2,0,P|431:331|489:327,1,112.5,2|0,1:2|0:0,0:0:0:0:
462,326,66705,1,2,1:2:0:0:
494,256,66897,2,0,P|493:208|508:177,1,75,2|2,0:0|0:0,0:0:0:0:
427,155,67282,2,0,P|414:105|420:70,1,75,10|2,0:0|0:0,0:0:0:0:
381,3,67667,1,2,0:0:0:0:
323,73,67859,2,0,P|270:88|240:86,1,75,2|8,1:2|0:0,0:0:0:0:
196,34,68244,5,2,0:0:0:0:
196,34,68340,1,0,3:0:0:0:
196,34,68436,2,0,P|144:10|24:18,1,150,0|10,1:0|0:0,0:0:0:0:
16,130,69205,2,0,P|66:137|114:120,1,75,2|2,0:0|1:2,0:0:0:0:
158,101,69590,1,10,0:0:0:0:
158,101,69782,2,0,P|146:173|149:276,1,150,2|2,1:2|0:0,0:0:0:0:
88,297,70353,1,8,0:0:0:0:
88,297,70543,2,0,P|144:270|234:287,1,150,2|2,0:0|1:2,0:0:0:0:
280,229,71113,2,0,P|336:237|358:269,1,75,8|2,0:0|0:0,0:0:0:0:
415,306,71492,6,0,P|422:223|446:139,2,150,0|8|0,1:0|0:0|0:0,0:0:0:0:
341,291,72467,1,2,1:2:0:0:
286,342,72659,2,0,P|228:347|186:359,1,75,10|2,0:0|0:0,0:0:0:0:
155,297,73042,1,0,1:0:0:0:
82,351,73234,6,0,P|72:281|65:245,1,78.7499975967408,2|8,0:0|0:0,0:0:0:0:
37,201,73618,2,0,B|127:167|112:240|203:201,1,157.499995193482,2|2,1:2|1:2,0:0:0:0:
242,148,74195,1,10,0:0:0:0:
186,92,74388,1,8,0:0:0:0:
238,25,74580,6,0,P|310:10|368:73,1,157.499995193482,2|8,1:0|0:0,0:0:0:0:
460,43,75157,2,0,P|454:128|435:208,1,157.499995193482,2|2,0:1|1:2,0:0:0:0:
368,253,75734,1,10,0:0:0:0:
402,329,75926,1,2,1:2:0:0:
481,356,76118,6,0,P|420:313|341:337,1,157.499995193482,2|8,0:1|0:0,0:0:0:0:
267,372,76695,2,0,P|193:362|113:325,1,157.499995193482,2|0,0:1|1:0,0:0:0:0:
41,355,77272,2,0,P|23:305|29:252,1,78.7499975967408,10|2,0:0|0:0,0:0:0:0:
104,251,77657,5,2,1:2:0:0:
104,251,77849,2,0,P|118:182|117:166,1,78.7499975967408,2|8,0:0|0:0,0:0:0:0:
178,127,78234,2,0,P|165:48|95:6,1,157.499995193482,2|0,0:0|1:0,0:0:0:0:
64,75,78811,1,10,0:0:0:0:
103,149,79003,1,2,1:2:0:0:
189,129,79195,5,2,0:0:0:0:
189,129,79388,2,0,P|240:111|271:116,1,78.7499975967408,2|8,0:0|0:0,0:0:0:0:
285,38,79772,2,0,P|362:54|447:60,1,157.499995193482,2|2,1:2|1:2,0:0:0:0:
379,109,80349,2,0,P|365:161|397:199,1,78.7499975967408,8|10,0:0|0:0,0:0:0:0:
422,252,80734,6,0,P|418:280|417:309,3,39.3749987983704,0|0|0|0,1:0|3:0|3:0|3:0,0:0:0:0:
428,324,81118,1,10,0:0:0:0:
351,372,81311,1,2,0:0:0:0:
292,311,81503,1,2,0:0:0:0:
210,358,81695,2,0,P|154:363|129:373,1,78.7499975967408,0|10,1:0|0:0,0:0:0:0:
54,326,82080,6,0,P|18:275|68:194,1,157.499995193482,2|2,1:2|0:0,0:0:0:0:
144,186,82657,1,8,0:0:0:0:
172,106,82850,2,0,P|282:129|296:126,1,118.124996395111,2|0,0:0|0:0,0:0:0:0:
285,128,83236,1,2,1:2:0:0:
346,56,83429,2,0,P|404:43|430:49,1,78.7499975967408,8|2,0:0|0:0,0:0:0:0:
486,124,83815,6,0,P|474:204|459:367,2,236.249992790222,2|2|10,1:0|1:0|0:0,0:0:0:0:
438,56,85165,1,10,0:0:0:0:
438,56,85262,1,8,0:0:0:0:
438,56,85358,1,10,0:0:0:0:
382,114,85538,2,0,P|345:131|313:115,1,75,2|0,1:2|0:0,0:0:0:0:
280,43,85900,2,0,P|207:35|150:102,1,150,10|0,0:0|1:0,0:0:0:0:
118,159,86480,1,10,0:0:0:0:
118,159,86576,1,8,0:0:0:0:
118,159,86672,2,0,P|90:154|49:154,1,37.5,8|4,0:0|0:3,0:0:0:0:
39,148,86864,1,0,1:0:0:0:
114,325,87262,5,10,0:0:0:0:
192,268,87462,1,8,0:0:0:0:
254,340,87661,2,0,P|317:350|361:360,2,87.7500003347397,2|2|8,1:2|1:2|0:0,0:0:0:0:
288,249,88234,2,0,P|322:135|331:37,1,175.500000669479,10|2,0:0|1:2,0:0:0:0:
250,23,88809,6,0,P|229:74|249:106,1,87.7500003347397,10|10,0:0|0:0,0:0:0:0:
157,146,89193,2,0,P|195:185|232:180,1,87.7500003347397,2|2,1:2|1:2,0:0:0:0:
323,224,89577,1,10,0:0:0:0:
323,224,89769,1,10,0:0:0:0:
378,157,89961,6,0,P|468:135|524:144,2,131.62500050211,2|2|10,1:2|0:0|0:0,0:0:0:0:
371,271,90729,2,0,P|296:296|217:264,2,131.62500050211,2|2|10,1:2|0:0|0:0,0:0:0:0:
451,357,91505,6,0,P|465:293|480:259,1,87.7500003347397,2|2,1:2|1:2,0:0:0:0:
383,237,91889,2,0,P|369:173|354:139,1,87.7500003347397,10|10,0:0|0:0,0:0:0:0:
434,89,92273,1,2,1:2:0:0:
434,89,92465,2,0,P|405:12|300:23,1,175.500000669479,2|10,1:2|0:2,0:0:0:0:
257,78,93041,5,0,1:0:0:0:
197,1,93232,1,0,1:0:0:0:
123,63,93423,2,0,P|63:57|28:43,1,87.7500003347397,10|8,0:0|0:0,0:0:0:0:
66,139,93805,5,2,1:2:0:0:
77,234,93996,1,2,1:2:0:0:
88,330,94187,1,10,0:0:0:0:
167,275,94378,6,0,P|276:284|315:364,1,175.500000669479,10|0,0:0|1:0,0:0:0:0:
373,258,94954,2,0,P|441:263|483:295,1,87.7500003347397,10|10,0:0|0:0,0:0:0:0:
436,365,95339,1,2,1:2:0:0:
474,276,95532,2,0,P|500:201|503:108,1,131.62500050211,2|0,1:2|0:0,0:0:0:0:
505,149,95917,1,10,0:2:0:0:
365,15,96304,2,0,P|323:27|279:24,1,87.7500003347397,2|10,0:0|0:0,0:0:0:0:
216,97,96694,1,10,0:2:0:0:
146,18,96889,2,0,P|128:17|79:28,1,43.8750001673698,2|0,1:2|0:0,0:0:0:0:
55,10,97084,2,0,P|56:72|50:123,1,87.7500003347397,2|8,1:2|0:0,0:0:0:0:
139,143,97474,6,0,P|126:219|119:348,1,175.500000669479,10|10,0:0|0:0,0:0:0:0:
197,374,98060,5,8,0:0:0:0:
236,303,98255,1,10,0:0:0:0:
329,293,98450,1,8,0:0:0:0:
425,328,98645,1,10,0:0:0:0:
507,262,98840,1,8,0:0:0:0:
480,161,99014,1,10,0:0:0:0:
480,161,99107,1,8,0:0:0:0:
480,161,99201,2,0,P|432:100|312:104,1,175.500000669479,0|14,1:2|0:2,0:0:0:0:
190,18,99969,5,2,0:0:0:0:
190,18,100161,2,0,P|136:14|103:7,1,75,2|8,1:2|0:0,0:0:0:0:
17,72,100545,2,0,P|28:131|25:229,1,150,2|2,1:2|0:0,0:0:0:0:
111,207,101121,1,8,0:0:0:0:
164,272,101313,1,2,0:0:0:0:
218,217,101505,2,0,P|278:221|314:242,1,75,2|2,0:0|1:2,0:0:0:0:
316,311,101889,1,8,0:0:0:0:
376,254,102081,6,0,P|435:222|421:124,1,150,2|2,0:0|0:0,0:0:0:0:
365,108,102657,2,0,P|351:60|377:22,1,75,10|2,0:0|0:0,0:0:0:0:
442,31,103041,1,2,0:0:0:0:
442,31,103233,2,0,P|363:9|287:14,1,150,2|2,1:2|1:2,0:0:0:0:
200,147,104001,1,0,0:0:0:0:
124,106,104193,2,0,P|185:68|278:71,1,150,10|2,0:2|0:0,0:0:0:0:
325,12,104769,1,8,0:0:0:0:
368,95,104961,1,8,0:0:0:0:
459,32,105153,1,8,0:0:0:0:
496,105,105345,6,0,P|480:163|462:277,1,150,0|10,1:0|0:0,0:0:0:0:
394,289,105921,1,2,0:0:0:0:
329,237,106113,1,2,0:0:0:0:
278,308,106305,2,0,P|240:308|203:301,1,75,2|8,1:2|0:0,0:0:0:0:
159,231,106689,6,0,P|93:239|50:331,1,150,2|2,1:2|0:0,0:0:0:0:
0,227,107265,1,8,0:0:0:0:
48,160,107457,2,0,P|44:75|65:3,1,150,2|2,0:0|1:2,0:0:0:0:
133,52,108033,2,0,P|177:75|213:67,1,75,8|0,0:0|0:0,0:0:0:0:
262,17,108417,5,0,1:0:0:0:
344,21,108611,1,0,0:0:0:0:
366,100,108805,1,8,0:0:0:0:
457,114,109000,1,0,1:0:0:0:
457,114,109097,1,8,0:0:0:0:
457,114,109194,1,10,0:0:0:0:
405,178,109389,2,0,P|400:255|409:312,1,112.5,2|8,1:2|0:0,0:0:0:0:
404,289,109778,1,10,1:2:0:0:
459,360,109972,6,0,P|416:310|360:318,1,112.5,10|10,0:2|0:0,0:0:0:0:
349,349,110351,1,8,0:0:0:0:
291,279,110541,1,10,0:0:0:0:
221,339,110731,1,8,0:3:0:0:
221,339,110826,1,8,0:3:0:0:
221,339,110921,1,10,0:0:0:0:
221,339,111016,1,8,0:0:0:0:
221,339,111111,2,0,P|195:338|152:346,1,44.999998626709,8|8,0:3|0:3,0:0:0:0:
130,309,111301,2,0,P|118:310|81:321,1,44.999998626709,10|8,0:0|0:0,0:0:0:0:
47,281,111490,6,0,P|36:196|6:91,1,179.999994506836,2|8,1:2|0:0,0:0:0:0:
112,60,112066,1,2,0:0:0:0:
112,60,112259,2,0,P|176:72|231:73,1,89.9999972534181,2|0,0:0|1:2,0:0:0:0:
276,145,112643,1,10,0:0:0:0:
315,44,112836,6,0,P|382:17|472:79,1,179.999994506836,2|2,1:2|0:0,0:0:0:0:
398,153,113430,2,0,P|387:199|384:266,1,89.9999972534181,10|2,0:0|0:0,0:0:0:0:
486,275,113833,5,2,0:0:0:0:
431,368,114024,1,0,1:0:0:0:
338,312,114215,2,0,P|267:313|241:354,1,89.9999972534181,10|10,0:0|0:0,0:0:0:0:
164,381,114597,6,0,P|108:357|122:239,1,179.999994506836,2|8,1:2|0:0,0:0:0:0:
195,187,115170,1,2,0:0:0:0:
102,131,115361,2,0,P|96:75|79:20,2,89.9999972534181,2|0|10,0:0|1:2|0:2,0:0:0:0:
167,43,115943,2,0,P|278:56|379:90,1,179.999994506836,2|2,1:2|0:0,0:0:0:0:
306,167,116526,2,0,P|380:163|409:136,1,89.9999972534181,10|2,0:0|0:0,0:0:0:0:
391,156,116817,1,8,0:0:0:0:
391,156,116914,1,10,0:0:0:0:
499,165,117103,1,0,1:0:0:0:
441,246,117293,2,0,P|432:294|433:325,1,44.999998626709,10|0,0:0|0:0,0:0:0:0:
386,272,117483,2,0,P|389:295|395:317,1,44.999998626709,8|0,0:0|0:0,0:0:0:0:
395,352,117673,5,2,1:2:0:0:
290,343,117864,1,2,1:2:0:0:
236,254,118056,1,8,0:0:0:0:
131,248,118248,1,2,0:0:0:0:
47,315,118439,6,0,P|40:258|28:200,1,89.9999972534181,2|0,0:0|1:0,0:0:0:0:
119,158,118823,1,10,0:0:0:0:
42,82,119014,2,0,P|143:69|201:51,1,134.999995880127,2|0,1:2|0:0,0:0:0:0:
174,60,119398,1,2,0:0:0:0:
273,16,119589,2,0,P|345:32|380:32,1,89.9999972534181,10|2,0:0|0:0,0:0:0:0:
464,64,119973,1,2,0:0:0:0:
381,133,120165,1,2,1:2:0:0:
474,187,120356,2,0,P|458:241|456:285,1,89.9999972534181,8|8,0:0|0:3,0:0:0:0:
391,361,120740,5,2,1:2:0:0:
316,282,120932,1,2,0:0:0:0:
230,347,121124,1,8,0:2:0:0:
173,292,121316,5,2,0:0:0:0:
92,363,121509,1,2,0:0:0:0:
13,287,121701,1,0,1:2:0:0:
90,212,121893,2,0,P|96:181|96:149,1,44.999998626709,10|0,0:0|0:0,0:0:0:0:
69,169,122086,2,0,P|67:147|62:124,1,44.999998626709,10|0,0:2|0:0,0:0:0:0:
23,94,122278,6,0,P|86:66|147:67,1,89.9999972534181,2|2,1:2|1:2,0:0:0:0:
189,117,122663,1,10,0:0:0:0:
178,12,122855,2,0,P|281:67|369:74,1,179.999994506836,10|8,0:0|0:0,0:0:0:0:
432,159,123432,2,0,P|386:175|383:218,1,52.4999983978272,10|0,0:0|0:0,0:0:0:0:
345,171,123624,2,0,P|331:217|365:244,1,52.4999983978272,8|0,0:0|0:0,0:0:0:0:
361,269,123800,1,4,1:2:0:0:
33,192,134783,6,0,P|31:238|41:359,1,150,2|2,0:0|0:0,0:0:0:0:
233,302,135533,2,0,P|238:248|236:207,1,75,2|0,0:0|0:0,0:0:0:0:
173,185,135873,2,0,P|173:147|177:110,1,75,2|0,0:0|0:0,0:0:0:0:
255,57,136273,1,2,0:0:0:0:
