osu file format v14

[General]
AudioFilename: 17_komprex_-_mondo_brutale.mp3
AudioLeadIn: 0
PreviewTime: 45003
Countdown: 0
SampleSet: None
StackLeniency: 0.7
Mode: 3
LetterboxInBreaks: 0
SpecialStyle: 0
WidescreenStoryboard: 0

[Editor]
DistanceSpacing: 0.8
BeatDivisor: 2
GridSize: 32
TimelineZoom: 1

[Metadata]
Title:Mondo Brutale
TitleUnicode:Mondo Brutale
Artist:Komprex
ArtistUnicode:Komprex
Creator:Choofers
Version:Hard
Source:
Tags:
BeatmapID:1270390
BeatmapSetID:601338

[Difficulty]
HPDrainRate:5
CircleSize:4
OverallDifficulty:7
ApproachRate:5
SliderMultiplier:1.4
SliderTickRate:1

[Events]
//Background and Video events
0,0,"mondobg.png",0,0
//Break Periods
2,92992,98457
//Storyboard Layer 0 (Background)
//Storyboard Layer 1 (Fail)
//Storyboard Layer 2 (Pass)
//Storyboard Layer 3 (Foreground)
//Storyboard Sound Samples

[TimingPoints]
13868,216.216216,4,2,0,0,1,0
61219,239.705641,4,2,0,0,1,0
61459,234.171929,4,2,0,0,1,0
63098,234.263359,4,2,0,0,1,0
63333,216.216216,4,2,0,0,1,0

[HitObjects]
64,192,13868,5,0,0:0:0:0:
448,192,13868,1,0,0:0:0:0:
64,192,14084,1,0,0:0:0:0:
448,192,14084,1,0,0:0:0:0:
192,192,14300,1,0,0:0:0:0:
320,192,14733,1,0,0:0:0:0:
64,192,15165,1,0,0:0:0:0:
320,192,15382,1,0,0:0:0:0:
448,192,15436,1,0,0:0:0:0:
64,192,15490,1,0,0:0:0:0:
192,192,15544,1,0,0:0:0:0:
320,192,15598,1,0,0:0:0:0:
320,192,15814,1,0,0:0:0:0:
320,192,16030,1,0,0:0:0:0:
320,192,16246,1,0,0:0:0:0:
320,192,16463,1,0,0:0:0:0:
448,192,16517,1,0,0:0:0:0:
64,192,16571,1,0,0:0:0:0:
192,192,16625,1,0,0:0:0:0:
320,192,16679,1,0,0:0:0:0:
448,192,16733,1,0,0:0:0:0:
192,192,16787,1,0,0:0:0:0:
64,192,16841,1,0,0:0:0:0:
448,192,16895,128,0,16949:0:0:0:0:
448,192,17760,128,0,17814:0:0:0:0:
320,192,18192,1,0,0:0:0:0:
64,192,18625,1,0,0:0:0:0:
320,192,18841,1,0,0:0:0:0:
448,192,18895,1,0,0:0:0:0:
64,192,18949,1,0,0:0:0:0:
192,192,19003,1,0,0:0:0:0:
320,192,19057,1,0,0:0:0:0:
448,192,19057,128,0,19111:0:0:0:0:
192,192,19273,128,0,19327:0:0:0:0:
64,192,19490,128,0,19544:0:0:0:0:
448,192,19706,128,0,19760:0:0:0:0:
192,192,19922,128,0,20354:0:0:0:0:
320,192,20138,1,0,0:0:0:0:
320,192,20354,1,0,0:0:0:0:
448,192,20354,128,0,20679:0:0:0:0:
320,192,20571,1,0,0:0:0:0:
64,192,20787,1,0,0:0:0:0:
448,192,20787,1,0,0:0:0:0:
64,192,21003,1,0,0:0:0:0:
448,192,21003,1,0,0:0:0:0:
192,192,21219,1,0,0:0:0:0:
320,192,21652,1,0,0:0:0:0:
64,192,22084,1,0,0:0:0:0:
448,192,22300,128,0,22354:0:0:0:0:
320,192,22517,1,0,0:0:0:0:
448,192,22733,128,0,22787:0:0:0:0:
192,192,22949,1,0,0:0:0:0:
64,192,23165,128,0,23219:0:0:0:0:
192,192,23382,128,0,23814:0:0:0:0:
320,192,23382,1,0,0:0:0:0:
320,192,23814,1,0,0:0:0:0:
448,192,23814,128,0,24138:0:0:0:0:
64,192,24787,1,0,0:0:0:0:
192,192,24841,1,0,0:0:0:0:
320,192,24895,1,0,0:0:0:0:
192,192,25003,1,0,0:0:0:0:
64,192,25111,1,0,0:0:0:0:
448,192,25111,1,0,0:0:0:0:
192,192,25327,1,0,0:0:0:0:
448,192,25544,128,0,25598:0:0:0:0:
320,192,27273,1,0,0:0:0:0:
320,192,27490,1,0,0:0:0:0:
64,192,27706,1,0,0:0:0:0:
192,192,27760,1,0,0:0:0:0:
320,192,27814,1,0,0:0:0:0:
448,192,27868,1,0,0:0:0:0:
192,192,27922,1,0,0:0:0:0:
448,192,27976,1,0,0:0:0:0:
320,192,28030,1,0,0:0:0:0:
192,192,28084,1,0,0:0:0:0:
64,192,28138,1,0,0:0:0:0:
192,192,28192,1,0,0:0:0:0:
320,192,28246,1,0,0:0:0:0:
448,192,28300,1,0,0:0:0:0:
192,192,28354,1,0,0:0:0:0:
448,192,28409,1,0,0:0:0:0:
320,192,28463,1,0,0:0:0:0:
192,192,28517,1,0,0:0:0:0:
64,192,28571,1,0,0:0:0:0:
192,192,28625,1,0,0:0:0:0:
320,192,28679,1,0,0:0:0:0:
448,192,28733,1,0,0:0:0:0:
192,192,28787,1,0,0:0:0:0:
448,192,28841,1,0,0:0:0:0:
320,192,28895,1,0,0:0:0:0:
192,192,28949,1,0,0:0:0:0:
64,192,29003,1,0,0:0:0:0:
192,192,29057,1,0,0:0:0:0:
320,192,29111,1,0,0:0:0:0:
448,192,29165,1,0,0:0:0:0:
192,192,29219,1,0,0:0:0:0:
448,192,29273,1,0,0:0:0:0:
320,192,29327,1,0,0:0:0:0:
192,192,29382,1,0,0:0:0:0:
64,192,29436,1,0,0:0:0:0:
192,192,29490,1,0,0:0:0:0:
320,192,29544,1,0,0:0:0:0:
448,192,29598,1,0,0:0:0:0:
192,192,29652,1,0,0:0:0:0:
448,192,29706,1,0,0:0:0:0:
320,192,29760,1,0,0:0:0:0:
192,192,29814,1,0,0:0:0:0:
64,192,29868,1,0,0:0:0:0:
192,192,29922,1,0,0:0:0:0:
320,192,29976,1,0,0:0:0:0:
448,192,30030,1,0,0:0:0:0:
192,192,30084,1,0,0:0:0:0:
448,192,30138,1,0,0:0:0:0:
320,192,30192,1,0,0:0:0:0:
192,192,30246,1,0,0:0:0:0:
64,192,30300,1,0,0:0:0:0:
192,192,30354,1,0,0:0:0:0:
320,192,30409,1,0,0:0:0:0:
448,192,30463,1,0,0:0:0:0:
192,192,30517,1,0,0:0:0:0:
448,192,30571,1,0,0:0:0:0:
320,192,30625,1,0,0:0:0:0:
192,192,30679,1,0,0:0:0:0:
64,192,30733,1,0,0:0:0:0:
448,192,30787,1,0,0:0:0:0:
64,192,30841,1,0,0:0:0:0:
448,192,30895,1,0,0:0:0:0:
64,192,30949,1,0,0:0:0:0:
192,192,30976,1,0,0:0:0:0:
320,192,31003,1,0,0:0:0:0:
448,192,31030,1,0,0:0:0:0:
64,192,31057,1,0,0:0:0:0:
192,192,31084,1,0,0:0:0:0:
320,192,31111,1,0,0:0:0:0:
448,192,31138,1,0,0:0:0:0:
64,192,31165,1,0,0:0:0:0:
320,192,31219,1,0,0:0:0:0:
192,192,31273,1,0,0:0:0:0:
448,192,31327,1,0,0:0:0:0:
320,192,31382,1,0,0:0:0:0:
448,192,31436,1,0,0:0:0:0:
192,192,31490,1,0,0:0:0:0:
320,192,31544,1,0,0:0:0:0:
64,192,31598,1,0,0:0:0:0:
320,192,31652,1,0,0:0:0:0:
192,192,31706,1,0,0:0:0:0:
448,192,31760,1,0,0:0:0:0:
320,192,31814,1,0,0:0:0:0:
448,192,31868,1,0,0:0:0:0:
192,192,31922,1,0,0:0:0:0:
320,192,31976,1,0,0:0:0:0:
64,192,32030,1,0,0:0:0:0:
320,192,32084,1,0,0:0:0:0:
192,192,32138,1,0,0:0:0:0:
448,192,32192,1,0,0:0:0:0:
320,192,32246,1,0,0:0:0:0:
448,192,32300,1,0,0:0:0:0:
192,192,32354,1,0,0:0:0:0:
320,192,32409,1,0,0:0:0:0:
64,192,32463,1,0,0:0:0:0:
320,192,32517,1,0,0:0:0:0:
192,192,32571,1,0,0:0:0:0:
448,192,32625,1,0,0:0:0:0:
320,192,32679,1,0,0:0:0:0:
448,192,32733,1,0,0:0:0:0:
192,192,32787,1,0,0:0:0:0:
320,192,32841,1,0,0:0:0:0:
64,192,32895,1,0,0:0:0:0:
320,192,32949,1,0,0:0:0:0:
192,192,33003,1,0,0:0:0:0:
448,192,33057,1,0,0:0:0:0:
320,192,33111,1,0,0:0:0:0:
448,192,33165,1,0,0:0:0:0:
192,192,33219,1,0,0:0:0:0:
320,192,33273,1,0,0:0:0:0:
64,192,33327,1,0,0:0:0:0:
320,192,33382,1,0,0:0:0:0:
192,192,33436,1,0,0:0:0:0:
448,192,33490,1,0,0:0:0:0:
320,192,33544,1,0,0:0:0:0:
448,192,33598,1,0,0:0:0:0:
192,192,33652,1,0,0:0:0:0:
320,192,33706,1,0,0:0:0:0:
64,192,33760,1,0,0:0:0:0:
320,192,33814,1,0,0:0:0:0:
192,192,33868,1,0,0:0:0:0:
448,192,33922,1,0,0:0:0:0:
320,192,33976,1,0,0:0:0:0:
448,192,34030,1,0,0:0:0:0:
192,192,34084,1,0,0:0:0:0:
320,192,34138,1,0,0:0:0:0:
64,192,34192,1,0,0:0:0:0:
64,192,34300,1,0,0:0:0:0:
448,192,34409,128,0,34625:0:0:0:0:
64,192,34625,1,0,0:0:0:0:
192,192,34625,1,0,0:0:0:0:
320,192,34679,1,0,0:0:0:0:
64,192,34733,1,0,0:0:0:0:
448,192,34733,1,0,0:0:0:0:
192,192,34787,1,0,0:0:0:0:
320,192,34841,1,0,0:0:0:0:
448,192,34841,1,0,0:0:0:0:
64,192,34895,1,0,0:0:0:0:
192,192,34949,1,0,0:0:0:0:
320,192,34949,1,0,0:0:0:0:
448,192,35003,1,0,0:0:0:0:
64,192,35057,1,0,0:0:0:0:
192,192,35057,1,0,0:0:0:0:
320,192,35111,1,0,0:0:0:0:
64,192,35165,1,0,0:0:0:0:
448,192,35165,1,0,0:0:0:0:
192,192,35219,1,0,0:0:0:0:
320,192,35273,1,0,0:0:0:0:
448,192,35273,1,0,0:0:0:0:
64,192,35327,1,0,0:0:0:0:
192,192,35382,1,0,0:0:0:0:
320,192,35382,1,0,0:0:0:0:
448,192,35436,1,0,0:0:0:0:
64,192,35490,1,0,0:0:0:0:
320,192,35490,1,0,0:0:0:0:
192,192,35544,1,0,0:0:0:0:
320,192,35598,1,0,0:0:0:0:
448,192,35598,1,0,0:0:0:0:
64,192,35652,1,0,0:0:0:0:
192,192,35706,1,0,0:0:0:0:
448,192,35706,1,0,0:0:0:0:
320,192,35760,1,0,0:0:0:0:
64,192,35814,1,0,0:0:0:0:
192,192,35814,1,0,0:0:0:0:
448,192,35868,1,0,0:0:0:0:
64,192,35922,1,0,0:0:0:0:
320,192,35922,1,0,0:0:0:0:
192,192,35976,1,0,0:0:0:0:
320,192,36030,1,0,0:0:0:0:
448,192,36030,1,0,0:0:0:0:
64,192,36084,1,0,0:0:0:0:
192,192,36138,1,0,0:0:0:0:
448,192,36138,1,0,0:0:0:0:
320,192,36192,1,0,0:0:0:0:
64,192,36246,1,0,0:0:0:0:
448,192,36246,1,0,0:0:0:0:
320,192,36300,1,0,0:0:0:0:
64,192,36354,1,0,0:0:0:0:
192,192,36354,1,0,0:0:0:0:
320,192,36409,1,0,0:0:0:0:
64,192,36463,1,0,0:0:0:0:
448,192,36463,1,0,0:0:0:0:
192,192,36517,1,0,0:0:0:0:
320,192,36571,1,0,0:0:0:0:
448,192,36571,1,0,0:0:0:0:
64,192,36625,1,0,0:0:0:0:
192,192,36679,1,0,0:0:0:0:
320,192,36679,1,0,0:0:0:0:
448,192,36733,1,0,0:0:0:0:
64,192,36787,1,0,0:0:0:0:
192,192,36787,1,0,0:0:0:0:
320,192,36841,1,0,0:0:0:0:
64,192,36895,1,0,0:0:0:0:
448,192,36895,1,0,0:0:0:0:
192,192,36949,1,0,0:0:0:0:
320,192,37003,1,0,0:0:0:0:
448,192,37003,1,0,0:0:0:0:
64,192,37057,1,0,0:0:0:0:
192,192,37111,1,0,0:0:0:0:
320,192,37111,1,0,0:0:0:0:
448,192,37165,1,0,0:0:0:0:
64,192,37219,1,0,0:0:0:0:
320,192,37219,1,0,0:0:0:0:
192,192,37273,1,0,0:0:0:0:
320,192,37327,1,0,0:0:0:0:
448,192,37327,1,0,0:0:0:0:
64,192,37382,1,0,0:0:0:0:
192,192,37436,1,0,0:0:0:0:
448,192,37436,1,0,0:0:0:0:
320,192,37490,1,0,0:0:0:0:
64,192,37544,1,0,0:0:0:0:
192,192,37544,1,0,0:0:0:0:
448,192,37598,1,0,0:0:0:0:
64,192,37652,1,0,0:0:0:0:
192,192,37652,1,0,0:0:0:0:
320,192,37706,1,0,0:0:0:0:
448,192,37706,1,0,0:0:0:0:
64,192,37760,1,0,0:0:0:0:
192,192,37760,1,0,0:0:0:0:
320,192,37814,1,0,0:0:0:0:
448,192,37814,1,0,0:0:0:0:
64,192,37868,1,0,0:0:0:0:
192,192,37868,1,0,0:0:0:0:
448,192,37922,1,0,0:0:0:0:
64,192,37976,1,0,0:0:0:0:
320,192,37976,1,0,0:0:0:0:
192,192,38030,1,0,0:0:0:0:
320,192,38084,1,0,0:0:0:0:
448,192,38084,1,0,0:0:0:0:
192,192,38138,1,0,0:0:0:0:
64,192,38192,1,0,0:0:0:0:
448,192,38192,1,0,0:0:0:0:
320,192,38246,1,0,0:0:0:0:
64,192,38300,1,0,0:0:0:0:
192,192,38300,1,0,0:0:0:0:
448,192,38354,1,0,0:0:0:0:
192,192,38409,1,0,0:0:0:0:
320,192,38409,1,0,0:0:0:0:
64,192,38463,1,0,0:0:0:0:
320,192,38517,1,0,0:0:0:0:
448,192,38517,1,0,0:0:0:0:
192,192,38571,1,0,0:0:0:0:
64,192,38625,1,0,0:0:0:0:
448,192,38625,1,0,0:0:0:0:
320,192,38679,1,0,0:0:0:0:
64,192,38733,1,0,0:0:0:0:
192,192,38733,1,0,0:0:0:0:
448,192,38787,1,0,0:0:0:0:
192,192,38841,1,0,0:0:0:0:
320,192,38841,1,0,0:0:0:0:
64,192,38895,1,0,0:0:0:0:
192,192,38949,1,0,0:0:0:0:
448,192,38949,1,0,0:0:0:0:
320,192,39003,1,0,0:0:0:0:
64,192,39057,1,0,0:0:0:0:
192,192,39057,1,0,0:0:0:0:
448,192,39111,1,0,0:0:0:0:
64,192,39165,1,0,0:0:0:0:
320,192,39165,1,0,0:0:0:0:
192,192,39219,1,0,0:0:0:0:
320,192,39273,1,0,0:0:0:0:
448,192,39273,1,0,0:0:0:0:
64,192,39327,1,0,0:0:0:0:
192,192,39382,1,0,0:0:0:0:
448,192,39382,1,0,0:0:0:0:
320,192,39436,1,0,0:0:0:0:
64,192,39490,1,0,0:0:0:0:
192,192,39490,1,0,0:0:0:0:
448,192,39544,1,0,0:0:0:0:
64,192,39598,1,0,0:0:0:0:
320,192,39598,1,0,0:0:0:0:
192,192,39652,1,0,0:0:0:0:
64,192,39706,1,0,0:0:0:0:
448,192,39706,1,0,0:0:0:0:
192,192,39760,1,0,0:0:0:0:
320,192,39814,1,0,0:0:0:0:
448,192,39814,1,0,0:0:0:0:
192,192,39868,1,0,0:0:0:0:
64,192,39922,1,0,0:0:0:0:
448,192,39922,1,0,0:0:0:0:
320,192,39976,1,0,0:0:0:0:
64,192,40030,1,0,0:0:0:0:
192,192,40030,1,0,0:0:0:0:
448,192,40084,1,0,0:0:0:0:
192,192,40138,1,0,0:0:0:0:
320,192,40138,1,0,0:0:0:0:
64,192,40192,1,0,0:0:0:0:
320,192,40246,1,0,0:0:0:0:
448,192,40246,1,0,0:0:0:0:
64,192,40300,1,0,0:0:0:0:
192,192,40300,1,0,0:0:0:0:
320,192,40354,1,0,0:0:0:0:
448,192,40354,1,0,0:0:0:0:
64,192,40409,1,0,0:0:0:0:
192,192,40409,1,0,0:0:0:0:
320,192,40463,1,0,0:0:0:0:
448,192,40463,1,0,0:0:0:0:
64,192,40517,1,0,0:0:0:0:
192,192,40517,1,0,0:0:0:0:
320,192,40571,1,0,0:0:0:0:
448,192,40571,1,0,0:0:0:0:
64,192,40625,1,0,0:0:0:0:
192,192,40625,1,0,0:0:0:0:
448,192,40679,1,0,0:0:0:0:
320,192,40706,1,0,0:0:0:0:
192,192,40733,1,0,0:0:0:0:
64,192,40760,1,0,0:0:0:0:
448,192,40787,1,0,0:0:0:0:
320,192,40814,1,0,0:0:0:0:
192,192,40841,1,0,0:0:0:0:
64,192,40868,1,0,0:0:0:0:
320,192,40895,1,0,0:0:0:0:
448,192,40895,1,0,0:0:0:0:
64,192,40949,1,0,0:0:0:0:
192,192,40949,1,0,0:0:0:0:
320,192,41003,1,0,0:0:0:0:
448,192,41003,1,0,0:0:0:0:
64,192,41057,1,0,0:0:0:0:
192,192,41057,1,0,0:0:0:0:
320,192,41111,1,0,0:0:0:0:
320,192,41219,1,0,0:0:0:0:
64,192,41327,1,0,0:0:0:0:
448,192,41327,128,0,41382:0:0:0:0:
448,192,41436,128,0,41490:0:0:0:0:
64,192,41544,1,0,0:0:0:0:
192,192,41544,1,0,0:0:0:0:
448,192,41544,128,0,41598:0:0:0:0:
64,192,44571,1,0,0:0:0:0:
448,192,44571,1,0,0:0:0:0:
64,192,44787,1,0,0:0:0:0:
448,192,44787,1,0,0:0:0:0:
64,192,45003,1,0,0:0:0:0:
192,192,45003,1,0,0:0:0:0:
448,192,45003,1,0,0:0:0:0:
192,192,45111,1,0,0:0:0:0:
64,192,45219,1,0,0:0:0:0:
192,192,45327,1,0,0:0:0:0:
320,192,45436,128,0,45544:0:0:0:0:
64,192,45652,1,0,0:0:0:0:
192,192,45760,1,0,0:0:0:0:
64,192,45868,1,0,0:0:0:0:
192,192,45976,1,0,0:0:0:0:
320,192,46084,128,0,46192:0:0:0:0:
64,192,46300,1,0,0:0:0:0:
192,192,46409,1,0,0:0:0:0:
64,192,46517,1,0,0:0:0:0:
320,192,46625,128,0,46733:0:0:0:0:
64,192,46733,1,0,0:0:0:0:
192,192,46841,1,0,0:0:0:0:
64,192,46949,1,0,0:0:0:0:
192,192,47057,1,0,0:0:0:0:
320,192,47165,128,0,47273:0:0:0:0:
64,192,47382,1,0,0:0:0:0:
192,192,47490,1,0,0:0:0:0:
64,192,47598,1,0,0:0:0:0:
192,192,47706,1,0,0:0:0:0:
320,192,47814,128,0,47922:0:0:0:0:
64,192,48030,1,0,0:0:0:0:
192,192,48138,1,0,0:0:0:0:
64,192,48246,1,0,0:0:0:0:
320,192,48354,128,0,48463:0:0:0:0:
64,192,48463,1,0,0:0:0:0:
192,192,48463,1,0,0:0:0:0:
192,192,48571,1,0,0:0:0:0:
64,192,48679,1,0,0:0:0:0:
192,192,48787,1,0,0:0:0:0:
320,192,48895,128,0,49003:0:0:0:0:
64,192,49111,1,0,0:0:0:0:
192,192,49219,1,0,0:0:0:0:
64,192,49327,1,0,0:0:0:0:
192,192,49436,1,0,0:0:0:0:
320,192,49544,128,0,49652:0:0:0:0:
64,192,49760,1,0,0:0:0:0:
192,192,49868,1,0,0:0:0:0:
64,192,49976,1,0,0:0:0:0:
320,192,50084,128,0,50192:0:0:0:0:
64,192,50192,1,0,0:0:0:0:
192,192,50300,1,0,0:0:0:0:
64,192,50409,1,0,0:0:0:0:
192,192,50517,1,0,0:0:0:0:
320,192,50625,128,0,50733:0:0:0:0:
64,192,50841,1,0,0:0:0:0:
192,192,50949,1,0,0:0:0:0:
64,192,51057,1,0,0:0:0:0:
192,192,51165,1,0,0:0:0:0:
320,192,51273,128,0,51382:0:0:0:0:
64,192,51490,1,0,0:0:0:0:
320,192,51490,1,0,0:0:0:0:
448,192,51490,1,0,0:0:0:0:
64,192,51706,1,0,0:0:0:0:
320,192,51706,1,0,0:0:0:0:
448,192,51706,1,0,0:0:0:0:
64,192,51922,1,0,0:0:0:0:
192,192,51922,1,0,0:0:0:0:
448,192,51922,1,0,0:0:0:0:
192,192,52030,1,0,0:0:0:0:
64,192,52138,1,0,0:0:0:0:
192,192,52246,1,0,0:0:0:0:
320,192,52354,128,0,52463:0:0:0:0:
448,192,52354,1,0,0:0:0:0:
64,192,52571,1,0,0:0:0:0:
192,192,52679,1,0,0:0:0:0:
64,192,52787,1,0,0:0:0:0:
192,192,52895,1,0,0:0:0:0:
320,192,53003,128,0,53111:0:0:0:0:
448,192,53003,1,0,0:0:0:0:
64,192,53219,1,0,0:0:0:0:
192,192,53327,1,0,0:0:0:0:
64,192,53436,1,0,0:0:0:0:
320,192,53544,128,0,53652:0:0:0:0:
64,192,53652,1,0,0:0:0:0:
192,192,53760,1,0,0:0:0:0:
64,192,53868,1,0,0:0:0:0:
192,192,53976,1,0,0:0:0:0:
320,192,54084,128,0,54192:0:0:0:0:
448,192,54084,1,0,0:0:0:0:
64,192,54300,1,0,0:0:0:0:
192,192,54409,1,0,0:0:0:0:
64,192,54517,1,0,0:0:0:0:
192,192,54625,1,0,0:0:0:0:
320,192,54733,128,0,54841:0:0:0:0:
448,192,54733,1,0,0:0:0:0:
64,192,54949,1,0,0:0:0:0:
192,192,55057,1,0,0:0:0:0:
64,192,55165,1,0,0:0:0:0:
448,192,55165,1,0,0:0:0:0:
320,192,55273,128,0,55382:0:0:0:0:
64,192,55382,1,0,0:0:0:0:
192,192,55382,1,0,0:0:0:0:
192,192,55490,1,0,0:0:0:0:
64,192,55598,1,0,0:0:0:0:
192,192,55706,1,0,0:0:0:0:
320,192,55814,128,0,55922:0:0:0:0:
448,192,55814,1,0,0:0:0:0:
64,192,56030,1,0,0:0:0:0:
192,192,56138,1,0,0:0:0:0:
448,192,56138,1,0,0:0:0:0:
64,192,56246,1,0,0:0:0:0:
192,192,56354,1,0,0:0:0:0:
320,192,56463,128,0,56571:0:0:0:0:
448,192,56463,1,0,0:0:0:0:
64,192,56679,1,0,0:0:0:0:
192,192,56787,1,0,0:0:0:0:
64,192,56895,1,0,0:0:0:0:
448,192,56895,1,0,0:0:0:0:
320,192,57003,128,0,57111:0:0:0:0:
448,192,57003,1,0,0:0:0:0:
64,192,57111,128,0,57976:0:0:0:0:
192,192,57111,1,0,0:0:0:0:
192,192,57327,1,0,0:0:0:0:
320,192,61003,1,0,0:0:0:0:
320,192,61219,1,0,0:0:0:0:
448,192,61459,128,0,61518:0:0:0:0:
192,192,61693,128,0,61752:0:0:0:0:
64,192,61927,128,0,61986:0:0:0:0:
320,192,62162,128,0,62220:0:0:0:0:
192,192,62396,1,0,0:0:0:0:
64,192,62513,1,0,0:0:0:0:
320,192,62571,1,0,0:0:0:0:
192,192,62630,1,0,0:0:0:0:
448,192,62688,1,0,0:0:0:0:
320,192,62747,1,0,0:0:0:0:
448,192,62806,1,0,0:0:0:0:
192,192,62864,128,0,62923:0:0:0:0:
64,192,63333,1,0,0:0:0:0:
192,192,63333,1,0,0:0:0:0:
320,192,63387,1,0,0:0:0:0:
192,192,63441,1,0,0:0:0:0:
448,192,63441,1,0,0:0:0:0:
64,192,63495,1,0,0:0:0:0:
320,192,63549,1,0,0:0:0:0:
448,192,63549,1,0,0:0:0:0:
192,192,63603,1,0,0:0:0:0:
64,192,63657,1,0,0:0:0:0:
320,192,63657,1,0,0:0:0:0:
448,192,63711,1,0,0:0:0:0:
64,192,63765,1,0,0:0:0:0:
192,192,63765,1,0,0:0:0:0:
320,192,63819,1,0,0:0:0:0:
192,192,63873,1,0,0:0:0:0:
448,192,63873,1,0,0:0:0:0:
64,192,63927,1,0,0:0:0:0:
320,192,63981,1,0,0:0:0:0:
448,192,63981,1,0,0:0:0:0:
192,192,64035,1,0,0:0:0:0:
64,192,64089,1,0,0:0:0:0:
320,192,64089,1,0,0:0:0:0:
448,192,64143,1,0,0:0:0:0:
64,192,64197,1,0,0:0:0:0:
192,192,64197,1,0,0:0:0:0:
320,192,64251,1,0,0:0:0:0:
192,192,64305,1,0,0:0:0:0:
448,192,64305,1,0,0:0:0:0:
64,192,64360,1,0,0:0:0:0:
320,192,64414,1,0,0:0:0:0:
448,192,64414,1,0,0:0:0:0:
192,192,64468,1,0,0:0:0:0:
64,192,64522,1,0,0:0:0:0:
320,192,64522,1,0,0:0:0:0:
448,192,64576,1,0,0:0:0:0:
64,192,64630,1,0,0:0:0:0:
192,192,64630,1,0,0:0:0:0:
320,192,64684,1,0,0:0:0:0:
192,192,64738,1,0,0:0:0:0:
448,192,64738,1,0,0:0:0:0:
64,192,64792,1,0,0:0:0:0:
320,192,64846,1,0,0:0:0:0:
448,192,64846,1,0,0:0:0:0:
192,192,64900,1,0,0:0:0:0:
64,192,64954,1,0,0:0:0:0:
320,192,64954,1,0,0:0:0:0:
448,192,65008,1,0,0:0:0:0:
64,192,65062,1,0,0:0:0:0:
192,192,65062,1,0,0:0:0:0:
320,192,65116,1,0,0:0:0:0:
192,192,65170,1,0,0:0:0:0:
448,192,65170,1,0,0:0:0:0:
64,192,65224,1,0,0:0:0:0:
320,192,65278,1,0,0:0:0:0:
448,192,65278,1,0,0:0:0:0:
192,192,65333,1,0,0:0:0:0:
64,192,65387,1,0,0:0:0:0:
320,192,65387,1,0,0:0:0:0:
448,192,65441,1,0,0:0:0:0:
64,192,65495,1,0,0:0:0:0:
192,192,65495,1,0,0:0:0:0:
320,192,65549,1,0,0:0:0:0:
192,192,65603,1,0,0:0:0:0:
448,192,65603,1,0,0:0:0:0:
64,192,65657,1,0,0:0:0:0:
320,192,65711,1,0,0:0:0:0:
448,192,65711,1,0,0:0:0:0:
192,192,65765,1,0,0:0:0:0:
64,192,65819,1,0,0:0:0:0:
320,192,65819,1,0,0:0:0:0:
448,192,65873,1,0,0:0:0:0:
64,192,65927,1,0,0:0:0:0:
192,192,65927,1,0,0:0:0:0:
320,192,65981,1,0,0:0:0:0:
448,192,65981,1,0,0:0:0:0:
64,192,66035,1,0,0:0:0:0:
192,192,66035,1,0,0:0:0:0:
320,192,66089,1,0,0:0:0:0:
448,192,66089,1,0,0:0:0:0:
64,192,66143,1,0,0:0:0:0:
192,192,66143,1,0,0:0:0:0:
320,192,66197,1,0,0:0:0:0:
448,192,66197,1,0,0:0:0:0:
64,192,66251,1,0,0:0:0:0:
192,192,66251,1,0,0:0:0:0:
320,192,66305,1,0,0:0:0:0:
448,192,66305,1,0,0:0:0:0:
64,192,66360,1,0,0:0:0:0:
192,192,66387,1,0,0:0:0:0:
320,192,66414,1,0,0:0:0:0:
448,192,66441,1,0,0:0:0:0:
64,192,66468,1,0,0:0:0:0:
192,192,66495,1,0,0:0:0:0:
320,192,66522,1,0,0:0:0:0:
448,192,66549,1,0,0:0:0:0:
64,192,66576,1,0,0:0:0:0:
192,192,66576,1,0,0:0:0:0:
320,192,66630,1,0,0:0:0:0:
448,192,66630,1,0,0:0:0:0:
64,192,66684,1,0,0:0:0:0:
192,192,66684,1,0,0:0:0:0:
320,192,66738,1,0,0:0:0:0:
448,192,66738,1,0,0:0:0:0:
64,192,66792,1,0,0:0:0:0:
192,192,66792,1,0,0:0:0:0:
320,192,66846,1,0,0:0:0:0:
192,192,66900,1,0,0:0:0:0:
448,192,66900,1,0,0:0:0:0:
64,192,66954,1,0,0:0:0:0:
320,192,67008,1,0,0:0:0:0:
448,192,67008,1,0,0:0:0:0:
192,192,67062,1,0,0:0:0:0:
64,192,67116,1,0,0:0:0:0:
320,192,67116,1,0,0:0:0:0:
448,192,67170,1,0,0:0:0:0:
64,192,67224,1,0,0:0:0:0:
192,192,67224,1,0,0:0:0:0:
320,192,67278,1,0,0:0:0:0:
192,192,67333,1,0,0:0:0:0:
448,192,67333,1,0,0:0:0:0:
64,192,67387,1,0,0:0:0:0:
192,192,67441,1,0,0:0:0:0:
448,192,67441,1,0,0:0:0:0:
320,192,67495,1,0,0:0:0:0:
64,192,67549,1,0,0:0:0:0:
192,192,67549,1,0,0:0:0:0:
320,192,67603,1,0,0:0:0:0:
448,192,67603,1,0,0:0:0:0:
64,192,67657,1,0,0:0:0:0:
192,192,67657,1,0,0:0:0:0:
320,192,67711,1,0,0:0:0:0:
192,192,67765,1,0,0:0:0:0:
448,192,67765,1,0,0:0:0:0:
64,192,67819,1,0,0:0:0:0:
320,192,67873,1,0,0:0:0:0:
448,192,67873,1,0,0:0:0:0:
192,192,67927,1,0,0:0:0:0:
64,192,67981,1,0,0:0:0:0:
320,192,67981,1,0,0:0:0:0:
448,192,68035,1,0,0:0:0:0:
64,192,68089,1,0,0:0:0:0:
192,192,68089,1,0,0:0:0:0:
320,192,68143,1,0,0:0:0:0:
448,192,68143,1,0,0:0:0:0:
64,192,68197,1,0,0:0:0:0:
192,192,68197,1,0,0:0:0:0:
320,192,68251,1,0,0:0:0:0:
448,192,68251,1,0,0:0:0:0:
64,192,68305,1,0,0:0:0:0:
192,192,68305,1,0,0:0:0:0:
320,192,68360,1,0,0:0:0:0:
448,192,68360,1,0,0:0:0:0:
64,192,68414,1,0,0:0:0:0:
192,192,68414,1,0,0:0:0:0:
320,192,68468,1,0,0:0:0:0:
448,192,68468,1,0,0:0:0:0:
64,192,68522,1,0,0:0:0:0:
192,192,68522,1,0,0:0:0:0:
320,192,68576,1,0,0:0:0:0:
192,192,68630,1,0,0:0:0:0:
448,192,68630,1,0,0:0:0:0:
64,192,68684,1,0,0:0:0:0:
320,192,68738,1,0,0:0:0:0:
448,192,68738,1,0,0:0:0:0:
192,192,68792,1,0,0:0:0:0:
64,192,68846,1,0,0:0:0:0:
320,192,68846,1,0,0:0:0:0:
448,192,68900,1,0,0:0:0:0:
64,192,68954,1,0,0:0:0:0:
192,192,68954,1,0,0:0:0:0:
320,192,69008,1,0,0:0:0:0:
192,192,69062,1,0,0:0:0:0:
448,192,69062,1,0,0:0:0:0:
64,192,69116,1,0,0:0:0:0:
320,192,69170,1,0,0:0:0:0:
448,192,69170,1,0,0:0:0:0:
192,192,69224,1,0,0:0:0:0:
64,192,69278,1,0,0:0:0:0:
320,192,69278,1,0,0:0:0:0:
192,192,69333,1,0,0:0:0:0:
448,192,69333,1,0,0:0:0:0:
64,192,69387,1,0,0:0:0:0:
320,192,69387,1,0,0:0:0:0:
192,192,69495,1,0,0:0:0:0:
64,192,69603,1,0,0:0:0:0:
192,192,69711,1,0,0:0:0:0:
320,192,69819,128,0,70251:0:0:0:0:
448,192,69819,1,0,0:0:0:0:
448,192,70251,1,0,0:0:0:0:
192,192,70305,1,0,0:0:0:0:
320,192,70360,1,0,0:0:0:0:
64,192,70414,1,0,0:0:0:0:
192,192,70468,1,0,0:0:0:0:
64,192,70522,1,0,0:0:0:0:
320,192,70576,1,0,0:0:0:0:
192,192,70630,1,0,0:0:0:0:
448,192,70684,1,0,0:0:0:0:
192,192,70738,1,0,0:0:0:0:
320,192,70792,1,0,0:0:0:0:
64,192,70846,1,0,0:0:0:0:
192,192,70900,1,0,0:0:0:0:
64,192,70954,1,0,0:0:0:0:
320,192,71008,1,0,0:0:0:0:
192,192,71062,1,0,0:0:0:0:
448,192,71116,1,0,0:0:0:0:
192,192,71170,1,0,0:0:0:0:
320,192,71224,1,0,0:0:0:0:
64,192,71278,1,0,0:0:0:0:
192,192,71333,1,0,0:0:0:0:
64,192,71387,1,0,0:0:0:0:
320,192,71441,1,0,0:0:0:0:
192,192,71495,1,0,0:0:0:0:
448,192,71549,1,0,0:0:0:0:
192,192,71603,1,0,0:0:0:0:
320,192,71657,1,0,0:0:0:0:
64,192,71711,1,0,0:0:0:0:
192,192,71765,1,0,0:0:0:0:
64,192,71819,1,0,0:0:0:0:
320,192,71873,1,0,0:0:0:0:
192,192,71927,1,0,0:0:0:0:
448,192,71981,1,0,0:0:0:0:
192,192,72035,1,0,0:0:0:0:
320,192,72089,1,0,0:0:0:0:
64,192,72143,1,0,0:0:0:0:
192,192,72197,1,0,0:0:0:0:
64,192,72251,1,0,0:0:0:0:
320,192,72305,1,0,0:0:0:0:
192,192,72360,1,0,0:0:0:0:
448,192,72414,1,0,0:0:0:0:
192,192,72468,1,0,0:0:0:0:
320,192,72522,1,0,0:0:0:0:
64,192,72576,1,0,0:0:0:0:
192,192,72630,1,0,0:0:0:0:
64,192,72684,1,0,0:0:0:0:
320,192,72738,1,0,0:0:0:0:
192,192,72792,1,0,0:0:0:0:
448,192,72846,1,0,0:0:0:0:
64,192,72900,1,0,0:0:0:0:
448,192,72954,1,0,0:0:0:0:
64,192,73008,1,0,0:0:0:0:
448,192,73062,1,0,0:0:0:0:
64,192,73116,1,0,0:0:0:0:
448,192,73170,1,0,0:0:0:0:
64,192,73224,1,0,0:0:0:0:
448,192,73278,1,0,0:0:0:0:
320,192,73305,1,0,0:0:0:0:
192,192,73333,1,0,0:0:0:0:
64,192,73360,1,0,0:0:0:0:
448,192,73387,1,0,0:0:0:0:
320,192,73414,1,0,0:0:0:0:
192,192,73441,1,0,0:0:0:0:
64,192,73468,1,0,0:0:0:0:
448,192,73495,1,0,0:0:0:0:
320,192,73522,1,0,0:0:0:0:
192,192,73549,1,0,0:0:0:0:
64,192,73576,1,0,0:0:0:0:
448,192,73603,1,0,0:0:0:0:
320,192,73630,1,0,0:0:0:0:
192,192,73657,1,0,0:0:0:0:
64,192,73684,1,0,0:0:0:0:
448,192,73711,1,0,0:0:0:0:
320,192,73765,1,0,0:0:0:0:
64,192,73819,1,0,0:0:0:0:
192,192,73873,1,0,0:0:0:0:
320,192,73927,1,0,0:0:0:0:
192,192,73981,1,0,0:0:0:0:
64,192,74035,1,0,0:0:0:0:
320,192,74089,1,0,0:0:0:0:
448,192,74143,1,0,0:0:0:0:
320,192,74197,1,0,0:0:0:0:
64,192,74251,1,0,0:0:0:0:
192,192,74305,1,0,0:0:0:0:
320,192,74360,1,0,0:0:0:0:
192,192,74414,1,0,0:0:0:0:
64,192,74468,1,0,0:0:0:0:
320,192,74522,1,0,0:0:0:0:
448,192,74576,1,0,0:0:0:0:
320,192,74630,1,0,0:0:0:0:
64,192,74684,1,0,0:0:0:0:
192,192,74738,1,0,0:0:0:0:
320,192,74792,1,0,0:0:0:0:
192,192,74846,1,0,0:0:0:0:
64,192,74900,1,0,0:0:0:0:
320,192,74954,1,0,0:0:0:0:
448,192,75008,1,0,0:0:0:0:
64,192,75062,1,0,0:0:0:0:
448,192,75116,1,0,0:0:0:0:
64,192,75170,1,0,0:0:0:0:
448,192,75224,1,0,0:0:0:0:
64,192,75278,1,0,0:0:0:0:
448,192,75333,1,0,0:0:0:0:
64,192,75387,1,0,0:0:0:0:
448,192,75441,1,0,0:0:0:0:
320,192,75495,1,0,0:0:0:0:
64,192,75549,1,0,0:0:0:0:
192,192,75603,1,0,0:0:0:0:
320,192,75657,1,0,0:0:0:0:
192,192,75711,1,0,0:0:0:0:
64,192,75765,1,0,0:0:0:0:
320,192,75819,1,0,0:0:0:0:
448,192,75873,1,0,0:0:0:0:
320,192,75927,1,0,0:0:0:0:
64,192,75981,1,0,0:0:0:0:
192,192,76035,1,0,0:0:0:0:
320,192,76089,1,0,0:0:0:0:
192,192,76143,1,0,0:0:0:0:
64,192,76197,1,0,0:0:0:0:
320,192,76251,1,0,0:0:0:0:
64,192,76305,1,0,0:0:0:0:
192,192,76305,1,0,0:0:0:0:
64,192,76414,1,0,0:0:0:0:
320,192,76414,128,0,76522:0:0:0:0:
448,192,76630,128,0,76738:0:0:0:0:
448,192,76846,128,0,76900:0:0:0:0:
448,192,76954,128,0,77008:0:0:0:0:
448,192,77062,128,0,77116:0:0:0:0:
320,192,77170,1,0,0:0:0:0:
448,192,77170,1,0,0:0:0:0:
192,192,77224,1,0,0:0:0:0:
64,192,77278,1,0,0:0:0:0:
320,192,77278,1,0,0:0:0:0:
448,192,77333,1,0,0:0:0:0:
64,192,77387,1,0,0:0:0:0:
192,192,77387,1,0,0:0:0:0:
320,192,77441,1,0,0:0:0:0:
192,192,77495,1,0,0:0:0:0:
448,192,77495,1,0,0:0:0:0:
64,192,77549,1,0,0:0:0:0:
320,192,77603,1,0,0:0:0:0:
448,192,77603,1,0,0:0:0:0:
192,192,77657,1,0,0:0:0:0:
64,192,77711,1,0,0:0:0:0:
320,192,77711,1,0,0:0:0:0:
448,192,77765,1,0,0:0:0:0:
64,192,77819,1,0,0:0:0:0:
192,192,77819,1,0,0:0:0:0:
320,192,77873,1,0,0:0:0:0:
192,192,77927,1,0,0:0:0:0:
448,192,77927,1,0,0:0:0:0:
64,192,77981,1,0,0:0:0:0:
320,192,78035,1,0,0:0:0:0:
448,192,78035,1,0,0:0:0:0:
192,192,78089,1,0,0:0:0:0:
64,192,78143,1,0,0:0:0:0:
320,192,78143,1,0,0:0:0:0:
448,192,78197,1,0,0:0:0:0:
64,192,78251,1,0,0:0:0:0:
192,192,78251,1,0,0:0:0:0:
320,192,78305,1,0,0:0:0:0:
192,192,78360,1,0,0:0:0:0:
448,192,78360,1,0,0:0:0:0:
64,192,78414,1,0,0:0:0:0:
320,192,78468,1,0,0:0:0:0:
448,192,78468,1,0,0:0:0:0:
192,192,78522,1,0,0:0:0:0:
64,192,78576,1,0,0:0:0:0:
320,192,78576,1,0,0:0:0:0:
448,192,78630,1,0,0:0:0:0:
64,192,78684,1,0,0:0:0:0:
192,192,78684,1,0,0:0:0:0:
320,192,78738,1,0,0:0:0:0:
192,192,78792,1,0,0:0:0:0:
448,192,78792,1,0,0:0:0:0:
64,192,78846,1,0,0:0:0:0:
320,192,78900,1,0,0:0:0:0:
448,192,78900,1,0,0:0:0:0:
192,192,78954,1,0,0:0:0:0:
64,192,79008,1,0,0:0:0:0:
320,192,79008,1,0,0:0:0:0:
448,192,79062,1,0,0:0:0:0:
64,192,79116,1,0,0:0:0:0:
192,192,79116,1,0,0:0:0:0:
320,192,79170,1,0,0:0:0:0:
192,192,79224,1,0,0:0:0:0:
448,192,79224,1,0,0:0:0:0:
64,192,79278,1,0,0:0:0:0:
320,192,79333,1,0,0:0:0:0:
448,192,79333,1,0,0:0:0:0:
192,192,79387,1,0,0:0:0:0:
64,192,79441,1,0,0:0:0:0:
320,192,79441,1,0,0:0:0:0:
448,192,79495,1,0,0:0:0:0:
64,192,79549,1,0,0:0:0:0:
192,192,79549,1,0,0:0:0:0:
320,192,79603,1,0,0:0:0:0:
192,192,79657,1,0,0:0:0:0:
448,192,79657,1,0,0:0:0:0:
64,192,79711,1,0,0:0:0:0:
192,192,79765,1,0,0:0:0:0:
448,192,79765,1,0,0:0:0:0:
192,192,79873,1,0,0:0:0:0:
448,192,79873,1,0,0:0:0:0:
192,192,79981,1,0,0:0:0:0:
448,192,79981,1,0,0:0:0:0:
192,192,80089,1,0,0:0:0:0:
448,192,80089,1,0,0:0:0:0:
192,192,80197,1,0,0:0:0:0:
448,192,80197,1,0,0:0:0:0:
64,192,80305,1,0,0:0:0:0:
192,192,80414,1,0,0:0:0:0:
448,192,80414,1,0,0:0:0:0:
64,192,80522,1,0,0:0:0:0:
320,192,80630,1,0,0:0:0:0:
448,192,80630,1,0,0:0:0:0:
192,192,80684,1,0,0:0:0:0:
64,192,80738,1,0,0:0:0:0:
320,192,80738,1,0,0:0:0:0:
448,192,80792,1,0,0:0:0:0:
64,192,80846,1,0,0:0:0:0:
192,192,80846,1,0,0:0:0:0:
320,192,80900,1,0,0:0:0:0:
192,192,80954,1,0,0:0:0:0:
448,192,80954,1,0,0:0:0:0:
64,192,81008,1,0,0:0:0:0:
320,192,81062,1,0,0:0:0:0:
448,192,81062,1,0,0:0:0:0:
192,192,81116,1,0,0:0:0:0:
64,192,81170,1,0,0:0:0:0:
320,192,81170,1,0,0:0:0:0:
448,192,81224,1,0,0:0:0:0:
64,192,81278,1,0,0:0:0:0:
192,192,81278,1,0,0:0:0:0:
320,192,81333,1,0,0:0:0:0:
192,192,81387,1,0,0:0:0:0:
448,192,81387,1,0,0:0:0:0:
64,192,81441,1,0,0:0:0:0:
320,192,81495,1,0,0:0:0:0:
448,192,81495,1,0,0:0:0:0:
192,192,81549,1,0,0:0:0:0:
64,192,81603,1,0,0:0:0:0:
320,192,81603,1,0,0:0:0:0:
448,192,81657,1,0,0:0:0:0:
64,192,81711,1,0,0:0:0:0:
192,192,81711,1,0,0:0:0:0:
320,192,81765,1,0,0:0:0:0:
192,192,81819,1,0,0:0:0:0:
448,192,81819,1,0,0:0:0:0:
64,192,81873,1,0,0:0:0:0:
320,192,81927,1,0,0:0:0:0:
448,192,81927,1,0,0:0:0:0:
192,192,81981,1,0,0:0:0:0:
64,192,82035,1,0,0:0:0:0:
320,192,82035,1,0,0:0:0:0:
448,192,82089,1,0,0:0:0:0:
64,192,82143,1,0,0:0:0:0:
192,192,82143,1,0,0:0:0:0:
320,192,82197,1,0,0:0:0:0:
192,192,82251,1,0,0:0:0:0:
448,192,82251,1,0,0:0:0:0:
64,192,82305,1,0,0:0:0:0:
320,192,82360,1,0,0:0:0:0:
448,192,82360,1,0,0:0:0:0:
192,192,82414,1,0,0:0:0:0:
64,192,82468,1,0,0:0:0:0:
320,192,82468,1,0,0:0:0:0:
448,192,82522,1,0,0:0:0:0:
64,192,82576,1,0,0:0:0:0:
192,192,82576,1,0,0:0:0:0:
320,192,82630,1,0,0:0:0:0:
192,192,82684,1,0,0:0:0:0:
448,192,82684,1,0,0:0:0:0:
64,192,82738,1,0,0:0:0:0:
320,192,82792,1,0,0:0:0:0:
448,192,82792,1,0,0:0:0:0:
192,192,82846,1,0,0:0:0:0:
64,192,82900,1,0,0:0:0:0:
320,192,82900,1,0,0:0:0:0:
448,192,82954,1,0,0:0:0:0:
64,192,83008,1,0,0:0:0:0:
192,192,83008,1,0,0:0:0:0:
448,192,83062,1,0,0:0:0:0:
64,192,83116,1,0,0:0:0:0:
320,192,83116,1,0,0:0:0:0:
192,192,83170,1,0,0:0:0:0:
448,192,83170,1,0,0:0:0:0:
64,192,83224,1,0,0:0:0:0:
320,192,83224,1,0,0:0:0:0:
64,192,83333,1,0,0:0:0:0:
320,192,83333,1,0,0:0:0:0:
64,192,83441,1,0,0:0:0:0:
320,192,83441,1,0,0:0:0:0:
64,192,83549,1,0,0:0:0:0:
320,192,83549,1,0,0:0:0:0:
64,192,83657,1,0,0:0:0:0:
192,192,83657,1,0,0:0:0:0:
64,192,83765,1,0,0:0:0:0:
192,192,83873,1,0,0:0:0:0:
448,192,83873,128,0,84089:0:0:0:0:
192,192,83981,1,0,0:0:0:0:
64,192,84089,1,0,0:0:0:0:
320,192,84089,1,0,0:0:0:0:
192,192,84143,1,0,0:0:0:0:
320,192,84197,1,0,0:0:0:0:
448,192,84197,1,0,0:0:0:0:
64,192,84251,1,0,0:0:0:0:
192,192,84305,1,0,0:0:0:0:
448,192,84305,1,0,0:0:0:0:
320,192,84360,1,0,0:0:0:0:
64,192,84414,1,0,0:0:0:0:
192,192,84414,1,0,0:0:0:0:
448,192,84468,1,0,0:0:0:0:
64,192,84522,1,0,0:0:0:0:
320,192,84522,1,0,0:0:0:0:
192,192,84576,1,0,0:0:0:0:
320,192,84630,1,0,0:0:0:0:
448,192,84630,1,0,0:0:0:0:
64,192,84684,1,0,0:0:0:0:
192,192,84738,1,0,0:0:0:0:
448,192,84738,1,0,0:0:0:0:
320,192,84792,1,0,0:0:0:0:
64,192,84846,1,0,0:0:0:0:
192,192,84846,1,0,0:0:0:0:
320,192,84900,1,0,0:0:0:0:
448,192,84900,1,0,0:0:0:0:
64,192,84954,1,0,0:0:0:0:
192,192,84954,1,0,0:0:0:0:
320,192,85008,1,0,0:0:0:0:
192,192,85062,1,0,0:0:0:0:
448,192,85062,1,0,0:0:0:0:
64,192,85116,1,0,0:0:0:0:
320,192,85170,1,0,0:0:0:0:
448,192,85170,1,0,0:0:0:0:
192,192,85224,1,0,0:0:0:0:
64,192,85278,1,0,0:0:0:0:
320,192,85278,1,0,0:0:0:0:
448,192,85333,1,0,0:0:0:0:
64,192,85387,1,0,0:0:0:0:
192,192,85387,1,0,0:0:0:0:
320,192,85441,1,0,0:0:0:0:
448,192,85441,1,0,0:0:0:0:
64,192,85495,1,0,0:0:0:0:
192,192,85495,1,0,0:0:0:0:
320,192,85549,1,0,0:0:0:0:
448,192,85549,1,0,0:0:0:0:
64,192,85603,1,0,0:0:0:0:
192,192,85603,1,0,0:0:0:0:
320,192,85657,1,0,0:0:0:0:
448,192,85657,1,0,0:0:0:0:
64,192,85711,1,0,0:0:0:0:
192,192,85711,1,0,0:0:0:0:
320,192,85765,1,0,0:0:0:0:
448,192,85765,1,0,0:0:0:0:
64,192,85819,1,0,0:0:0:0:
192,192,85819,1,0,0:0:0:0:
448,192,85873,1,0,0:0:0:0:
192,192,85927,1,0,0:0:0:0:
320,192,85927,1,0,0:0:0:0:
64,192,85981,1,0,0:0:0:0:
320,192,86035,1,0,0:0:0:0:
448,192,86035,1,0,0:0:0:0:
192,192,86089,1,0,0:0:0:0:
64,192,86143,1,0,0:0:0:0:
448,192,86143,1,0,0:0:0:0:
192,192,86197,1,0,0:0:0:0:
320,192,86197,1,0,0:0:0:0:
64,192,86251,1,0,0:0:0:0:
448,192,86251,1,0,0:0:0:0:
192,192,86305,1,0,0:0:0:0:
320,192,86360,1,0,0:0:0:0:
448,192,86360,1,0,0:0:0:0:
64,192,86414,1,0,0:0:0:0:
192,192,86468,1,0,0:0:0:0:
448,192,86468,1,0,0:0:0:0:
320,192,86522,1,0,0:0:0:0:
64,192,86576,1,0,0:0:0:0:
192,192,86576,1,0,0:0:0:0:
320,192,86630,1,0,0:0:0:0:
448,192,86630,1,0,0:0:0:0:
64,192,86684,1,0,0:0:0:0:
192,192,86684,1,0,0:0:0:0:
448,192,86738,1,0,0:0:0:0:
192,192,86792,1,0,0:0:0:0:
320,192,86792,1,0,0:0:0:0:
64,192,86846,1,0,0:0:0:0:
320,192,86900,1,0,0:0:0:0:
448,192,86900,1,0,0:0:0:0:
192,192,86954,1,0,0:0:0:0:
320,192,87008,1,0,0:0:0:0:
448,192,87008,1,0,0:0:0:0:
64,192,87062,1,0,0:0:0:0:
192,192,87062,1,0,0:0:0:0:
448,192,87116,1,0,0:0:0:0:
320,192,87143,1,0,0:0:0:0:
192,192,87170,1,0,0:0:0:0:
64,192,87197,1,0,0:0:0:0:
448,192,87224,1,0,0:0:0:0:
320,192,87251,1,0,0:0:0:0:
192,192,87278,1,0,0:0:0:0:
64,192,87305,1,0,0:0:0:0:
448,192,87333,1,0,0:0:0:0:
320,192,87360,1,0,0:0:0:0:
192,192,87387,1,0,0:0:0:0:
64,192,87414,1,0,0:0:0:0:
448,192,87441,1,0,0:0:0:0:
320,192,87468,1,0,0:0:0:0:
192,192,87495,1,0,0:0:0:0:
64,192,87522,1,0,0:0:0:0:
320,192,87549,1,0,0:0:0:0:
448,192,87549,1,0,0:0:0:0:
192,192,87603,1,0,0:0:0:0:
64,192,87657,1,0,0:0:0:0:
448,192,87657,1,0,0:0:0:0:
320,192,87711,1,0,0:0:0:0:
64,192,87765,1,0,0:0:0:0:
192,192,87765,1,0,0:0:0:0:
448,192,87819,1,0,0:0:0:0:
64,192,87873,1,0,0:0:0:0:
320,192,87873,1,0,0:0:0:0:
192,192,87927,1,0,0:0:0:0:
448,192,87927,1,0,0:0:0:0:
64,192,87981,1,0,0:0:0:0:
320,192,87981,1,0,0:0:0:0:
192,192,88035,1,0,0:0:0:0:
320,192,88089,1,0,0:0:0:0:
448,192,88089,1,0,0:0:0:0:
64,192,88143,1,0,0:0:0:0:
192,192,88197,1,0,0:0:0:0:
448,192,88197,1,0,0:0:0:0:
320,192,88251,1,0,0:0:0:0:
64,192,88305,1,0,0:0:0:0:
192,192,88333,1,0,0:0:0:0:
320,192,88360,1,0,0:0:0:0:
448,192,88387,1,0,0:0:0:0:
64,192,88414,1,0,0:0:0:0:
192,192,88414,1,0,0:0:0:0:
320,192,88468,1,0,0:0:0:0:
192,192,88522,1,0,0:0:0:0:
448,192,88522,1,0,0:0:0:0:
64,192,88576,1,0,0:0:0:0:
320,192,88630,1,0,0:0:0:0:
448,192,88630,1,0,0:0:0:0:
192,192,88684,1,0,0:0:0:0:
64,192,88738,1,0,0:0:0:0:
320,192,88738,1,0,0:0:0:0:
448,192,88792,1,0,0:0:0:0:
64,192,88846,1,0,0:0:0:0:
192,192,88873,1,0,0:0:0:0:
320,192,88900,1,0,0:0:0:0:
448,192,88927,1,0,0:0:0:0:
64,192,88954,1,0,0:0:0:0:
192,192,88981,1,0,0:0:0:0:
320,192,89008,1,0,0:0:0:0:
448,192,89035,1,0,0:0:0:0:
64,192,89062,1,0,0:0:0:0:
192,192,89062,1,0,0:0:0:0:
320,192,89116,1,0,0:0:0:0:
448,192,89116,1,0,0:0:0:0:
64,192,89170,1,0,0:0:0:0:
192,192,89170,1,0,0:0:0:0:
320,192,89224,1,0,0:0:0:0:
448,192,89224,1,0,0:0:0:0:
64,192,89278,1,0,0:0:0:0:
192,192,89278,1,0,0:0:0:0:
320,192,89333,1,0,0:0:0:0:
192,192,89387,1,0,0:0:0:0:
448,192,89387,1,0,0:0:0:0:
64,192,89441,1,0,0:0:0:0:
192,192,89495,1,0,0:0:0:0:
448,192,89495,1,0,0:0:0:0:
320,192,89549,1,0,0:0:0:0:
64,192,89603,1,0,0:0:0:0:
192,192,89603,1,0,0:0:0:0:
320,192,89657,1,0,0:0:0:0:
448,192,89657,1,0,0:0:0:0:
64,192,89711,1,0,0:0:0:0:
192,192,89711,1,0,0:0:0:0:
320,192,89765,1,0,0:0:0:0:
448,192,89765,1,0,0:0:0:0:
64,192,89819,1,0,0:0:0:0:
192,192,89819,1,0,0:0:0:0:
320,192,89873,1,0,0:0:0:0:
448,192,89873,1,0,0:0:0:0:
64,192,89927,1,0,0:0:0:0:
192,192,89954,1,0,0:0:0:0:
320,192,89981,1,0,0:0:0:0:
448,192,90008,1,0,0:0:0:0:
64,192,90035,1,0,0:0:0:0:
192,192,90062,1,0,0:0:0:0:
320,192,90089,1,0,0:0:0:0:
448,192,90116,1,0,0:0:0:0:
64,192,90143,1,0,0:0:0:0:
192,192,90143,1,0,0:0:0:0:
64,192,90251,1,0,0:0:0:0:
320,192,90360,1,0,0:0:0:0:
64,192,90468,1,0,0:0:0:0:
320,192,90576,1,0,0:0:0:0:
448,192,90576,128,0,92738:0:0:0:0:
320,192,92305,1,0,0:0:0:0:
320,192,92522,1,0,0:0:0:0:
64,192,92738,1,0,0:0:0:0:
192,192,92738,128,0,92792:0:0:0:0:
320,192,99657,5,0,0:0:0:0:
320,192,100089,1,0,0:0:0:0:
64,192,100522,128,0,100954:0:0:0:0:
192,192,100954,1,0,0:0:0:0:
320,192,100954,128,0,101062:0:0:0:0:
64,192,101062,1,0,0:0:0:0:
192,192,101170,1,0,0:0:0:0:
448,192,101170,128,0,101278:0:0:0:0:
64,192,101278,1,0,0:0:0:0:
192,192,101387,1,0,0:0:0:0:
448,192,101387,128,0,101495:0:0:0:0:
64,192,101495,1,0,0:0:0:0:
192,192,101603,1,0,0:0:0:0:
320,192,101603,128,0,101711:0:0:0:0:
64,192,101711,1,0,0:0:0:0:
192,192,101819,128,0,101927:0:0:0:0:
448,192,101819,1,0,0:0:0:0:
64,192,102035,128,0,102143:0:0:0:0:
320,192,102035,1,0,0:0:0:0:
192,192,102143,1,0,0:0:0:0:
320,192,102251,1,0,0:0:0:0:
448,192,102251,128,0,102360:0:0:0:0:
192,192,102360,1,0,0:0:0:0:
64,192,102468,128,0,102576:0:0:0:0:
448,192,102468,1,0,0:0:0:0:
192,192,102684,128,0,102792:0:0:0:0:
320,192,102684,1,0,0:0:0:0:
448,192,102792,1,0,0:0:0:0:
192,192,102900,1,0,0:0:0:0:
320,192,102900,128,0,103008:0:0:0:0:
64,192,103008,1,0,0:0:0:0:
192,192,103116,1,0,0:0:0:0:
320,192,103116,128,0,103224:0:0:0:0:
448,192,103224,1,0,0:0:0:0:
192,192,103333,1,0,0:0:0:0:
320,192,103333,128,0,103441:0:0:0:0:
448,192,103441,1,0,0:0:0:0:
64,192,103549,128,0,103657:0:0:0:0:
320,192,103549,1,0,0:0:0:0:
192,192,103765,128,0,103873:0:0:0:0:
320,192,103765,1,0,0:0:0:0:
64,192,103873,1,0,0:0:0:0:
320,192,103981,1,0,0:0:0:0:
448,192,103981,128,0,104846:0:0:0:0:
64,192,104089,1,0,0:0:0:0:
192,192,104197,1,0,0:0:0:0:
320,192,104414,1,0,0:0:0:0:
64,192,104522,1,0,0:0:0:0:
320,192,104630,1,0,0:0:0:0:
192,192,104738,1,0,0:0:0:0:
64,192,104846,1,0,0:0:0:0:
320,192,104846,128,0,104954:0:0:0:0:
192,192,104954,1,0,0:0:0:0:
64,192,105062,128,0,105170:0:0:0:0:
320,192,105062,1,0,0:0:0:0:
448,192,105170,1,0,0:0:0:0:
192,192,105278,128,0,105387:0:0:0:0:
320,192,105278,1,0,0:0:0:0:
64,192,105495,1,0,0:0:0:0:
448,192,105495,128,0,105603:0:0:0:0:
192,192,105603,1,0,0:0:0:0:
64,192,105711,1,0,0:0:0:0:
320,192,105711,128,0,106360:0:0:0:0:
192,192,105819,1,0,0:0:0:0:
448,192,105927,1,0,0:0:0:0:
64,192,106143,1,0,0:0:0:0:
192,192,106251,1,0,0:0:0:0:
64,192,106360,1,0,0:0:0:0:
448,192,106360,128,0,106468:0:0:0:0:
320,192,106468,1,0,0:0:0:0:
64,192,106576,1,0,0:0:0:0:
448,192,106576,128,0,106684:0:0:0:0:
192,192,106684,1,0,0:0:0:0:
64,192,106792,1,0,0:0:0:0:
320,192,106792,128,0,106900:0:0:0:0:
448,192,106900,1,0,0:0:0:0:
192,192,107008,128,0,107116:0:0:0:0:
320,192,107008,1,0,0:0:0:0:
64,192,107224,128,0,107333:0:0:0:0:
448,192,107224,1,0,0:0:0:0:
320,192,107333,1,0,0:0:0:0:
192,192,107441,128,0,108305:0:0:0:0:
448,192,107441,1,0,0:0:0:0:
320,192,107549,1,0,0:0:0:0:
64,192,107657,1,0,0:0:0:0:
448,192,107873,1,0,0:0:0:0:
320,192,107981,1,0,0:0:0:0:
448,192,108089,1,0,0:0:0:0:
64,192,108197,1,0,0:0:0:0:
320,192,108305,128,0,108414:0:0:0:0:
448,192,108305,1,0,0:0:0:0:
64,192,108414,1,0,0:0:0:0:
192,192,108522,128,0,108630:0:0:0:0:
448,192,108522,1,0,0:0:0:0:
320,192,108630,1,0,0:0:0:0:
64,192,108738,128,0,108846:0:0:0:0:
192,192,108738,1,0,0:0:0:0:
448,192,108738,1,0,0:0:0:0:
64,192,108954,1,0,0:0:0:0:
320,192,108954,128,0,109062:0:0:0:0:
192,192,109062,1,0,0:0:0:0:
64,192,109170,1,0,0:0:0:0:
448,192,109170,128,0,109819:0:0:0:0:
192,192,109278,1,0,0:0:0:0:
320,192,109387,1,0,0:0:0:0:
64,192,109603,1,0,0:0:0:0:
192,192,109603,1,0,0:0:0:0:
320,192,109711,1,0,0:0:0:0:
64,192,109819,1,0,0:0:0:0:
192,192,109819,128,0,109927:0:0:0:0:
320,192,109927,1,0,0:0:0:0:
64,192,110035,1,0,0:0:0:0:
448,192,110035,128,0,110143:0:0:0:0:
320,192,110143,1,0,0:0:0:0:
64,192,110251,1,0,0:0:0:0:
192,192,110251,128,0,110360:0:0:0:0:
320,192,110360,1,0,0:0:0:0:
64,192,110468,128,0,110576:0:0:0:0:
192,192,110468,1,0,0:0:0:0:
448,192,110468,1,0,0:0:0:0:
192,192,110684,1,0,0:0:0:0:
320,192,110684,128,0,110792:0:0:0:0:
64,192,110792,1,0,0:0:0:0:
192,192,110900,1,0,0:0:0:0:
448,192,110900,128,0,111765:0:0:0:0:
320,192,111008,1,0,0:0:0:0:
192,192,111116,1,0,0:0:0:0:
64,192,111333,1,0,0:0:0:0:
192,192,111333,1,0,0:0:0:0:
320,192,111441,1,0,0:0:0:0:
64,192,111549,1,0,0:0:0:0:
192,192,111657,1,0,0:0:0:0:
64,192,111765,1,0,0:0:0:0:
320,192,111765,128,0,111873:0:0:0:0:
448,192,111873,1,0,0:0:0:0:
64,192,111981,1,0,0:0:0:0:
192,192,111981,128,0,112089:0:0:0:0:
320,192,112089,1,0,0:0:0:0:
64,192,112197,128,0,112305:0:0:0:0:
192,192,112197,1,0,0:0:0:0:
448,192,112197,1,0,0:0:0:0:
192,192,112414,128,0,112522:0:0:0:0:
448,192,112414,1,0,0:0:0:0:
64,192,112522,1,0,0:0:0:0:
320,192,112630,128,0,112738:0:0:0:0:
448,192,112630,1,0,0:0:0:0:
192,192,112738,1,0,0:0:0:0:
64,192,112846,1,0,0:0:0:0:
320,192,112846,1,0,0:0:0:0:
192,192,113062,128,0,113170:0:0:0:0:
448,192,113062,1,0,0:0:0:0:
64,192,113170,1,0,0:0:0:0:
64,192,113278,1,0,0:0:0:0:
320,192,113278,128,0,113387:0:0:0:0:
448,192,113278,1,0,0:0:0:0:
192,192,113387,1,0,0:0:0:0:
64,192,113495,1,0,0:0:0:0:
320,192,113495,1,0,0:0:0:0:
448,192,113495,128,0,113603:0:0:0:0:
192,192,113711,128,0,113819:0:0:0:0:
64,192,113927,128,0,114035:0:0:0:0:
320,192,114143,128,0,114251:0:0:0:0:
448,192,114360,128,0,114792:0:0:0:0:
320,192,114792,128,0,115224:0:0:0:0:
64,192,115224,1,0,0:0:0:0:
192,192,115278,1,0,0:0:0:0:
320,192,115333,1,0,0:0:0:0:
448,192,115387,1,0,0:0:0:0:
192,192,115441,1,0,0:0:0:0:
448,192,115495,1,0,0:0:0:0:
320,192,115549,1,0,0:0:0:0:
192,192,115603,1,0,0:0:0:0:
64,192,115657,1,0,0:0:0:0:
192,192,115711,1,0,0:0:0:0:
320,192,115765,1,0,0:0:0:0:
448,192,115819,1,0,0:0:0:0:
64,192,115873,1,0,0:0:0:0:
320,192,115927,1,0,0:0:0:0:
64,192,115981,1,0,0:0:0:0:
320,192,116035,1,0,0:0:0:0:
64,192,116089,1,0,0:0:0:0:
192,192,116143,1,0,0:0:0:0:
320,192,116197,1,0,0:0:0:0:
448,192,116251,1,0,0:0:0:0:
192,192,116305,1,0,0:0:0:0:
448,192,116360,1,0,0:0:0:0:
320,192,116414,1,0,0:0:0:0:
192,192,116468,1,0,0:0:0:0:
64,192,116522,1,0,0:0:0:0:
448,192,116576,1,0,0:0:0:0:
64,192,116630,1,0,0:0:0:0:
448,192,116684,1,0,0:0:0:0:
64,192,116738,1,0,0:0:0:0:
448,192,116792,1,0,0:0:0:0:
64,192,116846,1,0,0:0:0:0:
448,192,116900,1,0,0:0:0:0:
64,192,116954,1,0,0:0:0:0:
320,192,117008,1,0,0:0:0:0:
192,192,117062,1,0,0:0:0:0:
448,192,117116,1,0,0:0:0:0:
320,192,117170,1,0,0:0:0:0:
448,192,117224,1,0,0:0:0:0:
192,192,117278,1,0,0:0:0:0:
320,192,117333,1,0,0:0:0:0:
64,192,117387,1,0,0:0:0:0:
320,192,117441,1,0,0:0:0:0:
192,192,117495,1,0,0:0:0:0:
448,192,117549,1,0,0:0:0:0:
192,192,117603,1,0,0:0:0:0:
320,192,117657,1,0,0:0:0:0:
192,192,117711,1,0,0:0:0:0:
320,192,117765,1,0,0:0:0:0:
64,192,117819,1,0,0:0:0:0:
448,192,117873,1,0,0:0:0:0:
192,192,117927,1,0,0:0:0:0:
448,192,117981,1,0,0:0:0:0:
192,192,118035,1,0,0:0:0:0:
448,192,118089,1,0,0:0:0:0:
192,192,118143,1,0,0:0:0:0:
320,192,118197,1,0,0:0:0:0:
64,192,118251,1,0,0:0:0:0:
448,192,118305,1,0,0:0:0:0:
64,192,118360,1,0,0:0:0:0:
448,192,118414,1,0,0:0:0:0:
64,192,118468,1,0,0:0:0:0:
448,192,118522,1,0,0:0:0:0:
64,192,118576,1,0,0:0:0:0:
448,192,118630,1,0,0:0:0:0:
64,192,118684,1,0,0:0:0:0:
192,192,118738,1,0,0:0:0:0:
448,192,118792,1,0,0:0:0:0:
320,192,118846,1,0,0:0:0:0:
192,192,118900,1,0,0:0:0:0:
320,192,118954,1,0,0:0:0:0:
448,192,119008,1,0,0:0:0:0:
192,192,119062,1,0,0:0:0:0:
64,192,119116,1,0,0:0:0:0:
192,192,119170,1,0,0:0:0:0:
448,192,119224,1,0,0:0:0:0:
320,192,119278,1,0,0:0:0:0:
192,192,119333,1,0,0:0:0:0:
320,192,119387,1,0,0:0:0:0:
192,192,119441,1,0,0:0:0:0:
320,192,119495,1,0,0:0:0:0:
64,192,119549,1,0,0:0:0:0:
192,192,119603,1,0,0:0:0:0:
448,192,119657,1,0,0:0:0:0:
320,192,119711,1,0,0:0:0:0:
192,192,119765,1,0,0:0:0:0:
320,192,119819,1,0,0:0:0:0:
448,192,119873,1,0,0:0:0:0:
192,192,119927,1,0,0:0:0:0:
64,192,119981,1,0,0:0:0:0:
448,192,120035,1,0,0:0:0:0:
64,192,120089,1,0,0:0:0:0:
448,192,120143,1,0,0:0:0:0:
64,192,120197,1,0,0:0:0:0:
192,192,120224,1,0,0:0:0:0:
320,192,120251,1,0,0:0:0:0:
448,192,120278,1,0,0:0:0:0:
64,192,120305,1,0,0:0:0:0:
192,192,120333,1,0,0:0:0:0:
320,192,120360,1,0,0:0:0:0:
448,192,120387,1,0,0:0:0:0:
64,192,120414,1,0,0:0:0:0:
192,192,120468,1,0,0:0:0:0:
448,192,120522,1,0,0:0:0:0:
320,192,120576,1,0,0:0:0:0:
192,192,120630,1,0,0:0:0:0:
64,192,120684,1,0,0:0:0:0:
320,192,120738,1,0,0:0:0:0:
448,192,120792,1,0,0:0:0:0:
64,192,120846,1,0,0:0:0:0:
192,192,120900,1,0,0:0:0:0:
448,192,120954,1,0,0:0:0:0:
320,192,121008,1,0,0:0:0:0:
64,192,121062,1,0,0:0:0:0:
192,192,121089,1,0,0:0:0:0:
320,192,121116,1,0,0:0:0:0:
448,192,121143,1,0,0:0:0:0:
64,192,121170,1,0,0:0:0:0:
192,192,121197,1,0,0:0:0:0:
320,192,121224,1,0,0:0:0:0:
448,192,121251,1,0,0:0:0:0:
64,192,121278,1,0,0:0:0:0:
192,192,121278,1,0,0:0:0:0:
320,192,121387,1,0,0:0:0:0:
192,192,121495,1,0,0:0:0:0:
320,192,121603,1,0,0:0:0:0:
192,192,121711,1,0,0:0:0:0:
448,192,121711,128,0,121765:0:0:0:0:
320,192,121819,1,0,0:0:0:0:
192,192,121927,1,0,0:0:0:0:
448,192,121927,128,0,121981:0:0:0:0:
320,192,122035,1,0,0:0:0:0:
64,192,122143,1,0,0:0:0:0:
192,192,122143,1,0,0:0:0:0:
448,192,122197,1,0,0:0:0:0:
192,192,122251,1,0,0:0:0:0:
320,192,122251,1,0,0:0:0:0:
64,192,122305,1,0,0:0:0:0:
320,192,122360,1,0,0:0:0:0:
448,192,122360,1,0,0:0:0:0:
192,192,122414,1,0,0:0:0:0:
64,192,122468,1,0,0:0:0:0:
448,192,122468,1,0,0:0:0:0:
320,192,122522,1,0,0:0:0:0:
64,192,122576,1,0,0:0:0:0:
192,192,122576,1,0,0:0:0:0:
448,192,122630,1,0,0:0:0:0:
64,192,122684,1,0,0:0:0:0:
320,192,122684,1,0,0:0:0:0:
192,192,122738,1,0,0:0:0:0:
320,192,122792,1,0,0:0:0:0:
448,192,122792,1,0,0:0:0:0:
64,192,122846,1,0,0:0:0:0:
192,192,122846,1,0,0:0:0:0:
320,192,122900,1,0,0:0:0:0:
448,192,122900,1,0,0:0:0:0:
64,192,122954,1,0,0:0:0:0:
192,192,122954,1,0,0:0:0:0:
320,192,123008,1,0,0:0:0:0:
448,192,123008,1,0,0:0:0:0:
192,192,123062,1,0,0:0:0:0:
64,192,123116,1,0,0:0:0:0:
320,192,123116,1,0,0:0:0:0:
448,192,123170,1,0,0:0:0:0:
192,192,123224,1,0,0:0:0:0:
320,192,123224,1,0,0:0:0:0:
64,192,123278,1,0,0:0:0:0:
192,192,123333,1,0,0:0:0:0:
448,192,123333,1,0,0:0:0:0:
320,192,123387,1,0,0:0:0:0:
64,192,123441,1,0,0:0:0:0:
192,192,123441,1,0,0:0:0:0:
320,192,123495,1,0,0:0:0:0:
448,192,123495,1,0,0:0:0:0:
64,192,123549,1,0,0:0:0:0:
192,192,123549,1,0,0:0:0:0:
320,192,123603,1,0,0:0:0:0:
448,192,123603,1,0,0:0:0:0:
64,192,123657,1,0,0:0:0:0:
192,192,123684,1,0,0:0:0:0:
320,192,123711,1,0,0:0:0:0:
448,192,123738,1,0,0:0:0:0:
64,192,123765,1,0,0:0:0:0:
192,192,123792,1,0,0:0:0:0:
320,192,123819,1,0,0:0:0:0:
448,192,123846,1,0,0:0:0:0:
64,192,123873,1,0,0:0:0:0:
192,192,123873,1,0,0:0:0:0:
320,192,123927,1,0,0:0:0:0:
64,192,123981,1,0,0:0:0:0:
448,192,123981,1,0,0:0:0:0:
192,192,124035,1,0,0:0:0:0:
320,192,124089,1,0,0:0:0:0:
448,192,124089,1,0,0:0:0:0:
64,192,124143,1,0,0:0:0:0:
192,192,124197,1,0,0:0:0:0:
320,192,124197,1,0,0:0:0:0:
448,192,124251,1,0,0:0:0:0:
64,192,124305,1,0,0:0:0:0:
192,192,124305,1,0,0:0:0:0:
320,192,124360,1,0,0:0:0:0:
192,192,124414,1,0,0:0:0:0:
448,192,124414,1,0,0:0:0:0:
64,192,124468,1,0,0:0:0:0:
320,192,124522,1,0,0:0:0:0:
448,192,124522,1,0,0:0:0:0:
64,192,124576,1,0,0:0:0:0:
192,192,124576,1,0,0:0:0:0:
320,192,124630,1,0,0:0:0:0:
448,192,124630,1,0,0:0:0:0:
64,192,124684,1,0,0:0:0:0:
192,192,124684,1,0,0:0:0:0:
320,192,124738,1,0,0:0:0:0:
448,192,124738,1,0,0:0:0:0:
192,192,124792,1,0,0:0:0:0:
64,192,124846,1,0,0:0:0:0:
320,192,124846,1,0,0:0:0:0:
192,192,124900,1,0,0:0:0:0:
448,192,124900,1,0,0:0:0:0:
64,192,124954,1,0,0:0:0:0:
320,192,124954,1,0,0:0:0:0:
192,192,125008,1,0,0:0:0:0:
448,192,125008,1,0,0:0:0:0:
64,192,125062,1,0,0:0:0:0:
320,192,125062,1,0,0:0:0:0:
448,192,125116,1,0,0:0:0:0:
64,192,125170,1,0,0:0:0:0:
192,192,125170,1,0,0:0:0:0:
320,192,125224,1,0,0:0:0:0:
448,192,125224,1,0,0:0:0:0:
64,192,125278,1,0,0:0:0:0:
192,192,125278,1,0,0:0:0:0:
320,192,125333,1,0,0:0:0:0:
448,192,125333,1,0,0:0:0:0:
64,192,125387,1,0,0:0:0:0:
192,192,125414,1,0,0:0:0:0:
320,192,125441,1,0,0:0:0:0:
448,192,125468,1,0,0:0:0:0:
64,192,125495,1,0,0:0:0:0:
192,192,125522,1,0,0:0:0:0:
320,192,125549,1,0,0:0:0:0:
448,192,125576,1,0,0:0:0:0:
64,192,125603,1,0,0:0:0:0:
192,192,125603,1,0,0:0:0:0:
320,192,125657,1,0,0:0:0:0:
64,192,125711,1,0,0:0:0:0:
448,192,125711,1,0,0:0:0:0:
192,192,125765,1,0,0:0:0:0:
320,192,125819,1,0,0:0:0:0:
448,192,125819,1,0,0:0:0:0:
64,192,125873,1,0,0:0:0:0:
192,192,125927,1,0,0:0:0:0:
320,192,125927,1,0,0:0:0:0:
448,192,125981,1,0,0:0:0:0:
64,192,126035,1,0,0:0:0:0:
192,192,126035,1,0,0:0:0:0:
320,192,126089,1,0,0:0:0:0:
64,192,126143,1,0,0:0:0:0:
448,192,126143,1,0,0:0:0:0:
192,192,126197,1,0,0:0:0:0:
320,192,126251,1,0,0:0:0:0:
448,192,126251,1,0,0:0:0:0:
64,192,126305,1,0,0:0:0:0:
192,192,126305,1,0,0:0:0:0:
320,192,126360,1,0,0:0:0:0:
448,192,126360,1,0,0:0:0:0:
64,192,126414,1,0,0:0:0:0:
192,192,126414,1,0,0:0:0:0:
320,192,126468,1,0,0:0:0:0:
448,192,126468,1,0,0:0:0:0:
192,192,126522,1,0,0:0:0:0:
64,192,126576,1,0,0:0:0:0:
448,192,126576,1,0,0:0:0:0:
320,192,126630,1,0,0:0:0:0:
64,192,126684,1,0,0:0:0:0:
192,192,126684,1,0,0:0:0:0:
448,192,126738,1,0,0:0:0:0:
192,192,126792,1,0,0:0:0:0:
320,192,126792,1,0,0:0:0:0:
64,192,126846,1,0,0:0:0:0:
320,192,126900,1,0,0:0:0:0:
448,192,126900,1,0,0:0:0:0:
64,192,126954,1,0,0:0:0:0:
192,192,126954,1,0,0:0:0:0:
320,192,127008,1,0,0:0:0:0:
448,192,127008,1,0,0:0:0:0:
64,192,127062,1,0,0:0:0:0:
192,192,127062,1,0,0:0:0:0:
448,192,127116,1,0,0:0:0:0:
320,192,127143,1,0,0:0:0:0:
192,192,127170,1,0,0:0:0:0:
64,192,127197,1,0,0:0:0:0:
448,192,127224,1,0,0:0:0:0:
320,192,127251,1,0,0:0:0:0:
192,192,127278,1,0,0:0:0:0:
64,192,127305,1,0,0:0:0:0:
320,192,127333,1,0,0:0:0:0:
448,192,127333,1,0,0:0:0:0:
192,192,127387,1,0,0:0:0:0:
64,192,127441,1,0,0:0:0:0:
448,192,127441,1,0,0:0:0:0:
320,192,127495,1,0,0:0:0:0:
64,192,127549,1,0,0:0:0:0:
192,192,127549,1,0,0:0:0:0:
448,192,127603,1,0,0:0:0:0:
192,192,127657,1,0,0:0:0:0:
320,192,127657,1,0,0:0:0:0:
64,192,127711,1,0,0:0:0:0:
320,192,127765,1,0,0:0:0:0:
448,192,127765,1,0,0:0:0:0:
192,192,127819,1,0,0:0:0:0:
64,192,127873,1,0,0:0:0:0:
448,192,127873,1,0,0:0:0:0:
320,192,127927,1,0,0:0:0:0:
64,192,127981,1,0,0:0:0:0:
192,192,127981,1,0,0:0:0:0:
320,192,128035,1,0,0:0:0:0:
448,192,128035,1,0,0:0:0:0:
64,192,128089,1,0,0:0:0:0:
192,192,128089,1,0,0:0:0:0:
320,192,128143,1,0,0:0:0:0:
448,192,128143,1,0,0:0:0:0:
64,192,128197,1,0,0:0:0:0:
192,192,128197,1,0,0:0:0:0:
448,192,128251,1,0,0:0:0:0:
64,192,128305,1,0,0:0:0:0:
192,192,128333,1,0,0:0:0:0:
320,192,128360,1,0,0:0:0:0:
448,192,128387,1,0,0:0:0:0:
64,192,128414,1,0,0:0:0:0:
192,192,128441,1,0,0:0:0:0:
320,192,128468,1,0,0:0:0:0:
448,192,128495,1,0,0:0:0:0:
64,192,128522,1,0,0:0:0:0:
192,192,128522,1,0,0:0:0:0:
64,192,128630,128,0,128684:0:0:0:0:
448,192,128630,1,0,0:0:0:0:
192,192,128738,128,0,128792:0:0:0:0:
64,192,128846,1,0,0:0:0:0:
448,192,128846,128,0,128900:0:0:0:0:
192,192,128954,1,0,0:0:0:0:
448,192,128954,128,0,129008:0:0:0:0:
64,192,129062,1,0,0:0:0:0:
320,192,129062,1,0,0:0:0:0:
448,192,129116,1,0,0:0:0:0:
192,192,129170,1,0,0:0:0:0:
320,192,129170,1,0,0:0:0:0:
64,192,129224,1,0,0:0:0:0:
192,192,129278,1,0,0:0:0:0:
448,192,129278,1,0,0:0:0:0:
320,192,129333,1,0,0:0:0:0:
64,192,129387,1,0,0:0:0:0:
448,192,129387,1,0,0:0:0:0:
192,192,129441,1,0,0:0:0:0:
64,192,129495,1,0,0:0:0:0:
320,192,129495,1,0,0:0:0:0:
448,192,129549,1,0,0:0:0:0:
192,192,129603,1,0,0:0:0:0:
320,192,129603,1,0,0:0:0:0:
64,192,129657,1,0,0:0:0:0:
192,192,129711,1,0,0:0:0:0:
448,192,129711,1,0,0:0:0:0:
320,192,129765,1,0,0:0:0:0:
64,192,129819,1,0,0:0:0:0:
192,192,129819,1,0,0:0:0:0:
320,192,129873,1,0,0:0:0:0:
448,192,129873,1,0,0:0:0:0:
64,192,129927,1,0,0:0:0:0:
192,192,129927,1,0,0:0:0:0:
448,192,129981,1,0,0:0:0:0:
64,192,130035,1,0,0:0:0:0:
192,192,130062,1,0,0:0:0:0:
320,192,130089,1,0,0:0:0:0:
448,192,130116,1,0,0:0:0:0:
64,192,130143,1,0,0:0:0:0:
192,192,130170,1,0,0:0:0:0:
320,192,130197,1,0,0:0:0:0:
448,192,130224,1,0,0:0:0:0:
64,192,130251,1,0,0:0:0:0:
192,192,130251,1,0,0:0:0:0:
320,192,130305,1,0,0:0:0:0:
64,192,130360,1,0,0:0:0:0:
192,192,130360,1,0,0:0:0:0:
320,192,130414,1,0,0:0:0:0:
448,192,130414,1,0,0:0:0:0:
64,192,130468,1,0,0:0:0:0:
192,192,130468,1,0,0:0:0:0:
320,192,130522,1,0,0:0:0:0:
448,192,130522,1,0,0:0:0:0:
64,192,130576,1,0,0:0:0:0:
192,192,130576,1,0,0:0:0:0:
320,192,130630,1,0,0:0:0:0:
448,192,130630,1,0,0:0:0:0:
64,192,130684,1,0,0:0:0:0:
192,192,130684,1,0,0:0:0:0:
320,192,130738,1,0,0:0:0:0:
448,192,130738,1,0,0:0:0:0:
64,192,130792,1,0,0:0:0:0:
192,192,130792,1,0,0:0:0:0:
320,192,130846,1,0,0:0:0:0:
192,192,130900,1,0,0:0:0:0:
448,192,130900,1,0,0:0:0:0:
64,192,130954,1,0,0:0:0:0:
320,192,131008,1,0,0:0:0:0:
448,192,131008,1,0,0:0:0:0:
192,192,131062,1,0,0:0:0:0:
64,192,131116,1,0,0:0:0:0:
320,192,131116,1,0,0:0:0:0:
448,192,131170,1,0,0:0:0:0:
64,192,131224,1,0,0:0:0:0:
320,192,131224,1,0,0:0:0:0:
192,192,131278,1,0,0:0:0:0:
320,192,131333,1,0,0:0:0:0:
448,192,131333,1,0,0:0:0:0:
192,192,131387,1,0,0:0:0:0:
64,192,131441,1,0,0:0:0:0:
320,192,131441,1,0,0:0:0:0:
192,192,131495,1,0,0:0:0:0:
320,192,131549,1,0,0:0:0:0:
448,192,131549,1,0,0:0:0:0:
64,192,131603,1,0,0:0:0:0:
192,192,131603,1,0,0:0:0:0:
320,192,131657,1,0,0:0:0:0:
448,192,131657,1,0,0:0:0:0:
64,192,131711,1,0,0:0:0:0:
448,192,131765,1,0,0:0:0:0:
320,192,131792,1,0,0:0:0:0:
192,192,131819,1,0,0:0:0:0:
64,192,131846,1,0,0:0:0:0:
448,192,131873,1,0,0:0:0:0:
320,192,131900,1,0,0:0:0:0:
192,192,131927,1,0,0:0:0:0:
64,192,131954,1,0,0:0:0:0:
320,192,131981,1,0,0:0:0:0:
448,192,131981,1,0,0:0:0:0:
64,192,132089,1,0,0:0:0:0:
192,192,132116,1,0,0:0:0:0:
320,192,132143,1,0,0:0:0:0:
448,192,132170,1,0,0:0:0:0:
64,192,132197,1,0,0:0:0:0:
192,192,132224,1,0,0:0:0:0:
320,192,132251,1,0,0:0:0:0:
448,192,132278,1,0,0:0:0:0:
64,192,132305,1,0,0:0:0:0:
192,192,132333,1,0,0:0:0:0:
320,192,132360,1,0,0:0:0:0:
448,192,132387,1,0,0:0:0:0:
64,192,132414,1,0,0:0:0:0:
192,192,132441,1,0,0:0:0:0:
320,192,132468,1,0,0:0:0:0:
448,192,132495,1,0,0:0:0:0:
64,192,132522,1,0,0:0:0:0:
192,192,132522,1,0,0:0:0:0:
448,192,132576,1,0,0:0:0:0:
192,192,132630,1,0,0:0:0:0:
320,192,132630,1,0,0:0:0:0:
64,192,132684,1,0,0:0:0:0:
320,192,132738,1,0,0:0:0:0:
448,192,132738,1,0,0:0:0:0:
192,192,132792,1,0,0:0:0:0:
64,192,132846,1,0,0:0:0:0:
320,192,132846,1,0,0:0:0:0:
448,192,132900,1,0,0:0:0:0:
64,192,132954,1,0,0:0:0:0:
192,192,132954,1,0,0:0:0:0:
448,192,133008,1,0,0:0:0:0:
192,192,133062,1,0,0:0:0:0:
320,192,133062,1,0,0:0:0:0:
64,192,133116,1,0,0:0:0:0:
192,192,133170,1,0,0:0:0:0:
448,192,133170,1,0,0:0:0:0:
320,192,133224,1,0,0:0:0:0:
64,192,133278,1,0,0:0:0:0:
192,192,133278,1,0,0:0:0:0:
320,192,133333,1,0,0:0:0:0:
448,192,133333,1,0,0:0:0:0:
64,192,133387,1,0,0:0:0:0:
192,192,133387,1,0,0:0:0:0:
448,192,133441,1,0,0:0:0:0:
64,192,133495,1,0,0:0:0:0:
192,192,133522,1,0,0:0:0:0:
320,192,133549,1,0,0:0:0:0:
448,192,133576,1,0,0:0:0:0:
64,192,133603,1,0,0:0:0:0:
192,192,133630,1,0,0:0:0:0:
320,192,133657,1,0,0:0:0:0:
448,192,133684,1,0,0:0:0:0:
64,192,133711,1,0,0:0:0:0:
192,192,133711,1,0,0:0:0:0:
320,192,133765,1,0,0:0:0:0:
64,192,133819,1,0,0:0:0:0:
192,192,133819,1,0,0:0:0:0:
320,192,133873,1,0,0:0:0:0:
448,192,133873,1,0,0:0:0:0:
64,192,133927,1,0,0:0:0:0:
192,192,133927,1,0,0:0:0:0:
320,192,133981,1,0,0:0:0:0:
448,192,133981,1,0,0:0:0:0:
64,192,134035,1,0,0:0:0:0:
192,192,134062,1,0,0:0:0:0:
320,192,134089,1,0,0:0:0:0:
448,192,134116,1,0,0:0:0:0:
64,192,134143,1,0,0:0:0:0:
192,192,134170,1,0,0:0:0:0:
320,192,134197,1,0,0:0:0:0:
448,192,134224,1,0,0:0:0:0:
64,192,134251,1,0,0:0:0:0:
192,192,134251,1,0,0:0:0:0:
320,192,134305,1,0,0:0:0:0:
192,192,134360,1,0,0:0:0:0:
448,192,134360,1,0,0:0:0:0:
64,192,134414,1,0,0:0:0:0:
320,192,134468,1,0,0:0:0:0:
448,192,134468,1,0,0:0:0:0:
192,192,134522,1,0,0:0:0:0:
64,192,134576,1,0,0:0:0:0:
320,192,134576,1,0,0:0:0:0:
448,192,134630,1,0,0:0:0:0:
64,192,134684,1,0,0:0:0:0:
192,192,134684,1,0,0:0:0:0:
320,192,134738,1,0,0:0:0:0:
192,192,134792,1,0,0:0:0:0:
448,192,134792,1,0,0:0:0:0:
64,192,134846,1,0,0:0:0:0:
320,192,134900,1,0,0:0:0:0:
448,192,134900,1,0,0:0:0:0:
64,192,134954,1,0,0:0:0:0:
320,192,135008,1,0,0:0:0:0:
448,192,135008,1,0,0:0:0:0:
64,192,135062,1,0,0:0:0:0:
192,192,135062,1,0,0:0:0:0:
320,192,135116,1,0,0:0:0:0:
448,192,135116,1,0,0:0:0:0:
64,192,135170,1,0,0:0:0:0:
448,192,135224,1,0,0:0:0:0:
320,192,135251,1,0,0:0:0:0:
192,192,135278,1,0,0:0:0:0:
64,192,135305,1,0,0:0:0:0:
448,192,135333,1,0,0:0:0:0:
320,192,135360,1,0,0:0:0:0:
192,192,135387,1,0,0:0:0:0:
64,192,135414,1,0,0:0:0:0:
320,192,135441,1,0,0:0:0:0:
448,192,135441,1,0,0:0:0:0:
192,192,135549,128,0,135981:0:0:0:0:
64,192,135981,1,0,0:0:0:0:
320,192,135981,1,0,0:0:0:0:
64,192,136089,1,0,0:0:0:0:
320,192,136089,1,0,0:0:0:0:
64,192,136197,1,0,0:0:0:0:
320,192,136197,1,0,0:0:0:0:
64,192,136305,1,0,0:0:0:0:
320,192,136305,1,0,0:0:0:0:
64,192,136414,1,0,0:0:0:0:
320,192,136414,1,0,0:0:0:0:
64,192,136522,1,0,0:0:0:0:
320,192,136522,1,0,0:0:0:0:
64,192,136630,1,0,0:0:0:0:
192,192,136630,1,0,0:0:0:0:
320,192,136684,1,0,0:0:0:0:
448,192,136684,1,0,0:0:0:0:
64,192,136738,1,0,0:0:0:0:
192,192,136738,1,0,0:0:0:0:
320,192,136792,1,0,0:0:0:0:
448,192,136792,1,0,0:0:0:0:
64,192,136846,1,0,0:0:0:0:
192,192,136846,1,0,0:0:0:0:
64,192,136954,1,0,0:0:0:0:
192,192,136954,1,0,0:0:0:0:
320,192,137062,1,0,0:0:0:0:
448,192,137062,1,0,0:0:0:0:
64,192,137116,1,0,0:0:0:0:
192,192,137116,1,0,0:0:0:0:
320,192,137170,1,0,0:0:0:0:
448,192,137170,1,0,0:0:0:0:
64,192,137224,1,0,0:0:0:0:
192,192,137224,1,0,0:0:0:0:
320,192,137278,1,0,0:0:0:0:
448,192,137278,1,0,0:0:0:0:
320,192,137387,1,0,0:0:0:0:
448,192,137387,1,0,0:0:0:0:
448,192,137495,1,0,0:0:0:0:
320,192,137522,1,0,0:0:0:0:
192,192,137549,1,0,0:0:0:0:
64,192,137576,1,0,0:0:0:0:
448,192,137603,1,0,0:0:0:0:
320,192,137630,1,0,0:0:0:0:
192,192,137657,1,0,0:0:0:0:
64,192,137684,1,0,0:0:0:0:
320,192,137711,1,0,0:0:0:0:
448,192,137711,1,0,0:0:0:0:
320,192,137819,1,0,0:0:0:0:
448,192,137819,1,0,0:0:0:0:
320,192,137927,1,0,0:0:0:0:
448,192,137927,1,0,0:0:0:0:
192,192,138035,1,0,0:0:0:0:
448,192,138035,1,0,0:0:0:0:
64,192,138089,1,0,0:0:0:0:
320,192,138089,1,0,0:0:0:0:
192,192,138143,1,0,0:0:0:0:
448,192,138143,1,0,0:0:0:0:
192,192,138251,1,0,0:0:0:0:
448,192,138251,1,0,0:0:0:0:
64,192,138360,1,0,0:0:0:0:
448,192,138360,1,0,0:0:0:0:
192,192,138414,1,0,0:0:0:0:
320,192,138414,1,0,0:0:0:0:
64,192,138468,1,0,0:0:0:0:
448,192,138468,1,0,0:0:0:0:
192,192,138522,1,0,0:0:0:0:
320,192,138522,1,0,0:0:0:0:
64,192,138576,1,0,0:0:0:0:
448,192,138576,1,0,0:0:0:0:
64,192,138684,1,0,0:0:0:0:
448,192,138684,1,0,0:0:0:0:
64,192,138792,1,0,0:0:0:0:
192,192,138819,1,0,0:0:0:0:
320,192,138846,1,0,0:0:0:0:
448,192,138873,1,0,0:0:0:0:
64,192,138900,1,0,0:0:0:0:
192,192,138927,1,0,0:0:0:0:
320,192,138954,1,0,0:0:0:0:
448,192,138981,1,0,0:0:0:0:
64,192,139008,1,0,0:0:0:0:
192,192,139008,128,0,139441:0:0:0:0:
64,192,139441,1,0,0:0:0:0:
320,192,139441,1,0,0:0:0:0:
448,192,139495,1,0,0:0:0:0:
192,192,139549,1,0,0:0:0:0:
320,192,139549,1,0,0:0:0:0:
64,192,139603,1,0,0:0:0:0:
320,192,139657,1,0,0:0:0:0:
448,192,139657,1,0,0:0:0:0:
192,192,139711,1,0,0:0:0:0:
64,192,139765,1,0,0:0:0:0:
448,192,139765,1,0,0:0:0:0:
192,192,139819,1,0,0:0:0:0:
320,192,139819,1,0,0:0:0:0:
64,192,139873,1,0,0:0:0:0:
448,192,139873,1,0,0:0:0:0:
320,192,139927,1,0,0:0:0:0:
64,192,139981,1,0,0:0:0:0:
192,192,139981,1,0,0:0:0:0:
448,192,140035,1,0,0:0:0:0:
64,192,140089,1,0,0:0:0:0:
320,192,140089,1,0,0:0:0:0:
192,192,140143,1,0,0:0:0:0:
448,192,140143,1,0,0:0:0:0:
64,192,140197,1,0,0:0:0:0:
320,192,140197,1,0,0:0:0:0:
192,192,140251,1,0,0:0:0:0:
448,192,140251,1,0,0:0:0:0:
64,192,140305,1,0,0:0:0:0:
320,192,140305,1,0,0:0:0:0:
448,192,140360,1,0,0:0:0:0:
192,192,140414,1,0,0:0:0:0:
320,192,140414,1,0,0:0:0:0:
64,192,140468,1,0,0:0:0:0:
448,192,140522,1,0,0:0:0:0:
320,192,140549,1,0,0:0:0:0:
192,192,140576,1,0,0:0:0:0:
64,192,140603,1,0,0:0:0:0:
448,192,140630,1,0,0:0:0:0:
320,192,140657,1,0,0:0:0:0:
192,192,140684,1,0,0:0:0:0:
64,192,140711,1,0,0:0:0:0:
320,192,140738,1,0,0:0:0:0:
448,192,140738,1,0,0:0:0:0:
64,192,140792,1,0,0:0:0:0:
192,192,140792,1,0,0:0:0:0:
320,192,140846,1,0,0:0:0:0:
448,192,140846,1,0,0:0:0:0:
64,192,140900,1,0,0:0:0:0:
192,192,140900,1,0,0:0:0:0:
448,192,140954,1,0,0:0:0:0:
320,192,140981,1,0,0:0:0:0:
192,192,141008,1,0,0:0:0:0:
64,192,141035,1,0,0:0:0:0:
448,192,141062,1,0,0:0:0:0:
320,192,141089,1,0,0:0:0:0:
192,192,141116,1,0,0:0:0:0:
64,192,141143,1,0,0:0:0:0:
320,192,141170,1,0,0:0:0:0:
448,192,141170,1,0,0:0:0:0:
192,192,141224,1,0,0:0:0:0:
64,192,141278,1,0,0:0:0:0:
448,192,141278,1,0,0:0:0:0:
320,192,141333,1,0,0:0:0:0:
64,192,141387,1,0,0:0:0:0:
192,192,141387,1,0,0:0:0:0:
448,192,141441,1,0,0:0:0:0:
64,192,141495,1,0,0:0:0:0:
192,192,141522,1,0,0:0:0:0:
320,192,141549,1,0,0:0:0:0:
448,192,141576,1,0,0:0:0:0:
64,192,141603,1,0,0:0:0:0:
192,192,141603,1,0,0:0:0:0:
320,192,141657,1,0,0:0:0:0:
64,192,141711,1,0,0:0:0:0:
448,192,141711,1,0,0:0:0:0:
192,192,141765,1,0,0:0:0:0:
448,192,141819,1,0,0:0:0:0:
320,192,141846,1,0,0:0:0:0:
192,192,141873,1,0,0:0:0:0:
64,192,141900,1,0,0:0:0:0:
448,192,141927,1,0,0:0:0:0:
320,192,141954,1,0,0:0:0:0:
192,192,141981,1,0,0:0:0:0:
64,192,142008,1,0,0:0:0:0:
448,192,142035,1,0,0:0:0:0:
320,192,142062,1,0,0:0:0:0:
192,192,142089,1,0,0:0:0:0:
64,192,142116,1,0,0:0:0:0:
448,192,142143,1,0,0:0:0:0:
320,192,142170,1,0,0:0:0:0:
192,192,142197,1,0,0:0:0:0:
64,192,142224,1,0,0:0:0:0:
448,192,142251,1,0,0:0:0:0:
320,192,142278,1,0,0:0:0:0:
192,192,142305,1,0,0:0:0:0:
64,192,142333,1,0,0:0:0:0:
448,192,142360,1,0,0:0:0:0:
320,192,142387,1,0,0:0:0:0:
192,192,142414,1,0,0:0:0:0:
64,192,142441,1,0,0:0:0:0:
320,192,142468,1,0,0:0:0:0:
448,192,142468,1,0,0:0:0:0:
192,192,142522,1,0,0:0:0:0:
64,192,142576,1,0,0:0:0:0:
448,192,142576,1,0,0:0:0:0:
320,192,142630,1,0,0:0:0:0:
64,192,142684,1,0,0:0:0:0:
192,192,142684,1,0,0:0:0:0:
448,192,142738,1,0,0:0:0:0:
192,192,142792,1,0,0:0:0:0:
320,192,142792,1,0,0:0:0:0:
64,192,142846,1,0,0:0:0:0:
320,192,142900,1,0,0:0:0:0:
448,192,142900,1,0,0:0:0:0:
192,192,143765,128,0,143819:0:0:0:0:
192,192,143981,128,0,144035:0:0:0:0:
192,192,144197,128,0,144251:0:0:0:0:
