osu file format v14

[General]
AudioFilename: audio.mp3
AudioLeadIn: 0
PreviewTime: 13188
Countdown: 1
SampleSet: None
StackLeniency: 0.2
Mode: 0
LetterboxInBreaks: 0
WidescreenStoryboard: 1

[Editor]
DistanceSpacing: 0.1
BeatDivisor: 4
GridSize: 8
TimelineZoom: 2.1

[Metadata]
Title:Chipstream
TitleUnicode:Chipstream
Artist:Kommisar
ArtistUnicode:Kommisar
Creator:Informous
Version:Level 2: Stream
Source:
Tags:chiptune
BeatmapID:1216423
BeatmapSetID:574345

[Difficulty]
HPDrainRate:8
CircleSize:4
OverallDifficulty:8
ApproachRate:9
SliderMultiplier:1.4
SliderTickRate:1

[Events]
//Background and Video events
0,0,"u8rYP.jpg",0,0
//Break Periods
2,86492,108073
//Storyboard Layer 0 (Background)
//Storyboard Layer 1 (Fail)
//Storyboard Layer 2 (Pass)
//Storyboard Layer 3 (Foreground)
//Storyboard Sound Samples

[TimingPoints]
13188,396.288101449754,4,1,1,40,1,0
38550,-166.666666666667,4,2,0,40,0,0
39144,-100,4,2,0,40,0,0
63912,349.701296808976,4,1,1,50,1,0
97483,-200,4,2,0,40,0,0
108673,283.192523717374,4,1,1,50,1,0
126797,237.78102745182,4,1,1,50,1,0
141998,396.288101449754,4,1,1,50,1,0

[HitObjects]
240,208,13187,5,0,0:0:0:0:
240,176,13287,1,0,0:0:0:0:
272,176,13386,1,0,0:0:0:0:
272,208,13485,1,0,0:0:0:0:
240,208,13584,1,0,0:0:0:0:
240,176,13683,1,0,0:0:0:0:
272,176,13782,1,0,0:0:0:0:
272,208,13881,1,0,0:0:0:0:
240,208,13980,5,0,0:0:0:0:
240,176,14079,1,0,0:0:0:0:
272,176,14178,1,0,0:0:0:0:
272,208,14277,1,0,0:0:0:0:
240,208,14376,1,0,0:0:0:0:
240,176,14475,1,0,0:0:0:0:
272,176,14575,1,0,0:0:0:0:
272,208,14674,1,0,0:0:0:0:
240,208,14773,5,0,0:0:0:0:
240,176,14872,1,0,0:0:0:0:
272,176,14971,1,0,0:0:0:0:
272,208,15070,1,0,0:0:0:0:
240,208,15169,1,0,0:0:0:0:
240,176,15268,1,0,0:0:0:0:
272,176,15367,1,0,0:0:0:0:
272,208,15466,1,0,0:0:0:0:
240,208,15565,5,0,0:0:0:0:
240,176,15664,1,0,0:0:0:0:
272,176,15763,1,0,0:0:0:0:
272,208,15862,1,0,0:0:0:0:
240,208,15962,1,0,0:0:0:0:
240,176,16061,1,0,0:0:0:0:
272,176,16160,1,0,0:0:0:0:
272,208,16259,1,0,0:0:0:0:
240,208,16358,5,0,0:0:0:0:
240,176,16457,1,0,0:0:0:0:
272,176,16556,1,0,0:0:0:0:
272,208,16655,1,0,0:0:0:0:
240,208,16754,1,0,0:0:0:0:
240,176,16853,1,0,0:0:0:0:
272,176,16952,1,0,0:0:0:0:
272,208,17051,1,0,0:0:0:0:
240,208,17150,5,0,0:0:0:0:
240,176,17249,1,0,0:0:0:0:
272,176,17349,1,0,0:0:0:0:
272,208,17448,1,0,0:0:0:0:
240,208,17547,1,0,0:0:0:0:
240,176,17646,1,0,0:0:0:0:
272,176,17745,1,0,0:0:0:0:
272,208,17844,1,0,0:0:0:0:
240,208,17943,5,0,0:0:0:0:
240,176,18042,1,0,0:0:0:0:
272,176,18141,1,0,0:0:0:0:
272,208,18240,1,0,0:0:0:0:
240,208,18339,1,0,0:0:0:0:
240,176,18438,1,0,0:0:0:0:
272,176,18537,1,0,0:0:0:0:
272,208,18636,1,0,0:0:0:0:
240,208,18736,5,0,0:0:0:0:
240,176,18835,1,0,0:0:0:0:
272,176,18934,1,0,0:0:0:0:
272,208,19033,1,0,0:0:0:0:
240,208,19132,1,0,0:0:0:0:
240,176,19231,1,0,0:0:0:0:
272,176,19330,1,0,0:0:0:0:
272,208,19429,1,0,0:0:0:0:
240,208,19528,5,0,0:0:0:0:
240,176,19627,1,0,0:0:0:0:
272,176,19726,1,0,0:0:0:0:
272,208,19825,1,0,0:0:0:0:
240,208,19924,1,0,0:0:0:0:
240,176,20023,1,0,0:0:0:0:
272,176,20123,1,0,0:0:0:0:
272,208,20222,1,0,0:0:0:0:
240,208,20321,5,0,0:0:0:0:
240,176,20420,1,0,0:0:0:0:
272,176,20519,1,0,0:0:0:0:
272,208,20618,1,0,0:0:0:0:
240,208,20717,1,0,0:0:0:0:
240,176,20816,1,0,0:0:0:0:
272,176,20915,1,0,0:0:0:0:
272,208,21014,1,0,0:0:0:0:
240,208,21113,5,0,0:0:0:0:
240,176,21212,1,0,0:0:0:0:
272,176,21311,1,0,0:0:0:0:
272,208,21410,1,0,0:0:0:0:
240,208,21510,1,0,0:0:0:0:
240,176,21609,1,0,0:0:0:0:
272,176,21708,1,0,0:0:0:0:
272,208,21807,1,0,0:0:0:0:
240,208,21906,5,0,0:0:0:0:
240,176,22005,1,0,0:0:0:0:
272,176,22104,1,0,0:0:0:0:
272,208,22203,1,0,0:0:0:0:
240,208,22302,1,0,0:0:0:0:
240,176,22401,1,0,0:0:0:0:
272,176,22500,1,0,0:0:0:0:
272,208,22599,1,0,0:0:0:0:
240,208,22698,5,0,0:0:0:0:
240,176,22797,1,0,0:0:0:0:
272,176,22897,1,0,0:0:0:0:
272,208,22996,1,0,0:0:0:0:
240,208,23095,1,0,0:0:0:0:
240,176,23194,1,0,0:0:0:0:
272,176,23293,1,0,0:0:0:0:
272,208,23392,1,0,0:0:0:0:
240,208,23491,5,0,0:0:0:0:
240,176,23590,1,0,0:0:0:0:
272,176,23689,1,0,0:0:0:0:
272,208,23788,1,0,0:0:0:0:
240,208,23887,1,0,0:0:0:0:
240,176,23986,1,0,0:0:0:0:
272,176,24085,1,0,0:0:0:0:
272,208,24184,1,0,0:0:0:0:
240,208,24284,5,0,0:0:0:0:
240,176,24383,1,0,0:0:0:0:
272,176,24482,1,0,0:0:0:0:
272,208,24581,1,0,0:0:0:0:
240,208,24680,1,0,0:0:0:0:
240,176,24779,1,0,0:0:0:0:
272,176,24878,1,0,0:0:0:0:
272,208,24977,1,0,0:0:0:0:
240,208,25076,5,0,0:0:0:0:
240,176,25175,1,0,0:0:0:0:
272,176,25274,1,0,0:0:0:0:
272,208,25373,1,0,0:0:0:0:
240,208,25472,1,0,0:0:0:0:
240,176,25572,1,0,0:0:0:0:
272,176,25671,1,0,0:0:0:0:
272,208,25770,1,0,0:0:0:0:
240,208,25869,5,0,0:0:0:0:
240,176,25968,1,0,0:0:0:0:
272,176,26067,1,0,0:0:0:0:
272,208,26166,1,0,0:0:0:0:
240,208,26265,1,0,0:0:0:0:
240,176,26364,1,0,0:0:0:0:
272,176,26463,1,0,0:0:0:0:
272,208,26562,1,0,0:0:0:0:
240,208,26661,5,0,0:0:0:0:
240,176,26760,1,0,0:0:0:0:
272,176,26859,1,0,0:0:0:0:
272,208,26959,1,0,0:0:0:0:
240,208,27058,1,0,0:0:0:0:
240,176,27157,1,0,0:0:0:0:
272,176,27256,1,0,0:0:0:0:
272,208,27355,1,0,0:0:0:0:
240,208,27454,5,0,0:0:0:0:
240,176,27553,1,0,0:0:0:0:
272,176,27652,1,0,0:0:0:0:
272,208,27751,1,0,0:0:0:0:
240,208,27850,1,0,0:0:0:0:
240,176,27949,1,0,0:0:0:0:
272,176,28048,1,0,0:0:0:0:
272,208,28147,1,0,0:0:0:0:
240,208,28246,5,0,0:0:0:0:
240,176,28346,1,0,0:0:0:0:
272,176,28445,1,0,0:0:0:0:
272,208,28544,1,0,0:0:0:0:
240,208,28643,1,0,0:0:0:0:
240,176,28742,1,0,0:0:0:0:
272,176,28841,1,0,0:0:0:0:
272,208,28940,1,0,0:0:0:0:
240,208,29039,5,0,0:0:0:0:
240,176,29138,1,0,0:0:0:0:
272,176,29237,1,0,0:0:0:0:
272,208,29336,1,0,0:0:0:0:
240,208,29435,1,0,0:0:0:0:
240,176,29534,1,0,0:0:0:0:
272,176,29633,1,0,0:0:0:0:
272,208,29733,1,0,0:0:0:0:
240,208,29832,5,0,0:0:0:0:
240,176,29931,1,0,0:0:0:0:
272,176,30030,1,0,0:0:0:0:
272,208,30129,1,0,0:0:0:0:
240,208,30228,1,0,0:0:0:0:
240,176,30327,1,0,0:0:0:0:
272,176,30426,1,0,0:0:0:0:
272,208,30525,1,0,0:0:0:0:
240,208,30624,5,0,0:0:0:0:
240,176,30723,1,0,0:0:0:0:
272,176,30822,1,0,0:0:0:0:
272,208,30921,1,0,0:0:0:0:
240,208,31020,1,0,0:0:0:0:
240,176,31120,1,0,0:0:0:0:
272,176,31219,1,0,0:0:0:0:
272,208,31318,1,0,0:0:0:0:
240,208,31417,5,0,0:0:0:0:
240,176,31516,1,0,0:0:0:0:
272,176,31615,1,0,0:0:0:0:
272,208,31714,1,0,0:0:0:0:
240,208,31813,1,0,0:0:0:0:
240,176,31912,1,0,0:0:0:0:
272,176,32011,1,0,0:0:0:0:
272,208,32110,1,0,0:0:0:0:
240,208,32209,5,0,0:0:0:0:
240,176,32308,1,0,0:0:0:0:
272,176,32407,1,0,0:0:0:0:
272,208,32507,1,0,0:0:0:0:
240,208,32606,1,0,0:0:0:0:
240,176,32705,1,0,0:0:0:0:
272,176,32804,1,0,0:0:0:0:
272,208,32903,1,0,0:0:0:0:
240,208,33002,5,0,0:0:0:0:
240,176,33101,1,0,0:0:0:0:
272,176,33200,1,0,0:0:0:0:
272,208,33299,1,0,0:0:0:0:
240,208,33398,1,0,0:0:0:0:
240,176,33497,1,0,0:0:0:0:
272,176,33596,1,0,0:0:0:0:
272,208,33695,1,0,0:0:0:0:
240,208,33794,5,0,0:0:0:0:
240,176,33894,1,0,0:0:0:0:
272,176,33993,1,0,0:0:0:0:
272,208,34092,1,0,0:0:0:0:
240,208,34191,1,0,0:0:0:0:
240,176,34290,1,0,0:0:0:0:
272,176,34389,1,0,0:0:0:0:
272,208,34488,1,0,0:0:0:0:
240,208,34587,5,0,0:0:0:0:
240,176,34686,1,0,0:0:0:0:
272,176,34785,1,0,0:0:0:0:
272,208,34884,1,0,0:0:0:0:
240,208,34983,1,0,0:0:0:0:
240,176,35082,1,0,0:0:0:0:
272,176,35181,1,0,0:0:0:0:
272,208,35281,1,0,0:0:0:0:
240,208,35380,5,0,0:0:0:0:
240,176,35479,1,0,0:0:0:0:
272,176,35578,1,0,0:0:0:0:
272,208,35677,1,0,0:0:0:0:
240,208,35776,1,0,0:0:0:0:
240,176,35875,1,0,0:0:0:0:
272,176,35974,1,0,0:0:0:0:
272,208,36073,1,0,0:0:0:0:
240,208,36172,5,0,0:0:0:0:
240,176,36271,1,0,0:0:0:0:
272,176,36370,1,0,0:0:0:0:
272,208,36469,1,0,0:0:0:0:
240,208,36568,1,0,0:0:0:0:
240,176,36668,1,0,0:0:0:0:
272,176,36767,1,0,0:0:0:0:
272,208,36866,1,0,0:0:0:0:
240,208,36965,5,0,0:0:0:0:
240,176,37064,1,0,0:0:0:0:
272,176,37163,1,0,0:0:0:0:
272,208,37262,1,0,0:0:0:0:
240,208,37361,1,0,0:0:0:0:
240,176,37460,1,0,0:0:0:0:
272,176,37559,1,0,0:0:0:0:
272,208,37658,1,0,0:0:0:0:
240,208,37757,5,0,0:0:0:0:
240,176,37856,1,0,0:0:0:0:
272,176,37956,1,0,0:0:0:0:
272,208,38055,1,0,0:0:0:0:
240,208,38154,1,0,0:0:0:0:
240,176,38253,1,0,0:0:0:0:
272,176,38352,1,0,0:0:0:0:
272,208,38451,1,0,0:0:0:0:
240,208,38550,5,0,0:0:0:0:
240,176,38649,1,0,0:0:0:0:
272,176,38748,1,0,0:0:0:0:
272,208,38847,1,0,0:0:0:0:
240,208,38946,1,0,0:0:0:0:
240,176,39045,1,0,0:0:0:0:
272,176,39144,1,0,0:0:0:0:
272,208,39243,1,0,0:0:0:0:
240,208,39343,5,0,0:0:0:0:
240,176,39442,1,0,0:0:0:0:
272,176,39541,1,0,0:0:0:0:
272,208,39640,1,0,0:0:0:0:
240,208,39739,1,0,0:0:0:0:
240,176,39838,1,0,0:0:0:0:
272,176,39937,1,0,0:0:0:0:
272,208,40036,1,0,0:0:0:0:
240,208,40135,5,0,0:0:0:0:
240,176,40234,1,0,0:0:0:0:
272,176,40333,1,0,0:0:0:0:
272,208,40432,1,0,0:0:0:0:
240,208,40531,1,0,0:0:0:0:
240,176,40630,1,0,0:0:0:0:
272,176,40730,1,0,0:0:0:0:
272,208,40829,1,0,0:0:0:0:
240,208,40928,5,0,0:0:0:0:
240,176,41027,1,0,0:0:0:0:
272,176,41126,1,0,0:0:0:0:
272,208,41225,1,0,0:0:0:0:
240,208,41324,1,0,0:0:0:0:
240,176,41423,1,0,0:0:0:0:
272,176,41522,1,0,0:0:0:0:
272,208,41621,1,0,0:0:0:0:
240,208,41720,5,0,0:0:0:0:
240,176,41819,1,0,0:0:0:0:
272,176,41918,1,0,0:0:0:0:
272,208,42017,1,0,0:0:0:0:
240,208,42117,1,0,0:0:0:0:
240,176,42216,1,0,0:0:0:0:
272,176,42315,1,0,0:0:0:0:
272,208,42414,1,0,0:0:0:0:
240,208,42513,5,0,0:0:0:0:
240,176,42612,1,0,0:0:0:0:
272,176,42711,1,0,0:0:0:0:
272,208,42810,1,0,0:0:0:0:
240,208,42909,1,0,0:0:0:0:
240,176,43008,1,0,0:0:0:0:
272,176,43107,1,0,0:0:0:0:
272,208,43206,1,0,0:0:0:0:
240,208,43305,5,0,0:0:0:0:
240,176,43404,1,0,0:0:0:0:
272,176,43504,1,0,0:0:0:0:
272,208,43603,1,0,0:0:0:0:
240,208,43702,1,0,0:0:0:0:
240,176,43801,1,0,0:0:0:0:
272,176,43900,1,0,0:0:0:0:
272,208,43999,1,0,0:0:0:0:
240,208,44098,5,0,0:0:0:0:
240,176,44197,1,0,0:0:0:0:
272,176,44296,1,0,0:0:0:0:
272,208,44395,1,0,0:0:0:0:
240,208,44494,1,0,0:0:0:0:
240,176,44593,1,0,0:0:0:0:
272,176,44692,1,0,0:0:0:0:
272,208,44791,1,0,0:0:0:0:
240,208,44891,5,0,0:0:0:0:
240,176,44990,1,0,0:0:0:0:
272,176,45089,1,0,0:0:0:0:
272,208,45188,1,0,0:0:0:0:
240,208,45287,1,0,0:0:0:0:
240,176,45386,1,0,0:0:0:0:
272,176,45485,1,0,0:0:0:0:
272,208,45584,1,0,0:0:0:0:
240,208,45683,5,0,0:0:0:0:
240,176,45782,1,0,0:0:0:0:
272,176,45881,1,0,0:0:0:0:
272,208,45980,1,0,0:0:0:0:
240,208,46079,1,0,0:0:0:0:
240,176,46178,1,0,0:0:0:0:
272,176,46278,1,0,0:0:0:0:
272,208,46377,1,0,0:0:0:0:
240,208,46476,5,0,0:0:0:0:
240,176,46575,1,0,0:0:0:0:
272,176,46674,1,0,0:0:0:0:
272,208,46773,1,0,0:0:0:0:
240,208,46872,1,0,0:0:0:0:
240,176,46971,1,0,0:0:0:0:
272,176,47070,1,0,0:0:0:0:
272,208,47169,1,0,0:0:0:0:
240,208,47268,5,0,0:0:0:0:
240,176,47367,1,0,0:0:0:0:
272,176,47466,1,0,0:0:0:0:
272,208,47565,1,0,0:0:0:0:
240,208,47665,1,0,0:0:0:0:
240,176,47764,1,0,0:0:0:0:
272,176,47863,1,0,0:0:0:0:
272,208,47962,1,0,0:0:0:0:
240,208,48061,5,0,0:0:0:0:
240,176,48160,1,0,0:0:0:0:
272,176,48259,1,0,0:0:0:0:
272,208,48358,1,0,0:0:0:0:
240,208,48457,1,0,0:0:0:0:
240,176,48556,1,0,0:0:0:0:
272,176,48655,1,0,0:0:0:0:
272,208,48754,1,0,0:0:0:0:
240,208,48853,5,0,0:0:0:0:
240,176,48953,1,0,0:0:0:0:
272,176,49052,1,0,0:0:0:0:
272,208,49151,1,0,0:0:0:0:
240,208,49250,1,0,0:0:0:0:
240,176,49349,1,0,0:0:0:0:
272,176,49448,1,0,0:0:0:0:
272,208,49547,1,0,0:0:0:0:
240,208,49646,5,0,0:0:0:0:
240,176,49745,1,0,0:0:0:0:
272,176,49844,1,0,0:0:0:0:
272,208,49943,1,0,0:0:0:0:
240,208,50042,1,0,0:0:0:0:
240,176,50141,1,0,0:0:0:0:
272,176,50240,1,0,0:0:0:0:
272,208,50340,1,0,0:0:0:0:
240,208,50439,5,0,0:0:0:0:
240,176,50538,1,0,0:0:0:0:
272,176,50637,1,0,0:0:0:0:
272,208,50736,1,0,0:0:0:0:
240,208,50835,1,0,0:0:0:0:
240,176,50934,1,0,0:0:0:0:
272,176,51033,1,0,0:0:0:0:
272,208,51132,1,0,0:0:0:0:
240,208,51231,1,0,0:0:0:0:
240,176,51330,1,0,0:0:0:0:
272,176,51429,1,0,0:0:0:0:
272,208,51528,1,0,0:0:0:0:
240,208,51627,1,0,0:0:0:0:
240,176,51727,1,0,0:0:0:0:
272,176,51826,1,0,0:0:0:0:
272,208,51925,1,0,0:0:0:0:
240,208,52024,5,0,0:0:0:0:
240,176,52123,1,0,0:0:0:0:
272,176,52222,1,0,0:0:0:0:
272,208,52321,1,0,0:0:0:0:
240,208,52420,1,0,0:0:0:0:
240,176,52519,1,0,0:0:0:0:
272,176,52618,1,0,0:0:0:0:
272,208,52717,1,0,0:0:0:0:
240,208,52816,5,0,0:0:0:0:
240,176,52915,1,0,0:0:0:0:
272,176,53014,1,0,0:0:0:0:
272,208,53114,1,0,0:0:0:0:
240,208,53213,1,0,0:0:0:0:
240,176,53312,1,0,0:0:0:0:
272,176,53411,1,0,0:0:0:0:
272,208,53510,1,0,0:0:0:0:
240,208,53609,5,0,0:0:0:0:
240,176,53708,1,0,0:0:0:0:
272,176,53807,1,0,0:0:0:0:
272,208,53906,1,0,0:0:0:0:
240,208,54005,1,0,0:0:0:0:
240,176,54104,1,0,0:0:0:0:
272,176,54203,1,0,0:0:0:0:
272,208,54302,1,0,0:0:0:0:
240,208,54401,5,0,0:0:0:0:
240,176,54501,1,0,0:0:0:0:
272,176,54600,1,0,0:0:0:0:
272,208,54699,1,0,0:0:0:0:
240,208,54798,1,0,0:0:0:0:
240,176,54897,1,0,0:0:0:0:
272,176,54996,1,0,0:0:0:0:
272,208,55095,1,0,0:0:0:0:
240,208,55194,5,0,0:0:0:0:
240,176,55293,1,0,0:0:0:0:
272,176,55392,1,0,0:0:0:0:
272,208,55491,1,0,0:0:0:0:
240,208,55590,1,0,0:0:0:0:
240,176,55689,1,0,0:0:0:0:
272,176,55788,1,0,0:0:0:0:
272,208,55888,1,0,0:0:0:0:
240,208,55987,5,0,0:0:0:0:
240,176,56086,1,0,0:0:0:0:
272,176,56185,1,0,0:0:0:0:
272,208,56284,1,0,0:0:0:0:
240,208,56383,1,0,0:0:0:0:
240,176,56482,1,0,0:0:0:0:
272,176,56581,1,0,0:0:0:0:
272,208,56680,1,0,0:0:0:0:
240,208,56779,5,0,0:0:0:0:
240,176,56878,1,0,0:0:0:0:
272,176,56977,1,0,0:0:0:0:
272,208,57076,1,0,0:0:0:0:
240,208,57175,1,0,0:0:0:0:
240,176,57275,1,0,0:0:0:0:
272,176,57374,1,0,0:0:0:0:
272,208,57473,1,0,0:0:0:0:
240,208,57572,5,0,0:0:0:0:
240,176,57671,1,0,0:0:0:0:
272,176,57770,1,0,0:0:0:0:
272,208,57869,1,0,0:0:0:0:
240,208,57968,1,0,0:0:0:0:
240,176,58067,1,0,0:0:0:0:
272,176,58166,1,0,0:0:0:0:
272,208,58265,1,0,0:0:0:0:
240,208,58364,5,0,0:0:0:0:
240,176,58463,1,0,0:0:0:0:
272,176,58562,1,0,0:0:0:0:
272,208,58662,1,0,0:0:0:0:
240,208,58761,1,0,0:0:0:0:
240,176,58860,1,0,0:0:0:0:
272,176,58959,1,0,0:0:0:0:
272,208,59058,1,0,0:0:0:0:
240,208,59157,5,0,0:0:0:0:
240,176,59256,1,0,0:0:0:0:
272,176,59355,1,0,0:0:0:0:
272,208,59454,1,0,0:0:0:0:
240,208,59553,1,0,0:0:0:0:
240,176,59652,1,0,0:0:0:0:
272,176,59751,1,0,0:0:0:0:
272,208,59850,1,0,0:0:0:0:
240,208,59949,5,0,0:0:0:0:
240,176,60049,1,0,0:0:0:0:
272,176,60148,1,0,0:0:0:0:
272,208,60247,1,0,0:0:0:0:
240,208,60346,1,0,0:0:0:0:
240,176,60445,1,0,0:0:0:0:
272,176,60544,1,0,0:0:0:0:
272,208,60643,1,0,0:0:0:0:
240,208,60742,5,0,0:0:0:0:
240,176,60841,1,0,0:0:0:0:
272,176,60940,1,0,0:0:0:0:
272,208,61039,1,0,0:0:0:0:
240,208,61138,1,0,0:0:0:0:
240,176,61237,1,0,0:0:0:0:
272,176,61337,1,0,0:0:0:0:
272,208,61436,1,0,0:0:0:0:
240,208,61535,5,0,0:0:0:0:
240,176,61634,1,0,0:0:0:0:
272,176,61733,1,0,0:0:0:0:
272,208,61832,1,0,0:0:0:0:
240,208,61931,1,0,0:0:0:0:
240,176,62030,1,0,0:0:0:0:
272,176,62129,1,0,0:0:0:0:
272,208,62228,1,0,0:0:0:0:
240,208,62327,5,0,0:0:0:0:
240,176,62426,1,0,0:0:0:0:
272,176,62525,1,0,0:0:0:0:
272,208,62624,1,0,0:0:0:0:
240,208,62724,1,0,0:0:0:0:
240,176,62823,1,0,0:0:0:0:
272,176,62922,1,0,0:0:0:0:
272,208,63021,1,0,0:0:0:0:
240,208,63120,5,0,0:0:0:0:
240,176,63219,1,0,0:0:0:0:
272,176,63318,1,0,0:0:0:0:
272,208,63417,1,0,0:0:0:0:
240,208,63516,1,0,0:0:0:0:
240,176,63615,1,0,0:0:0:0:
272,176,63714,1,0,0:0:0:0:
272,208,63813,1,0,0:0:0:0:
240,208,63912,5,0,0:0:0:0:
240,176,63999,1,0,0:0:0:0:
272,176,64086,1,0,0:0:0:0:
272,208,64174,1,0,0:0:0:0:
240,208,64261,1,0,0:0:0:0:
240,176,64349,1,0,0:0:0:0:
272,176,64436,1,0,0:0:0:0:
272,208,64523,1,0,0:0:0:0:
240,208,64611,5,0,0:0:0:0:
240,176,64698,1,0,0:0:0:0:
272,176,64786,1,0,0:0:0:0:
272,208,64873,1,0,0:0:0:0:
240,208,64961,1,0,0:0:0:0:
240,176,65048,1,0,0:0:0:0:
272,176,65135,1,0,0:0:0:0:
272,208,65223,1,0,0:0:0:0:
240,208,65310,5,0,0:0:0:0:
240,176,65398,1,0,0:0:0:0:
272,176,65485,1,0,0:0:0:0:
272,208,65573,1,0,0:0:0:0:
240,208,65660,1,0,0:0:0:0:
240,176,65747,1,0,0:0:0:0:
272,176,65835,1,0,0:0:0:0:
272,208,65922,1,0,0:0:0:0:
240,208,66010,5,0,0:0:0:0:
240,176,66097,1,0,0:0:0:0:
272,176,66185,1,0,0:0:0:0:
272,208,66272,1,0,0:0:0:0:
240,208,66359,1,0,0:0:0:0:
240,176,66447,1,0,0:0:0:0:
272,176,66534,1,0,0:0:0:0:
272,208,66621,1,0,0:0:0:0:
240,208,66709,5,0,0:0:0:0:
240,176,66797,1,0,0:0:0:0:
272,176,66884,1,0,0:0:0:0:
272,208,66972,1,0,0:0:0:0:
240,208,67059,1,0,0:0:0:0:
240,176,67146,1,0,0:0:0:0:
272,176,67234,1,0,0:0:0:0:
272,208,67321,1,0,0:0:0:0:
240,208,67409,5,0,0:0:0:0:
240,176,67496,1,0,0:0:0:0:
272,176,67583,1,0,0:0:0:0:
272,208,67670,1,0,0:0:0:0:
240,208,67758,1,0,0:0:0:0:
240,176,67845,1,0,0:0:0:0:
272,176,67933,1,0,0:0:0:0:
272,208,68021,1,0,0:0:0:0:
240,208,68108,5,0,0:0:0:0:
240,176,68195,1,0,0:0:0:0:
272,176,68283,1,0,0:0:0:0:
272,208,68370,1,0,0:0:0:0:
240,208,68458,1,0,0:0:0:0:
240,176,68545,1,0,0:0:0:0:
272,176,68632,1,0,0:0:0:0:
272,208,68720,1,0,0:0:0:0:
240,208,68807,5,0,0:0:0:0:
240,176,68894,1,0,0:0:0:0:
272,176,68982,1,0,0:0:0:0:
272,208,69069,1,0,0:0:0:0:
240,208,69156,1,0,0:0:0:0:
240,176,69244,1,0,0:0:0:0:
272,176,69331,1,0,0:0:0:0:
272,208,69419,1,0,0:0:0:0:
240,208,69507,5,0,0:0:0:0:
240,176,69594,1,0,0:0:0:0:
272,176,69681,1,0,0:0:0:0:
272,208,69769,1,0,0:0:0:0:
240,208,69856,1,0,0:0:0:0:
240,176,69944,1,0,0:0:0:0:
272,176,70031,1,0,0:0:0:0:
272,208,70119,1,0,0:0:0:0:
240,208,70206,5,0,0:0:0:0:
240,176,70294,1,0,0:0:0:0:
272,176,70381,1,0,0:0:0:0:
272,208,70469,1,0,0:0:0:0:
240,208,70556,1,0,0:0:0:0:
240,176,70644,1,0,0:0:0:0:
272,176,70731,1,0,0:0:0:0:
272,208,70818,1,0,0:0:0:0:
240,208,70905,5,0,0:0:0:0:
240,176,70993,1,0,0:0:0:0:
272,176,71080,1,0,0:0:0:0:
272,208,71167,1,0,0:0:0:0:
240,208,71255,1,0,0:0:0:0:
240,176,71342,1,0,0:0:0:0:
272,176,71430,1,0,0:0:0:0:
272,208,71518,1,0,0:0:0:0:
240,208,71605,5,0,0:0:0:0:
240,176,71692,1,0,0:0:0:0:
272,176,71780,1,0,0:0:0:0:
272,208,71867,1,0,0:0:0:0:
240,208,71955,1,0,0:0:0:0:
240,176,72042,1,0,0:0:0:0:
272,176,72130,1,0,0:0:0:0:
272,208,72217,1,0,0:0:0:0:
240,208,72305,5,0,0:0:0:0:
240,176,72392,1,0,0:0:0:0:
272,176,72480,1,0,0:0:0:0:
272,208,72567,1,0,0:0:0:0:
240,208,72655,1,0,0:0:0:0:
240,176,72742,1,0,0:0:0:0:
272,176,72829,1,0,0:0:0:0:
272,208,72916,1,0,0:0:0:0:
240,208,73004,5,0,0:0:0:0:
240,176,73091,1,0,0:0:0:0:
272,176,73179,1,0,0:0:0:0:
272,208,73266,1,0,0:0:0:0:
240,208,73353,1,0,0:0:0:0:
240,176,73440,1,0,0:0:0:0:
272,176,73528,1,0,0:0:0:0:
272,208,73615,1,0,0:0:0:0:
240,208,73704,5,0,0:0:0:0:
240,176,73791,1,0,0:0:0:0:
272,176,73878,1,0,0:0:0:0:
272,208,73966,1,0,0:0:0:0:
240,208,74053,1,0,0:0:0:0:
240,176,74140,1,0,0:0:0:0:
272,176,74227,1,0,0:0:0:0:
272,208,74315,1,0,0:0:0:0:
240,208,74402,5,0,0:0:0:0:
240,176,74490,1,0,0:0:0:0:
272,176,74577,1,0,0:0:0:0:
272,208,74665,1,0,0:0:0:0:
240,208,74752,1,0,0:0:0:0:
240,176,74840,1,0,0:0:0:0:
272,176,74927,1,0,0:0:0:0:
272,208,75015,1,0,0:0:0:0:
240,208,75102,5,0,0:0:0:0:
240,176,75190,1,0,0:0:0:0:
272,176,75277,1,0,0:0:0:0:
272,208,75364,1,0,0:0:0:0:
240,208,75451,1,0,0:0:0:0:
240,176,75539,1,0,0:0:0:0:
272,176,75626,1,0,0:0:0:0:
272,208,75714,1,0,0:0:0:0:
240,208,75801,5,0,0:0:0:0:
240,176,75889,1,0,0:0:0:0:
272,176,75976,1,0,0:0:0:0:
272,208,76064,1,0,0:0:0:0:
240,208,76151,1,0,0:0:0:0:
240,176,76239,1,0,0:0:0:0:
272,176,76326,1,0,0:0:0:0:
272,208,76414,1,0,0:0:0:0:
240,208,76501,5,0,0:0:0:0:
240,176,76589,1,0,0:0:0:0:
272,176,76676,1,0,0:0:0:0:
272,208,76763,1,0,0:0:0:0:
240,208,76850,1,0,0:0:0:0:
240,176,76938,1,0,0:0:0:0:
272,176,77025,1,0,0:0:0:0:
272,208,77113,1,0,0:0:0:0:
240,208,77200,5,0,0:0:0:0:
240,176,77288,1,0,0:0:0:0:
272,176,77375,1,0,0:0:0:0:
272,208,77463,1,0,0:0:0:0:
240,208,77550,1,0,0:0:0:0:
240,176,77638,1,0,0:0:0:0:
272,176,77725,1,0,0:0:0:0:
272,208,77813,1,0,0:0:0:0:
240,208,77900,5,0,0:0:0:0:
240,176,77988,1,0,0:0:0:0:
272,176,78075,1,0,0:0:0:0:
272,208,78162,1,0,0:0:0:0:
240,208,78249,1,0,0:0:0:0:
240,176,78337,1,0,0:0:0:0:
272,176,78424,1,0,0:0:0:0:
272,208,78512,1,0,0:0:0:0:
240,208,78599,5,0,0:0:0:0:
240,176,78687,1,0,0:0:0:0:
272,176,78774,1,0,0:0:0:0:
272,208,78862,1,0,0:0:0:0:
240,208,78949,1,0,0:0:0:0:
240,176,79037,1,0,0:0:0:0:
272,176,79124,1,0,0:0:0:0:
272,208,79212,1,0,0:0:0:0:
240,208,79299,5,0,0:0:0:0:
240,176,79387,1,0,0:0:0:0:
272,176,79474,1,0,0:0:0:0:
272,208,79561,1,0,0:0:0:0:
240,208,79648,1,0,0:0:0:0:
240,176,79736,1,0,0:0:0:0:
272,176,79823,1,0,0:0:0:0:
272,208,79911,1,0,0:0:0:0:
240,208,79998,5,0,0:0:0:0:
240,176,80086,1,0,0:0:0:0:
272,176,80173,1,0,0:0:0:0:
272,208,80261,1,0,0:0:0:0:
240,208,80348,1,0,0:0:0:0:
240,176,80436,1,0,0:0:0:0:
272,176,80523,1,0,0:0:0:0:
272,208,80611,1,0,0:0:0:0:
240,208,80698,5,0,0:0:0:0:
240,176,80786,1,0,0:0:0:0:
272,176,80873,1,0,0:0:0:0:
272,208,80960,1,0,0:0:0:0:
240,208,81047,1,0,0:0:0:0:
240,176,81135,1,0,0:0:0:0:
272,176,81222,1,0,0:0:0:0:
272,208,81310,1,0,0:0:0:0:
240,208,81397,5,0,0:0:0:0:
240,176,81485,1,0,0:0:0:0:
272,176,81572,1,0,0:0:0:0:
272,208,81660,1,0,0:0:0:0:
240,208,81747,1,0,0:0:0:0:
240,176,81835,1,0,0:0:0:0:
272,176,81922,1,0,0:0:0:0:
272,208,82010,1,0,0:0:0:0:
240,208,82097,5,0,0:0:0:0:
240,176,82183,1,0,0:0:0:0:
272,176,82272,1,0,0:0:0:0:
272,208,82359,1,0,0:0:0:0:
240,208,82446,1,0,0:0:0:0:
240,176,82534,1,0,0:0:0:0:
272,176,82621,1,0,0:0:0:0:
272,208,82709,1,0,0:0:0:0:
240,208,82795,5,0,0:0:0:0:
240,176,82883,1,0,0:0:0:0:
272,176,82970,1,0,0:0:0:0:
272,208,83058,1,0,0:0:0:0:
240,208,83145,1,0,0:0:0:0:
240,176,83233,1,0,0:0:0:0:
272,176,83320,1,0,0:0:0:0:
272,208,83408,1,0,0:0:0:0:
240,208,83495,5,0,0:0:0:0:
240,176,83583,1,0,0:0:0:0:
272,176,83670,1,0,0:0:0:0:
272,208,83757,1,0,0:0:0:0:
240,208,83844,1,0,0:0:0:0:
240,176,83932,1,0,0:0:0:0:
272,176,84019,1,0,0:0:0:0:
272,208,84107,1,0,0:0:0:0:
240,208,84194,5,0,0:0:0:0:
240,176,84282,1,0,0:0:0:0:
272,176,84369,1,0,0:0:0:0:
272,208,84457,1,0,0:0:0:0:
240,208,84544,1,0,0:0:0:0:
240,176,84632,1,0,0:0:0:0:
272,176,84719,1,0,0:0:0:0:
272,208,84807,1,0,0:0:0:0:
240,208,84894,5,0,0:0:0:0:
240,176,84982,1,0,0:0:0:0:
272,176,85069,1,0,0:0:0:0:
272,208,85156,1,0,0:0:0:0:
240,208,85243,1,0,0:0:0:0:
240,176,85331,1,0,0:0:0:0:
272,176,85418,1,0,0:0:0:0:
272,208,85506,1,0,0:0:0:0:
240,208,85593,5,0,0:0:0:0:
240,176,85681,1,0,0:0:0:0:
272,176,85768,1,0,0:0:0:0:
272,208,85856,1,0,0:0:0:0:
240,208,85943,1,0,0:0:0:0:
240,176,86031,1,0,0:0:0:0:
272,176,86118,1,0,0:0:0:0:
272,208,86206,1,0,0:0:0:0:
256,192,86292,5,0,0:0:0:0:
240,208,108673,5,0,0:0:0:0:
240,176,108743,1,0,0:0:0:0:
272,176,108814,1,0,0:0:0:0:
272,208,108885,1,0,0:0:0:0:
240,208,108956,1,0,0:0:0:0:
240,176,109026,1,0,0:0:0:0:
272,176,109097,1,0,0:0:0:0:
272,208,109168,1,0,0:0:0:0:
240,208,109239,5,0,0:0:0:0:
240,176,109309,1,0,0:0:0:0:
272,176,109380,1,0,0:0:0:0:
272,208,109451,1,0,0:0:0:0:
240,208,109522,1,0,0:0:0:0:
240,176,109592,1,0,0:0:0:0:
272,176,109663,1,0,0:0:0:0:
272,208,109734,1,0,0:0:0:0:
240,208,109805,5,0,0:0:0:0:
240,176,109875,1,0,0:0:0:0:
272,176,109946,1,0,0:0:0:0:
272,208,110017,1,0,0:0:0:0:
240,208,110088,1,0,0:0:0:0:
240,176,110158,1,0,0:0:0:0:
272,176,110229,1,0,0:0:0:0:
272,208,110300,1,0,0:0:0:0:
240,208,110371,5,0,0:0:0:0:
240,176,110441,1,0,0:0:0:0:
272,176,110512,1,0,0:0:0:0:
272,208,110583,1,0,0:0:0:0:
240,208,110654,1,0,0:0:0:0:
240,176,110726,1,0,0:0:0:0:
272,176,110795,1,0,0:0:0:0:
272,208,110866,1,0,0:0:0:0:
240,208,110938,5,0,0:0:0:0:
240,176,111008,1,0,0:0:0:0:
272,176,111079,1,0,0:0:0:0:
272,208,111150,1,0,0:0:0:0:
240,208,111221,1,0,0:0:0:0:
240,176,111291,1,0,0:0:0:0:
272,176,111362,1,0,0:0:0:0:
272,208,111433,1,0,0:0:0:0:
240,208,111504,5,0,0:0:0:0:
240,176,111574,1,0,0:0:0:0:
272,176,111645,1,0,0:0:0:0:
272,208,111716,1,0,0:0:0:0:
240,208,111787,1,0,0:0:0:0:
240,176,111857,1,0,0:0:0:0:
272,176,111928,1,0,0:0:0:0:
272,208,111999,1,0,0:0:0:0:
240,208,112071,5,0,0:0:0:0:
240,176,112141,1,0,0:0:0:0:
272,176,112212,1,0,0:0:0:0:
272,208,112283,1,0,0:0:0:0:
240,208,112354,1,0,0:0:0:0:
240,176,112424,1,0,0:0:0:0:
272,176,112495,1,0,0:0:0:0:
272,208,112566,1,0,0:0:0:0:
240,208,112637,5,0,0:0:0:0:
240,176,112707,1,0,0:0:0:0:
272,176,112778,1,0,0:0:0:0:
272,208,112849,1,0,0:0:0:0:
240,208,112920,1,0,0:0:0:0:
240,176,112990,1,0,0:0:0:0:
272,176,113061,1,0,0:0:0:0:
272,208,113132,1,0,0:0:0:0:
240,208,113204,5,0,0:0:0:0:
240,176,113274,1,0,0:0:0:0:
272,176,113345,1,0,0:0:0:0:
272,208,113416,1,0,0:0:0:0:
240,208,113487,1,0,0:0:0:0:
240,176,113557,1,0,0:0:0:0:
272,176,113628,1,0,0:0:0:0:
272,208,113699,1,0,0:0:0:0:
240,208,113770,5,0,0:0:0:0:
240,176,113840,1,0,0:0:0:0:
272,176,113911,1,0,0:0:0:0:
272,208,113982,1,0,0:0:0:0:
240,208,114053,1,0,0:0:0:0:
240,176,114123,1,0,0:0:0:0:
272,176,114194,1,0,0:0:0:0:
272,208,114265,1,0,0:0:0:0:
240,208,114336,5,0,0:0:0:0:
240,176,114406,1,0,0:0:0:0:
272,176,114477,1,0,0:0:0:0:
272,208,114548,1,0,0:0:0:0:
240,208,114619,1,0,0:0:0:0:
240,176,114689,1,0,0:0:0:0:
272,176,114760,1,0,0:0:0:0:
272,208,114831,1,0,0:0:0:0:
240,208,114902,5,0,0:0:0:0:
240,176,114974,1,0,0:0:0:0:
272,176,115043,1,0,0:0:0:0:
272,208,115114,1,0,0:0:0:0:
240,208,115185,1,0,0:0:0:0:
240,176,115257,1,0,0:0:0:0:
272,176,115328,1,0,0:0:0:0:
272,208,115397,1,0,0:0:0:0:
240,208,115469,5,0,0:0:0:0:
240,176,115539,1,0,0:0:0:0:
272,176,115610,1,0,0:0:0:0:
272,208,115681,1,0,0:0:0:0:
240,208,115752,1,0,0:0:0:0:
240,176,115822,1,0,0:0:0:0:
272,176,115893,1,0,0:0:0:0:
272,208,115964,1,0,0:0:0:0:
240,208,116035,5,0,0:0:0:0:
240,176,116105,1,0,0:0:0:0:
272,176,116176,1,0,0:0:0:0:
272,208,116247,1,0,0:0:0:0:
240,208,116318,1,0,0:0:0:0:
240,176,116388,1,0,0:0:0:0:
272,176,116459,1,0,0:0:0:0:
272,208,116530,1,0,0:0:0:0:
240,208,116602,5,0,0:0:0:0:
240,176,116672,1,0,0:0:0:0:
272,176,116743,1,0,0:0:0:0:
272,208,116814,1,0,0:0:0:0:
240,208,116885,1,0,0:0:0:0:
240,176,116955,1,0,0:0:0:0:
272,176,117026,1,0,0:0:0:0:
272,208,117097,1,0,0:0:0:0:
240,208,117168,5,0,0:0:0:0:
240,176,117238,1,0,0:0:0:0:
272,176,117309,1,0,0:0:0:0:
272,208,117380,1,0,0:0:0:0:
240,208,117451,1,0,0:0:0:0:
240,176,117521,1,0,0:0:0:0:
272,176,117592,1,0,0:0:0:0:
272,208,117663,1,0,0:0:0:0:
240,208,117735,5,0,0:0:0:0:
240,176,117805,1,0,0:0:0:0:
272,176,117876,1,0,0:0:0:0:
272,208,117947,1,0,0:0:0:0:
240,208,118018,1,0,0:0:0:0:
240,176,118088,1,0,0:0:0:0:
272,176,118159,1,0,0:0:0:0:
272,208,118230,1,0,0:0:0:0:
240,208,118301,5,0,0:0:0:0:
240,176,118371,1,0,0:0:0:0:
272,176,118442,1,0,0:0:0:0:
272,208,118513,1,0,0:0:0:0:
240,208,118584,1,0,0:0:0:0:
240,176,118654,1,0,0:0:0:0:
272,176,118725,1,0,0:0:0:0:
272,208,118796,1,0,0:0:0:0:
240,208,118867,5,0,0:0:0:0:
240,176,118937,1,0,0:0:0:0:
272,176,119008,1,0,0:0:0:0:
272,208,119079,1,0,0:0:0:0:
240,208,119150,1,0,0:0:0:0:
240,176,119220,1,0,0:0:0:0:
272,176,119291,1,0,0:0:0:0:
272,208,119362,1,0,0:0:0:0:
240,208,119433,5,0,0:0:0:0:
240,176,119505,1,0,0:0:0:0:
272,176,119574,1,0,0:0:0:0:
272,208,119645,1,0,0:0:0:0:
240,208,119716,1,0,0:0:0:0:
240,176,119788,1,0,0:0:0:0:
272,176,119859,1,0,0:0:0:0:
272,208,119928,1,0,0:0:0:0:
240,208,120000,5,0,0:0:0:0:
240,176,120070,1,0,0:0:0:0:
272,176,120141,1,0,0:0:0:0:
272,208,120212,1,0,0:0:0:0:
240,208,120283,1,0,0:0:0:0:
240,176,120353,1,0,0:0:0:0:
272,176,120424,1,0,0:0:0:0:
272,208,120495,1,0,0:0:0:0:
240,208,120566,5,0,0:0:0:0:
240,176,120636,1,0,0:0:0:0:
272,176,120707,1,0,0:0:0:0:
272,208,120778,1,0,0:0:0:0:
240,208,120849,1,0,0:0:0:0:
240,176,120921,1,0,0:0:0:0:
272,176,120990,1,0,0:0:0:0:
272,208,121061,1,0,0:0:0:0:
240,208,121133,5,0,0:0:0:0:
240,176,121203,1,0,0:0:0:0:
272,176,121274,1,0,0:0:0:0:
272,208,121345,1,0,0:0:0:0:
240,208,121416,1,0,0:0:0:0:
240,176,121486,1,0,0:0:0:0:
272,176,121557,1,0,0:0:0:0:
272,208,121628,1,0,0:0:0:0:
240,208,121699,5,0,0:0:0:0:
240,176,121769,1,0,0:0:0:0:
272,176,121840,1,0,0:0:0:0:
272,208,121911,1,0,0:0:0:0:
240,208,121982,1,0,0:0:0:0:
240,176,122052,1,0,0:0:0:0:
272,176,122123,1,0,0:0:0:0:
272,208,122194,1,0,0:0:0:0:
240,208,122266,5,0,0:0:0:0:
240,176,122336,1,0,0:0:0:0:
272,176,122407,1,0,0:0:0:0:
272,208,122478,1,0,0:0:0:0:
240,208,122549,1,0,0:0:0:0:
240,176,122619,1,0,0:0:0:0:
272,176,122690,1,0,0:0:0:0:
272,208,122761,1,0,0:0:0:0:
240,208,122832,5,0,0:0:0:0:
240,176,122902,1,0,0:0:0:0:
272,176,122973,1,0,0:0:0:0:
272,208,123044,1,0,0:0:0:0:
240,208,123115,1,0,0:0:0:0:
240,176,123185,1,0,0:0:0:0:
272,176,123256,1,0,0:0:0:0:
272,208,123327,1,0,0:0:0:0:
240,208,123399,5,0,0:0:0:0:
240,176,123469,1,0,0:0:0:0:
272,176,123540,1,0,0:0:0:0:
272,208,123611,1,0,0:0:0:0:
240,208,123682,1,0,0:0:0:0:
240,176,123752,1,0,0:0:0:0:
272,176,123823,1,0,0:0:0:0:
272,208,123894,1,0,0:0:0:0:
240,208,123965,5,0,0:0:0:0:
240,176,124035,1,0,0:0:0:0:
272,176,124106,1,0,0:0:0:0:
272,208,124177,1,0,0:0:0:0:
240,208,124248,1,0,0:0:0:0:
240,176,124318,1,0,0:0:0:0:
272,176,124389,1,0,0:0:0:0:
272,208,124460,1,0,0:0:0:0:
240,208,124532,5,0,0:0:0:0:
240,176,124602,1,0,0:0:0:0:
272,176,124673,1,0,0:0:0:0:
272,208,124744,1,0,0:0:0:0:
240,208,124815,1,0,0:0:0:0:
240,176,124885,1,0,0:0:0:0:
272,176,124956,1,0,0:0:0:0:
272,208,125027,1,0,0:0:0:0:
240,208,125098,5,0,0:0:0:0:
240,176,125168,1,0,0:0:0:0:
272,176,125239,1,0,0:0:0:0:
272,208,125310,1,0,0:0:0:0:
240,208,125381,1,0,0:0:0:0:
240,176,125451,1,0,0:0:0:0:
272,176,125522,1,0,0:0:0:0:
272,208,125593,1,0,0:0:0:0:
240,208,125664,5,0,0:0:0:0:
240,176,125734,1,0,0:0:0:0:
272,176,125805,1,0,0:0:0:0:
272,208,125876,1,0,0:0:0:0:
240,208,125947,1,0,0:0:0:0:
240,176,126017,1,0,0:0:0:0:
272,176,126088,1,0,0:0:0:0:
272,208,126159,1,0,0:0:0:0:
240,208,126230,5,0,0:0:0:0:
240,176,126300,1,0,0:0:0:0:
272,176,126371,1,0,0:0:0:0:
272,208,126442,1,0,0:0:0:0:
240,208,126513,1,0,0:0:0:0:
240,176,126583,1,0,0:0:0:0:
272,176,126654,1,0,0:0:0:0:
272,208,126725,1,0,0:0:0:0:
240,208,126797,5,0,0:0:0:0:
240,176,126856,1,0,0:0:0:0:
272,176,126915,1,0,0:0:0:0:
272,208,126975,1,0,0:0:0:0:
240,208,127034,1,0,0:0:0:0:
240,176,127094,1,0,0:0:0:0:
272,176,127153,1,0,0:0:0:0:
272,208,127213,1,0,0:0:0:0:
240,208,127272,5,0,0:0:0:0:
240,176,127332,1,0,0:0:0:0:
272,176,127391,1,0,0:0:0:0:
272,208,127450,1,0,0:0:0:0:
240,208,127510,1,0,0:0:0:0:
240,176,127569,1,0,0:0:0:0:
272,176,127629,1,0,0:0:0:0:
272,208,127688,1,0,0:0:0:0:
240,208,127748,5,0,0:0:0:0:
240,176,127807,1,0,0:0:0:0:
272,176,127866,1,0,0:0:0:0:
272,208,127926,1,0,0:0:0:0:
240,208,127985,1,0,0:0:0:0:
240,176,128045,1,0,0:0:0:0:
272,176,128104,1,0,0:0:0:0:
272,208,128164,1,0,0:0:0:0:
240,208,128223,5,0,0:0:0:0:
240,176,128283,1,0,0:0:0:0:
272,176,128342,1,0,0:0:0:0:
272,208,128401,1,0,0:0:0:0:
240,208,128461,1,0,0:0:0:0:
240,176,128520,1,0,0:0:0:0:
272,176,128580,1,0,0:0:0:0:
272,208,128639,1,0,0:0:0:0:
240,208,128699,5,0,0:0:0:0:
240,176,128758,1,0,0:0:0:0:
272,176,128817,1,0,0:0:0:0:
272,208,128877,1,0,0:0:0:0:
240,208,128936,1,0,0:0:0:0:
240,176,128996,1,0,0:0:0:0:
272,176,129055,1,0,0:0:0:0:
272,208,129115,1,0,0:0:0:0:
240,208,129174,5,0,0:0:0:0:
240,176,129234,1,0,0:0:0:0:
272,176,129293,1,0,0:0:0:0:
272,208,129352,1,0,0:0:0:0:
240,208,129412,1,0,0:0:0:0:
240,176,129471,1,0,0:0:0:0:
272,176,129531,1,0,0:0:0:0:
272,208,129590,1,0,0:0:0:0:
240,208,129650,5,0,0:0:0:0:
240,176,129709,1,0,0:0:0:0:
272,176,129768,1,0,0:0:0:0:
272,208,129828,1,0,0:0:0:0:
240,208,129887,1,0,0:0:0:0:
240,176,129947,1,0,0:0:0:0:
272,176,130006,1,0,0:0:0:0:
272,208,130066,1,0,0:0:0:0:
240,208,130125,5,0,0:0:0:0:
240,176,130185,1,0,0:0:0:0:
272,176,130244,1,0,0:0:0:0:
272,208,130303,1,0,0:0:0:0:
240,208,130363,1,0,0:0:0:0:
240,176,130422,1,0,0:0:0:0:
272,176,130482,1,0,0:0:0:0:
272,208,130541,1,0,0:0:0:0:
240,208,130601,5,0,0:0:0:0:
240,176,130660,1,0,0:0:0:0:
272,176,130719,1,0,0:0:0:0:
272,208,130779,1,0,0:0:0:0:
240,208,130838,1,0,0:0:0:0:
240,176,130898,1,0,0:0:0:0:
272,176,130957,1,0,0:0:0:0:
272,208,131017,1,0,0:0:0:0:
240,208,131076,5,0,0:0:0:0:
240,176,131136,1,0,0:0:0:0:
272,176,131195,1,0,0:0:0:0:
272,208,131254,1,0,0:0:0:0:
240,208,131314,1,0,0:0:0:0:
240,176,131373,1,0,0:0:0:0:
272,176,131433,1,0,0:0:0:0:
272,208,131492,1,0,0:0:0:0:
240,208,131552,5,0,0:0:0:0:
240,176,131611,1,0,0:0:0:0:
272,176,131670,1,0,0:0:0:0:
272,208,131730,1,0,0:0:0:0:
240,208,131789,1,0,0:0:0:0:
240,176,131849,1,0,0:0:0:0:
272,176,131908,1,0,0:0:0:0:
272,208,131968,1,0,0:0:0:0:
240,208,132027,5,0,0:0:0:0:
240,176,132087,1,0,0:0:0:0:
272,176,132146,1,0,0:0:0:0:
272,208,132205,1,0,0:0:0:0:
240,208,132265,1,0,0:0:0:0:
240,176,132324,1,0,0:0:0:0:
272,176,132384,1,0,0:0:0:0:
272,208,132443,1,0,0:0:0:0:
240,208,132503,5,0,0:0:0:0:
240,176,132562,1,0,0:0:0:0:
272,176,132621,1,0,0:0:0:0:
272,208,132681,1,0,0:0:0:0:
240,208,132740,1,0,0:0:0:0:
240,176,132800,1,0,0:0:0:0:
272,176,132859,1,0,0:0:0:0:
272,208,132919,1,0,0:0:0:0:
240,208,132978,5,0,0:0:0:0:
240,176,133038,1,0,0:0:0:0:
272,176,133097,1,0,0:0:0:0:
272,208,133156,1,0,0:0:0:0:
240,208,133216,1,0,0:0:0:0:
240,176,133275,1,0,0:0:0:0:
272,176,133335,1,0,0:0:0:0:
272,208,133394,1,0,0:0:0:0:
240,208,133454,5,0,0:0:0:0:
240,176,133513,1,0,0:0:0:0:
272,176,133572,1,0,0:0:0:0:
272,208,133632,1,0,0:0:0:0:
240,208,133691,1,0,0:0:0:0:
240,176,133751,1,0,0:0:0:0:
272,176,133810,1,0,0:0:0:0:
272,208,133870,1,0,0:0:0:0:
240,208,133929,5,0,0:0:0:0:
240,176,133989,1,0,0:0:0:0:
272,176,134048,1,0,0:0:0:0:
272,208,134107,1,0,0:0:0:0:
240,208,134167,1,0,0:0:0:0:
240,176,134226,1,0,0:0:0:0:
272,176,134286,1,0,0:0:0:0:
272,208,134345,1,0,0:0:0:0:
240,208,134405,5,0,0:0:0:0:
240,176,134464,1,0,0:0:0:0:
272,176,134523,1,0,0:0:0:0:
272,208,134583,1,0,0:0:0:0:
240,208,134642,1,0,0:0:0:0:
240,176,134702,1,0,0:0:0:0:
272,176,134761,1,0,0:0:0:0:
272,208,134821,1,0,0:0:0:0:
240,208,134880,5,0,0:0:0:0:
240,176,134940,1,0,0:0:0:0:
272,176,134999,1,0,0:0:0:0:
272,208,135058,1,0,0:0:0:0:
240,208,135118,1,0,0:0:0:0:
240,176,135177,1,0,0:0:0:0:
272,176,135237,1,0,0:0:0:0:
272,208,135296,1,0,0:0:0:0:
240,208,135357,5,0,0:0:0:0:
240,176,135416,1,0,0:0:0:0:
272,176,135475,1,0,0:0:0:0:
272,208,135535,1,0,0:0:0:0:
240,208,135594,1,0,0:0:0:0:
240,176,135654,1,0,0:0:0:0:
272,176,135713,1,0,0:0:0:0:
272,208,135773,1,0,0:0:0:0:
240,208,135832,5,0,0:0:0:0:
240,176,135892,1,0,0:0:0:0:
272,176,135951,1,0,0:0:0:0:
272,208,136010,1,0,0:0:0:0:
240,208,136070,1,0,0:0:0:0:
240,176,136129,1,0,0:0:0:0:
272,176,136189,1,0,0:0:0:0:
272,208,136248,1,0,0:0:0:0:
240,208,136308,5,0,0:0:0:0:
240,176,136367,1,0,0:0:0:0:
272,176,136426,1,0,0:0:0:0:
272,208,136486,1,0,0:0:0:0:
240,208,136545,1,0,0:0:0:0:
240,176,136605,1,0,0:0:0:0:
272,176,136664,1,0,0:0:0:0:
272,208,136724,1,0,0:0:0:0:
240,208,136783,5,0,0:0:0:0:
240,176,136843,1,0,0:0:0:0:
272,176,136902,1,0,0:0:0:0:
272,208,136961,1,0,0:0:0:0:
240,208,137021,1,0,0:0:0:0:
240,176,137080,1,0,0:0:0:0:
272,176,137140,1,0,0:0:0:0:
272,208,137199,1,0,0:0:0:0:
240,208,137259,5,0,0:0:0:0:
240,176,137318,1,0,0:0:0:0:
272,176,137377,1,0,0:0:0:0:
272,208,137437,1,0,0:0:0:0:
240,208,137496,1,0,0:0:0:0:
240,176,137556,1,0,0:0:0:0:
272,176,137615,1,0,0:0:0:0:
272,208,137675,1,0,0:0:0:0:
240,208,137734,5,0,0:0:0:0:
240,176,137794,1,0,0:0:0:0:
272,176,137853,1,0,0:0:0:0:
272,208,137912,1,0,0:0:0:0:
240,208,137972,1,0,0:0:0:0:
240,176,138031,1,0,0:0:0:0:
272,176,138091,1,0,0:0:0:0:
272,208,138150,1,0,0:0:0:0:
240,208,138210,5,0,0:0:0:0:
240,176,138269,1,0,0:0:0:0:
272,176,138328,1,0,0:0:0:0:
272,208,138388,1,0,0:0:0:0:
240,208,138447,1,0,0:0:0:0:
240,176,138507,1,0,0:0:0:0:
272,176,138566,1,0,0:0:0:0:
272,208,138626,1,0,0:0:0:0:
240,208,138685,5,0,0:0:0:0:
240,176,138745,1,0,0:0:0:0:
272,176,138804,1,0,0:0:0:0:
272,208,138863,1,0,0:0:0:0:
240,208,138923,1,0,0:0:0:0:
240,176,138982,1,0,0:0:0:0:
272,176,139042,1,0,0:0:0:0:
272,208,139101,1,0,0:0:0:0:
240,208,139161,5,0,0:0:0:0:
240,176,139220,1,0,0:0:0:0:
272,176,139279,1,0,0:0:0:0:
272,208,139339,1,0,0:0:0:0:
240,208,139398,1,0,0:0:0:0:
240,176,139458,1,0,0:0:0:0:
272,176,139517,1,0,0:0:0:0:
272,208,139577,1,0,0:0:0:0:
240,208,139636,5,0,0:0:0:0:
240,176,139696,1,0,0:0:0:0:
272,176,139755,1,0,0:0:0:0:
272,208,139814,1,0,0:0:0:0:
240,208,139874,1,0,0:0:0:0:
240,176,139933,1,0,0:0:0:0:
272,176,139993,1,0,0:0:0:0:
272,208,140052,1,0,0:0:0:0:
240,208,140112,5,0,0:0:0:0:
240,176,140171,1,0,0:0:0:0:
272,176,140230,1,0,0:0:0:0:
272,208,140290,1,0,0:0:0:0:
240,208,140349,1,0,0:0:0:0:
240,176,140409,1,0,0:0:0:0:
272,176,140468,1,0,0:0:0:0:
272,208,140528,1,0,0:0:0:0:
240,208,140587,5,0,0:0:0:0:
240,176,140647,1,0,0:0:0:0:
272,176,140706,1,0,0:0:0:0:
272,208,140765,1,0,0:0:0:0:
240,208,140825,1,0,0:0:0:0:
240,176,140884,1,0,0:0:0:0:
272,176,140944,1,0,0:0:0:0:
272,208,141003,1,0,0:0:0:0:
240,208,141063,5,0,0:0:0:0:
240,176,141122,1,0,0:0:0:0:
272,176,141181,1,0,0:0:0:0:
272,208,141241,1,0,0:0:0:0:
240,208,141300,1,0,0:0:0:0:
240,176,141360,1,0,0:0:0:0:
272,176,141419,1,0,0:0:0:0:
272,208,141479,1,0,0:0:0:0:
240,208,141538,5,0,0:0:0:0:
240,176,141598,1,0,0:0:0:0:
272,176,141657,1,0,0:0:0:0:
272,208,141716,1,0,0:0:0:0:
240,208,141776,1,0,0:0:0:0:
240,176,141835,1,0,0:0:0:0:
272,176,141895,1,0,0:0:0:0:
272,208,141954,1,0,0:0:0:0:
