osu file format v14

[General]
AudioFilename: uhh.mp3
AudioLeadIn: 5000
PreviewTime: 53947
Countdown: 0
SampleSet: Soft
StackLeniency: 0.7
Mode: 0
LetterboxInBreaks: 0
EpilepsyWarning: 1
WidescreenStoryboard: 1

[Editor]
DistanceSpacing: 1.2
BeatDivisor: 4
GridSize: 8
TimelineZoom: 1

[Metadata]
Title:(can you) understand me?
TitleUnicode:(can you) understand me?
Artist:Komiya Mao
ArtistUnicode:小宮真央
Creator:Sotarks
Version:uhh?
Source:東方輝針城 〜 Double Dealing Character.
Tags:ALiCE'S EMOTiON Precious Ray リバースイデオロギー 東方Project Touhou Reverse Ideology ZUN Kijin Seija 鬼人 正邪
BeatmapID:979155
BeatmapSetID:456986

[Difficulty]
HPDrainRate:6.2
CircleSize:4.2
OverallDifficulty:8.2
ApproachRate:9.2
SliderMultiplier:1.72
SliderTickRate:1

[Events]
//Background and Video events
0,0,"BG.jpg",0,0
//Break Periods
//Storyboard Layer 0 (Background)
//Storyboard Layer 1 (Fail)
//Storyboard Layer 2 (Pass)
//Storyboard Layer 3 (Foreground)
//Storyboard Sound Samples

[TimingPoints]
2056,324.324324324324,4,2,1,52,1,0
2056,-121.951219512195,4,2,1,52,0,0
7245,-108.695652173913,4,2,1,62,0,0
11785,-108.695652173913,4,3,2,62,0,0
12434,-108.695652173913,4,2,1,62,0,0
22812,-138.888888888889,4,2,1,62,0,0
43569,-161.290322580645,4,2,1,62,0,0
53623,-108.695652173913,4,2,1,62,0,0
53947,-98.0392156862746,4,2,1,72,0,1
74704,-98.0392156862746,4,2,1,72,0,0

[Colours]
Combo1 : 146,125,84
Combo2 : 142,60,60
Combo3 : 149,123,123
Combo4 : 179,51,51
SliderBorder : 240,240,255
SliderTrackOverride : 40,50,70

[HitObjects]
100,87,2056,6,0,P|143:78|183:79,1,70.5200010760498,2|0,0:0|3:0,0:0:0:0:
249,280,2380,2,0,P|243:230|244:188,1,70.5200010760498,2|0,0:0|3:0,0:0:0:0:
353,54,2704,2,0,P|352:93|345:128,1,70.5200010760498,2|0,0:0|3:0,0:0:0:0:
406,291,3028,1,0,0:0:0:0:
440,128,3191,2,0,P|451:113|458:96,1,35.2600005380249,0|0,3:0|3:0,3:0:0:0:
336,215,3353,6,0,P|287:221|240:216,1,70.5200010760498,2|0,3:0|3:0,3:0:0:0:
159,41,3677,2,0,P|165:102|163:126,1,70.5200010760498,2|0,0:0|3:0,0:0:0:0:
75,269,4001,2,0,P|118:251|172:241,1,70.5200010760498,2|0,0:0|3:0,0:0:0:0:
237,36,4326,2,0,P|243:97|239:126,1,70.5200010760498,2|0,0:0|3:0,0:0:0:0:
364,262,4650,5,2,0:0:0:0:
183,232,4812,1,0,3:0:0:0:
438,188,4974,1,2,0:0:0:0:
258,197,5136,1,0,3:0:0:0:
478,274,5299,1,2,0:0:0:0:
313,132,5461,1,0,3:0:0:0:
359,333,5623,2,0,P|365:277|363:239,1,70.5200010760498,2|0,0:0|0:0,0:0:0:0:
327,46,5947,5,2,0:0:0:0:
438,188,6110,1,0,3:0:0:0:
258,197,6272,1,2,0:0:0:0:
405,80,6434,1,0,3:0:0:0:
364,262,6596,1,2,0:0:0:0:
258,95,6758,1,0,3:0:0:0:
174,293,6920,2,0,P|142:306|78:304,1,70.5200010760498,2|0,0:0|0:0,0:0:0:0:
90,74,7245,6,0,B|84:166|133:126|126:234,1,158.239994687988,0|0,1:0|3:0,0:0:0:0:
170,95,7731,1,0,1:0:0:0:
242,304,7893,2,0,P|251:245|248:201,1,79.1199973439942,8|0,0:0|0:0,0:0:0:0:
312,51,8218,2,0,P|322:100|336:136,1,79.1199973439942
445,188,8542,5,0,1:0:0:0:
250,225,8704,1,0,0:0:0:0:
397,67,8866,1,0,3:0:0:0:
400,274,9028,1,0,1:0:0:0:
256,140,9191,2,0,P|213:146|179:176,1,79.1199973439942,8|0,0:0|1:0,0:0:0:0:
228,344,9515,2,0,P|251:307|249:261,1,79.1199973439942
188,76,9839,5,0,1:0:0:0:
169,282,10001,1,0,0:0:0:0:
256,140,10164,1,0,3:0:0:0:
38,181,10326,1,0,1:0:0:0:
301,211,10488,1,8,0:0:0:0:
109,145,10650,1,0,0:0:0:0:
305,68,10812,2,0,P|359:66|396:71,1,79.1199973439942,2|0,0:0|0:0,0:0:0:0:
425,311,11137,5,0,1:0:0:0:
472,84,11299,1,0,0:0:0:0:
301,211,11461,1,0,3:0:0:0:
512,178,11623,1,0,1:0:0:0:
374,113,11785,5,10,3:0:0:0:
493,268,11947,1,2,3:0:0:0:
360,108,12110,1,2,3:0:0:0:
479,263,12272,1,2,3:0:0:0:
301,219,12434,6,0,B|241:205|203:243|125:215,1,158.239994687988,4|8,1:0|0:0,0:0:0:0:
51,63,12920,2,0,P|48:103|37:141,1,79.1199973439942,0|0,1:0|0:0,0:0:0:0:
144,220,13245,1,0,3:0:0:0:
197,64,13407,2,0,P|247:45|294:59,1,79.1199973439942,8|0,0:0|0:0,0:0:0:0:
295,222,13731,6,0,P|227:195|248:126,1,158.239994687988,0|8,1:0|0:0,0:0:0:0:
175,269,14218,2,0,P|136:264|82:275,1,79.1199973439942,0|0,1:0|0:0,0:0:0:0:
161,131,14542,1,0,1:0:0:0:
232,325,14704,2,0,P|255:275|243:223,1,79.1199973439942,8|0,0:0|0:0,0:0:0:0:
247,126,15028,5,0,1:0:0:0:
364,247,15191,1,0,0:0:0:0:
175,269,15353,1,8,0:0:0:0:
246,99,15515,1,0,1:0:0:0:
278,318,15677,2,0,P|265:260|244:224,1,79.1199973439942
331,98,16001,2,0,P|318:156|297:192,1,79.1199973439942,8|0,0:0|0:0,0:0:0:0:
120,163,16326,5,0,1:0:0:0:
334,243,16488,1,0,0:0:0:0:
95,253,16650,1,8,0:0:0:0:
309,173,16812,1,0,1:0:0:0:
40,191,16974,1,0,0:0:0:0:
261,231,17137,1,0,1:0:0:0:
160,39,17299,1,8,0:0:0:0:
160,39,17623,6,0,B|149:78|171:112|171:112|178:172|126:207,1,158.239994687988,0|8,1:0|0:0,0:0:0:0:
238,63,18110,2,0,P|278:60|317:52,1,79.1199973439942,0|0,1:0|0:0,0:0:0:0:
328,200,18434,1,0,0:0:0:0:
395,27,18596,2,0,P|397:66|382:102,1,79.1199973439942,8|0,0:0|0:0,0:0:0:0:
393,252,18920,6,0,B|420:209|401:161|401:161|377:122|382:90,1,158.239994687988,0|8,1:0|0:0,0:0:0:0:
328,199,19407,2,0,P|310:235|312:274,1,79.1199973439942,0|0,1:0|0:0,0:0:0:0:
246,122,19731,1,0,1:0:0:0:
248,321,19893,2,0,P|287:352|329:352,1,79.1199973439942,8|0,0:0|0:0,0:0:0:0:
244,216,20218,5,0,1:0:0:0:
131,304,20380,1,0,0:0:0:0:
246,122,20542,1,8,0:0:0:0:
311,273,20704,1,0,1:0:0:0:
127,217,20866,6,0,P|82:221|35:216,1,79.1199973439942
326,116,21191,2,0,P|371:112|418:117,1,79.1199973439942,8|0,0:0|0:0,0:0:0:0:
145,126,21515,5,0,1:0:0:0:
211,284,21677,1,0,0:0:0:0:
245,85,21839,1,8,0:0:0:0:
129,255,22001,2,0,P|81:272|27:276,1,79.1199973439942,0|0,1:0|0:0,0:0:0:0:
69,74,22326,5,0,1:0:0:0:
212,314,22488,1,8,0:0:0:0:
323,141,22650,1,0,0:0:0:0:
383,343,22812,6,0,L|384:200,1,123.840003023438,0|0,1:0|0:0,0:0:0:0:
323,141,23299,1,0,1:0:0:0:
300,295,23461,1,0,3:0:0:0:
300,295,23785,6,0,P|246:298|224:298,1,61.9200015117188
145,199,24110,2,0,P|175:199|206:202,1,61.9200015117188
93,332,24434,2,0,B|98:302|88:260|88:260|62:233|64:191,1,123.840003023438,0|0,1:0|3:0,0:0:0:0:
65,214,25083,6,0,P|62:175|67:129,1,61.9200015117188
160,67,25407,2,0,B|198:75|222:62|222:62|258:46|308:72,1,123.840003023438,0|0,1:0|0:0,0:0:0:0:
385,138,25893,1,0,1:0:0:0:
218,160,26055,1,0,3:0:0:0:
218,160,26380,6,0,L|213:246,1,61.9200015117188
144,325,26704,2,0,L|140:263,1,61.9200015117188
263,307,27028,6,0,P|307:306|338:289,1,61.9200015117188,0|0,1:0|0:0,0:0:0:0:
348,142,27353,1,0,3:0:0:0:
393,336,27515,2,0,P|402:306|397:276,1,61.9200015117188,0|0,1:0|0:0,0:0:0:0:
96,66,28001,6,0,B|85:114|85:114|110:212,1,123.840003023438,0|0,1:0|0:0,0:0:0:0:
136,306,28488,1,0,1:0:0:0:
168,113,28650,1,8,0:0:0:0:
168,113,28974,6,0,P|217:110|247:100,1,61.9200015117188,2|0,0:0|0:0,0:0:0:0:
269,286,29299,2,0,P|264:238|263:203,1,61.9200015117188
313,62,29623,1,0,1:0:0:0:
154,259,29947,1,8,0:0:0:0:
154,259,30272,6,0,P|109:262|81:258,1,61.9200015117188
135,74,30596,2,0,L|142:158,1,61.9200015117188,0|0,1:0|0:0,0:0:0:0:
251,220,30920,1,0,0:0:0:0:
82,186,31083,1,0,1:0:0:0:
299,146,31245,1,8,0:0:0:0:
299,146,31569,6,0,P|329:179|337:208,1,61.9200015117188
413,64,31893,2,0,P|383:97|375:126,1,61.9200015117188
361,326,32218,6,0,P|357:288|368:249,1,61.9200015117188,0|0,1:0|0:0,0:0:0:0:
454,133,32542,1,8,0:0:0:0:
498,296,32704,2,0,P|467:299|437:297,1,61.9200015117188,0|0,1:0|0:0,0:0:0:0:
199,83,33191,6,0,B|210:124|195:152|195:152|185:180|201:229,1,123.840003023438,0|0,1:0|3:0,0:0:0:0:
227,296,33677,1,0,1:0:0:0:
124,116,33839,2,0,P|81:113|39:120,1,61.9200015117188,8|0,0:0|0:0,0:0:0:0:
86,314,34164,6,0,P|102:262|104:240,1,61.9200015117188,2|0,0:0|0:0,0:0:0:0:
45,55,34488,2,0,P|50:85|61:114,1,61.9200015117188,2|0,0:0|0:0,0:0:0:0:
259,200,34812,2,0,B|220:211|189:186|189:186|156:176|113:191,1,123.840003023438,0|8,1:0|0:0,0:0:0:0:
240,121,35299,5,2,0:0:0:0:
213,314,35461,1,2,0:0:0:0:
161,106,35623,1,2,0:0:0:0:
351,283,35785,6,0,B|363:258|363:258|358:223|374:192|374:192|368:156,1,123.840003023438,0|0,1:0|3:0,0:0:0:0:
443,239,36272,1,0,1:0:0:0:
259,200,36434,2,0,P|205:199|179:205,1,61.9200015117188,8|0,0:0|0:0,0:0:0:0:
228,38,36758,2,0,P|230:82|228:119,1,61.9200015117188
308,66,37083,5,0,0:0:0:0:
150,67,37245,1,0,0:0:0:0:
316,147,37407,2,0,P|354:134|381:44,1,123.840003023438,0|8,1:0|0:0,0:0:0:0:
423,251,37893,5,0,1:0:0:0:
308,66,38055,1,2,0:0:0:0:
306,263,38218,1,2,0:0:0:0:
187,95,38380,6,0,B|149:117|149:117|44:92,1,123.840003023438,0|0,1:0|3:0,0:0:0:0:
137,34,38866,1,0,1:0:0:0:
181,234,39028,2,0,P|179:278|172:321,1,61.9200015117188,8|0,0:0|0:0,0:0:0:0:
276,220,39353,1,2,0:0:0:0:
241,349,39515,1,0,0:0:0:0:
106,255,39677,6,0,P|67:229|57:198,1,61.9200015117188
306,295,40001,2,0,P|344:265|341:176,1,123.840003023438,0|8,1:0|0:0,0:0:0:0:
453,320,40488,5,2,0:0:0:0:
276,220,40650,1,2,0:0:0:0:
504,240,40812,1,2,0:0:0:0:
277,139,40974,6,0,B|245:137|218:161|218:161|178:172|145:151,1,123.840003023438,0|0,1:0|3:0,0:0:0:0:
187,73,41461,1,0,1:0:0:0:
274,281,41623,2,0,P|277:239|273:207,1,61.9200015117188,8|0,0:0|0:0,0:0:0:0:
356,62,41947,2,0,P|353:104|357:136,1,61.9200015117188
242,258,42272,5,2,0:0:0:0:
470,228,42434,1,2,0:0:0:0:
275,139,42596,1,0,1:0:0:0:
332,354,42758,1,2,0:0:0:0:
372,196,42920,5,10,0:0:0:0:
240,342,43083,1,0,1:0:0:0:
457,318,43245,1,2,0:0:0:0:
179,107,43569,6,0,B|149:113|123:104|123:104|99:111|77:130|63:167|63:167|8:171|43:117,1,213.279991538575,0|0,1:0|3:0,0:0:0:0:
311,185,44866,2,0,B|288:200|245:178|245:178|248:202|248:202|200:172|168:221|113:179,1,213.279991538575,2|0,0:0|3:0,0:0:0:0:
234,298,45839,1,2,0:0:0:0:
302,106,46164,6,0,P|362:122|375:229,1,159.959993653931,2|0,0:0|0:0,0:0:0:0:
311,185,46812,2,0,B|267:171|247:204|190:179,1,106.639995769287,0|0,3:0|0:0,0:0:0:0:
69,52,47461,6,0,L|79:171,1,106.639995769287,2|0,0:0|0:0,0:0:0:0:
196,291,48110,2,0,L|206:172,1,106.639995769287,0|0,3:0|0:0,0:0:0:0:
418,259,48758,5,0,1:0:0:0:
98,239,49083,1,0,1:0:0:0:
487,217,49407,2,0,P|498:275|465:324,1,106.639995769287,0|0,3:0|0:0,0:0:0:0:
98,239,50055,5,0,1:0:0:0:
418,259,50380,1,0,1:0:0:0:
39,183,50704,2,0,P|16:230|28:281,1,106.639995769287,0|0,3:0|0:0,0:0:0:0:
271,345,51353,6,0,B|273:308|273:308|261:221,1,106.639995769287,0|0,1:0|0:0,0:0:0:0:
241,39,52001,2,0,B|239:76|239:76|251:163,1,106.639995769287,0|0,1:0|0:0,0:0:0:0:
99,216,52650,5,0,1:0:0:0:
329,195,52812,1,2,0:0:0:0:
154,81,52974,1,2,0:0:0:0:
182,308,53137,1,2,0:0:0:0:
327,91,53299,1,2,0:0:0:0:
98,298,53461,1,2,0:0:0:0:
339,53,53623,6,0,P|335:72|327:91,1,39.5599986719971,2|0,0:0|0:0,0:0:0:0:
169,224,53785,2,0,P|162:205|160:185,1,39.5599986719971,2|0,0:0|0:0,0:0:0:0:
238,50,53947,6,0,B|222:94|242:137|242:137|265:175|248:223,1,175.440001070801,0|8,1:0|0:0,0:0:0:0:
327,91,54434,2,0,P|370:83|413:91,1,87.7200005354004,0|0,1:0|0:0,0:0:0:0:
452,284,54758,1,0,1:0:0:0:
471,32,54920,2,0,P|493:68|491:112,1,87.7200005354004,8|0,0:0|0:0,0:0:0:0:
275,339,55245,6,0,B|314:315|372:304|372:304|365:261|387:236,1,175.440001070801,0|8,1:0|0:0,0:0:0:0:
225,275,55731,2,0,P|196:318|197:362,1,87.7200005354004,0|0,1:0|0:0,0:0:0:0:
143,167,56055,1,0,1:0:0:0:
106,362,56218,1,8,0:0:0:0:
221,192,56380,1,0,1:0:0:0:
43,302,56542,6,0,L|37:115,1,175.440001070801,0|8,1:0|0:0,0:0:0:0:
139,292,57028,2,0,P|183:289|224:274,1,87.7200005354004,0|0,1:0|0:0,0:0:0:0:
242,129,57353,1,0,1:0:0:0:
288,325,57515,2,0,P|305:272|290:226,1,87.7200005354004,8|0,0:0|0:0,0:0:0:0:
304,74,57839,6,0,B|326:127|326:127|297:248,1,175.440001070801,0|8,1:0|0:0,0:0:0:0:
409,167,58326,1,0,1:0:0:0:
242,129,58488,2,0,P|191:117|153:73,1,87.7200005354004,0|0,1:0|0:0,0:0:0:0:
393,246,58812,2,0,P|455:235|483:194,1,87.7200005354004,8|0,0:0|0:0,0:0:0:0:
218,218,59137,6,0,B|167:206|136:232|136:232|97:262|24:236,1,175.440001070801,0|8,1:0|0:0,0:0:0:0:
185,294,59623,2,0,P|228:301|269:285,1,87.7200005354004,0|0,1:0|0:0,0:0:0:0:
296,84,59947,1,0,1:0:0:0:
218,218,60110,2,0,L|209:124,1,87.7200005354004,8|0,0:0|0:0,0:0:0:0:
335,238,60434,6,0,P|347:307|249:365,1,175.440001070801,0|8,1:0|0:0,0:0:0:0:
424,301,60920,1,0,1:0:0:0:
269,285,61083,1,0,0:0:0:0:
458,225,61245,1,0,1:0:0:0:
350,64,61407,1,8,0:0:0:0:
335,238,61569,1,0,1:0:0:0:
350,64,61731,6,0,B|351:117|351:117|335:173|335:173|334:245,1,175.440001070801,0|8,1:0|0:0,0:0:0:0:
277,98,62218,2,0,P|233:92|190:97,1,87.7200005354004,0|0,1:0|0:0,0:0:0:0:
148,264,62542,1,0,1:0:0:0:
131,41,62704,2,0,P|109:100|126:145,1,87.7200005354004,8|0,0:0|0:0,0:0:0:0:
209,321,63028,6,0,P|230:268|216:214,1,87.7200005354004,0|0,1:0|0:0,0:0:0:0:
190,96,63353,1,8,0:0:0:0:
309,202,63515,1,0,1:0:0:0:
148,264,63677,2,0,P|98:266|42:231,1,87.7200005354004,0|0,1:0|0:0,0:0:0:0:
283,124,64001,2,0,P|332:124|379:157,1,87.7200005354004,8|0,0:0|0:0,0:0:0:0:
446,327,64326,6,0,L|452:135,1,175.440001070801,0|8,1:0|0:0,0:0:0:0:
368,300,64812,2,0,P|322:306|269:304,1,87.7200005354004,0|0,1:0|0:0,0:0:0:0:
225,192,65137,1,0,1:0:0:0:
174,347,65299,2,0,L|166:239,1,87.7200005354004,8|0,0:0|0:0,0:0:0:0:
105,118,65623,6,0,B|83:167|83:167|97:223|88:249|91:305,1,175.440001070801,0|8,1:0|0:0,0:0:0:0:
29,92,66110,2,0,P|75:43|106:39,1,87.7200005354004,0|0,1:0|0:0,0:0:0:0:
240,163,66434,1,0,1:0:0:0:
23,188,66596,1,8,0:0:0:0:
216,63,66758,1,0,0:0:0:0:
192,247,66920,6,0,P|158:207|254:185,1,175.440001070801,0|8,1:0|0:0,0:0:0:0:
89,291,67407,2,0,P|36:302|-20:271,1,87.7200005354004,0|0,1:0|0:0,0:0:0:0:
274,232,67731,1,0,1:0:0:0:
47,220,67893,2,0,P|43:163|60:120,1,87.7200005354004,8|0,0:0|0:0,0:0:0:0:
353,220,68218,6,0,P|332:288|236:304,1,175.440001070801,0|8,1:0|0:0,0:0:0:0:
215,82,68704,1,0,1:0:0:0:
274,232,68866,1,0,0:0:0:0:
122,181,69028,1,0,1:0:0:0:
341,139,69191,2,0,P|395:150|425:183,1,87.7200005354004,8|0,0:0|0:0,0:0:0:0:
440,301,69515,6,0,L|452:115,1,175.440001070801,0|8,1:0|0:0,0:0:0:0:
362,330,70001,2,0,L|366:229,1,87.7200005354004,0|0,1:0|0:0,0:0:0:0:
312,92,70326,1,0,1:0:0:0:
291,279,70488,2,0,P|247:284|204:279,1,87.7200005354004,8|0,0:0|0:0,0:0:0:0:
157,120,70812,6,0,B|171:168|155:214|155:214|120:238|120:300,1,175.440001070801,0|8,1:0|0:0,0:0:0:0:
91,166,71299,1,0,1:0:0:0:
237,209,71461,1,0,0:0:0:0:
52,241,71623,1,0,1:0:0:0:
245,128,71785,2,0,P|286:145|312:179,1,87.7200005354004,8|0,0:0|0:0,0:0:0:0:
406,73,72110,6,0,B|356:90|304:71|304:71|266:37|218:52,1,175.440001070801,0|8,1:0|0:0,0:0:0:0:
390,155,72596,2,0,P|391:202|345:255,1,87.7200005354004,0|0,1:0|0:0,0:0:0:0:
493,200,72920,1,0,1:0:0:0:
312,179,73083,2,0,P|265:190|221:229,1,87.7200005354004,8|0,0:0|0:0,0:0:0:0:
202,339,73407,6,0,L|193:161,1,175.440001070801,0|8,1:0|0:0,0:0:0:0:
117,271,73893,1,0,1:0:0:0:
283,281,74055,1,0,1:0:0:0:
120,184,74218,1,0,1:0:0:0:
330,96,74380,1,8,0:0:0:0:
330,96,74704,6,0,P|376:56|400:148,1,175.440001070801,0|8,1:0|0:0,0:0:0:0:
224,60,75191,2,0,P|178:20|154:112,1,175.440001070801,0|0,1:0|3:0,0:0:0:0:
263,246,75677,2,0,P|264:292|257:349,1,87.7200005354004,8|0,0:0|0:0,0:0:0:0:
373,244,76001,5,0,1:0:0:0:
373,244,76164,2,0,P|423:231|458:200,1,87.7200005354004,0|8,0:0|0:0,0:0:0:0:
288,121,76488,1,0,1:0:0:0:
329,315,76650,1,0,0:0:0:0:
382,164,76812,1,0,1:0:0:0:
191,292,76974,2,0,P|134:306|84:311,1,87.7200005354004,8|0,0:0|0:0,0:0:0:0:
72,125,77299,5,0,1:0:0:0:
117,214,77461,1,2,0:0:0:0:
234,37,77623,1,0,0:0:0:0:
264,198,77785,1,0,1:0:0:0:
97,48,77947,6,0,P|34:52|0:86,1,87.7200005354004,8|0,0:0|0:0,0:0:0:0:
278,113,78272,1,0,3:0:0:0:
278,113,78596,5,0,1:0:0:0:
449,154,78758,1,2,0:0:0:0:
264,198,78920,1,0,0:0:0:0:
406,56,79083,1,0,1:0:0:0:
249,284,79245,1,8,0:0:0:0:
292,29,79407,1,0,1:0:0:0:
388,281,79569,1,0,3:0:0:0:
388,281,79893,6,0,P|368:354|301:318,1,175.440001070801,0|8,1:0|0:0,0:0:0:0:
108,246,80380,2,0,P|127:319|194:283,1,175.440001070801,0|0,1:0|3:0,0:0:0:0:
291,110,80866,2,0,P|291:58|285:19,1,87.7200005354004,8|0,0:0|0:0,0:0:0:0:
371,158,81191,5,0,1:0:0:0:
371,158,81353,2,0,P|422:177|487:174,1,87.7200005354004,0|8,0:0|0:0,0:0:0:0:
260,218,81677,1,0,1:0:0:0:
364,77,81839,1,0,0:0:0:0:
411,267,82001,1,0,1:0:0:0:
220,149,82164,2,0,P|181:197|182:230,1,87.7200005354004,8|0,0:0|0:0,0:0:0:0:
169,72,82488,5,0,1:0:0:0:
260,218,82650,1,0,0:0:0:0:
276,36,82812,1,8,0:0:0:0:
166,243,82974,1,0,1:0:0:0:
327,118,83137,5,2,0:0:0:0:
109,160,83299,1,0,0:0:0:0:
403,160,83461,1,8,0:0:0:0:
185,118,83623,1,0,0:0:0:0:
283,269,83785,5,0,1:0:0:0:
253,63,83947,1,0,0:0:0:0:
179,277,84110,1,8,0:0:0:0:
327,118,84272,1,0,1:0:0:0:
109,160,84434,1,0,0:0:0:0:
368,226,84596,1,0,1:0:0:0:
156,70,84758,1,2,0:0:0:0:
283,269,84920,1,0,1:0:0:0:
331,37,85083,5,2,0:0:0:0:
