osu file format v14

[General]
AudioFilename: audio.mp3
AudioLeadIn: 0
PreviewTime: 51895
Countdown: 0
SampleSet: None
StackLeniency: 0.3
Mode: 0
LetterboxInBreaks: 0
EpilepsyWarning: 1
WidescreenStoryboard: 1

[Editor]
Bookmarks: 20760,41517,72652,83031
DistanceSpacing: 1.2
BeatDivisor: 4
GridSize: 4
TimelineZoom: 4.599998

[Metadata]
Title:(can you) understand me?
TitleUnicode:(can you) understand me?
Artist:Komiya Mao
ArtistUnicode:小宮真央
Creator:Revialink
Version:kitty's insane?
Source:東方輝針城 〜 Double Dealing Character.
Tags:ALiCE'S EMOTiON Precious Ray リバースイデオロギー 東方Project Touhou Reverse Ideology ZUN Kijin Seija 鬼人 正邪 Short Version KittyAdventure gokugohan12468 [ Zzz ] wajinshu Frey Left 4 Dead MkGuh MkMeow Underforest
BeatmapID:977197
BeatmapSetID:455482

[Difficulty]
HPDrainRate:7
CircleSize:4
OverallDifficulty:8
ApproachRate:9
SliderMultiplier:1.5
SliderTickRate:1

[Events]
//Background and Video events
0,0,"aw.jpg",0,0
//Break Periods
//Storyboard Layer 0 (Background)
//Storyboard Layer 1 (Fail)
//Storyboard Layer 2 (Pass)
//Storyboard Layer 3 (Foreground)
//Storyboard Sound Samples

[TimingPoints]
4,324.324324324324,4,3,0,55,1,0
5193,-100,4,3,0,60,0,0
9733,-100,4,2,1,60,0,0
10382,-100,4,3,1,65,0,0
10463,-100,4,3,0,65,0,0
20760,-100,4,3,1,65,0,0
20841,-100,4,3,0,65,0,0
41517,-100,4,3,2,60,0,0
41598,-100,4,3,0,60,0,0
50598,-100,4,3,0,65,0,0
51895,-100,4,3,1,70,0,1
51976,-100,4,3,0,70,0,1
62274,-100,4,3,1,70,0,1
62355,-100,4,3,0,70,0,1
72652,-100,4,3,1,60,0,0
72733,-100,4,3,0,60,0,0
77841,-100,4,3,1,60,0,0
77922,-100,4,3,0,60,0,0
83031,-100,4,3,0,20,0,0

[Colours]
Combo1 : 128,84,186
Combo2 : 253,64,64
Combo3 : 240,240,40
Combo4 : 200,200,200
Combo5 : 239,134,71

[HitObjects]
492,176,4,6,0,L|408:184,1,75,0|0,0:0|0:0,0:0:0:0:
348,56,328,2,0,P|340:96|360:148,1,75,0|0,0:0|0:0,0:0:0:0:
216,208,652,2,0,L|300:200,1,75,2|0,0:2|0:0,0:0:0:0:
368,328,976,2,0,P|376:288|356:236,1,75,0|0,0:0|0:0,0:0:0:0:
292,292,1301,5,0,0:0:0:0:
368,256,1463,1,0,0:0:0:0:
232,228,1625,1,0,0:0:0:0:
264,372,1787,1,0,0:0:0:0:
264,152,1949,2,0,P|216:144|148:212,1,150,2|0,0:2|0:0,0:0:0:0:
68,180,2436,1,0,0:0:0:0:
68,180,2598,6,0,L|64:280,1,75,0|0,0:0|0:0,0:0:0:0:
136,384,2922,2,0,L|133:309,1,75,0|0,0:0|0:0,0:0:0:0:
148,209,3247,2,0,P|188:241|240:241,1,75,0|0,0:0|0:0,0:0:0:0:
252,105,3571,2,0,P|220:145|216:193,1,75,2|0,0:2|0:0,0:0:0:0:
376,205,3895,5,0,0:0:0:0:
444,149,4058,1,0,0:0:0:0:
292,173,4220,1,2,0:2:0:0:
392,293,4382,1,0,0:0:0:0:
364,117,4544,5,0,0:0:0:0:
468,229,4707,1,0,0:0:0:0:
304,261,4869,1,2,0:2:0:0:
112,156,5193,6,0,P|156:112|240:112,1,150,4|0,0:0|0:0,0:0:0:0:
320,56,5679,1,4,0:0:0:0:
332,152,5841,2,0,P|312:208|344:292,1,150,8|0,0:2|0:0,0:0:0:0:
420,348,6328,1,0,2:0:0:0:
342,289,6490,6,0,B|288:288|288:288|252:296|252:296|192:296,1,150,4|0,0:0|0:0,0:0:0:0:
112,352,6976,1,4,0:0:0:0:
16,324,7139,1,8,0:2:0:0:
0,228,7301,1,0,0:0:0:0:
68,156,7463,1,0,0:0:0:0:
213,159,7787,6,0,P|229:215|169:311,1,150,4|0,0:0|0:0,0:0:0:0:
140,116,8274,1,4,0:0:0:0:
140,116,8436,2,0,P|176:84|232:84,1,75,8|0,0:2|0:0,0:0:0:0:
264,12,8760,1,2,0:2:0:0:
336,68,8922,1,0,0:0:0:0:
412,16,9085,6,0,P|452:36|496:32,1,75,2|0,0:2|0:0,0:0:0:0:
492,124,9409,2,0,P|476:172|484:228,1,75,2|0,0:2|0:0,0:0:0:0:
480,284,9733,2,0,L|372:264,1,75,2|2,0:0|0:0,0:0:0:0:
348,340,10058,2,0,L|274:353,1,75,2|2,0:0|0:0,0:0:0:0:
180,304,10382,6,0,P|212:260|180:152,1,150,4|8,0:2|0:2,0:0:0:0:
96,116,10868,1,4,0:0:0:0:
197,170,11031,1,0,0:0:0:0:
108,12,11193,1,0,2:0:0:0:
0,168,11355,2,0,B|-4:204|-4:204|4:260,1,75,8|0,0:2|2:0,0:0:0:0:
131,271,11679,6,0,P|71:227|-17:259,1,150,4|8,0:0|0:2,0:0:0:0:
40,384,12166,1,4,0:0:0:0:
40,384,12328,2,0,P|56:332|44:288,1,75,0|0,0:0|0:0,0:0:0:0:
131,271,12652,2,0,P|117:237|118:200,1,75,8|0,0:2|2:0,0:0:0:0:
332,208,12976,6,0,P|296:236|184:204,1,150,4|0,0:0|0:0,0:0:0:0:
261,20,13463,2,0,P|281:68|257:168,1,150,4|0,0:0|0:0,0:0:0:0:
198,220,13949,1,10,0:2:0:0:
198,220,14112,1,0,2:0:0:0:
124,168,14274,6,0,P|80:176|28:160,1,75,4|0,0:0|0:0,0:0:0:0:
198,220,14598,2,0,P|202:268|178:324,1,75,8|4,0:2|0:0,0:0:0:0:
264,160,14922,2,0,P|308:152|360:168,1,75,0|4,0:0|0:0,0:0:0:0:
192,96,15246,2,0,P|188:48|212:-8,1,75,8|0,0:2|2:0,0:0:0:0:
272,60,15571,5,4,0:0:0:0:
308,232,15733,1,0,0:0:0:0:
224,276,15895,2,0,L|123:271,1,75,8|4,0:2|0:0,0:0:0:0:
308,232,16220,2,0,L|324:324,1,75,0|0,0:0|2:0,0:0:0:0:
232,184,16544,2,0,L|256:96,1,75,8|0,0:2|2:0,0:0:0:0:
356,48,16868,6,0,L|375:120,1,75,4|0,0:0|2:0,0:0:0:0:
404,220,17193,1,8,0:2:0:0:
460,56,17355,1,4,0:0:0:0:
271,107,17517,1,0,0:0:0:0:
484,148,17679,1,4,0:0:0:0:
352,24,17841,1,8,0:2:0:0:
300,200,18003,1,0,2:0:0:0:
140,264,18166,6,0,L|128:176,1,75,4|0,0:0|0:0,0:0:0:0:
232,116,18490,2,0,L|221:190,1,75,8|4,0:2|0:0,0:0:0:0:
188,44,18814,2,0,P|244:32|284:48,1,75,0|0,0:0|0:0,0:0:0:0:
136,108,19139,2,0,P|112:72|108:32,1,75,10|0,0:2|0:0,0:0:0:0:
129,189,19463,6,0,P|88:176|56:128,1,75,2|0,0:2|0:0,0:0:0:0:
204,224,19787,2,0,P|176:256|112:268,1,75,10|4,0:2|0:0,0:0:0:0:
100,368,20112,2,0,P|148:348|252:376,1,150,2|10,0:2|0:2,0:0:0:0:
320,328,20598,1,0,0:0:0:0:
320,328,20679,1,0,0:0:0:0:
320,328,20760,6,0,B|308:252|308:252|336:148,1,150,4|0,0:0|0:0,0:0:0:0:
368,108,21247,1,2,0:2:0:0:
292,76,21409,2,0,P|240:92|192:84,1,75,0|0,0:0|2:0,0:0:0:0:
132,48,21733,2,0,L|120:136,1,75,2|0,2:0|2:0,0:0:0:0:
40,148,22058,6,0,P|84:200|180:180,1,150,0|2,0:0|0:2,0:0:0:0:
240,184,22544,1,0,2:0:0:0:
252,264,22706,2,0,P|236:308|248:368,1,75
332,316,23031,2,0,P|356:348|412:368,1,75,0|0,0:0|2:0,0:0:0:0:
420,272,23355,6,0,B|480:292|524:252|524:252|512:312,1,150,2|0,0:2|0:0,0:0:0:0:
456,188,23841,2,0,P|400:180|328:244,1,150,2|0,0:2|2:0,0:0:0:0:
240,204,24328,2,0,P|248:152|236:112,1,75,0|0,0:0|2:0,0:0:0:0:
152,164,24652,6,0,P|108:184|60:184,1,75,0|0,0:0|2:0,0:0:0:0:
92,88,24976,2,0,P|120:48|124:16,1,75,2|0,0:2|0:0,0:0:0:0:
24,16,25301,1,0,0:0:0:0:
4,120,25463,1,2,0:2:0:0:
81,186,25625,2,0,P|125:226|173:230,1,75,0|0,0:0|0:0,0:0:0:0:
200,304,25949,6,0,B|240:272|232:212|232:212|260:140,1,150,2|0,0:2|0:0,0:0:0:0:
328,108,26436,1,0,0:0:0:0:
412,160,26598,2,0,P|456:188|512:188,1,75,8|0,0:2|0:0,0:0:0:0:
492,288,26922,2,0,B|464:316|464:316|440:368,1,75,0|0,0:0|2:0,0:0:0:0:
356,376,27247,6,0,B|360:320|320:296|320:296|244:296,1,150,0|2,0:0|0:2,0:0:0:0:
188,348,27733,1,0,2:0:0:0:
108,308,27895,1,8,0:2:0:0:
196,148,28220,1,0,0:0:0:0:
196,148,28544,6,0,P|180:104|236:8,1,150,2|0,0:2|0:0,0:0:0:0:
280,96,29031,1,0,0:0:0:0:
280,96,29193,2,0,P|352:112|432:92,1,150,8|0,0:2|2:0,0:0:0:0:
468,176,29679,1,0,2:0:0:0:
468,176,29841,6,0,L|456:256,1,75,0|0,0:0|0:0,0:0:0:0:
384,304,30166,2,0,P|336:280|292:284,1,75,2|0,0:2|2:0,0:0:0:0:
236,236,30490,1,8,0:2:0:0:
192,316,30652,1,2,0:2:0:0:
28,316,30976,1,0,2:0:0:0:
28,316,31139,6,0,P|0:260|52:160,1,150,4|0,0:0|0:0,0:0:0:0:
24,84,31625,1,0,0:0:0:0:
24,84,31787,2,0,P|88:96|120:88,1,75,8|0,0:2|2:0,0:0:0:0:
192,68,32112,2,0,P|184:112|188:156,1,75,0|0,0:0|2:0,0:0:0:0:
290,142,32436,6,0,P|291:104|283:67,1,75,0|0,0:0|0:0,0:0:0:0:
379,94,32760,2,0,P|416:95|452:83,1,75,2|0,0:2|2:0,0:0:0:0:
492,176,33085,2,0,P|468:208|456:276,1,75,8|0,0:2|0:0,0:0:0:0:
460,340,33409,1,0,0:0:0:0:
460,340,33571,1,0,0:0:0:0:
364,316,33733,6,0,P|288:292|204:324,1,150,2|0,0:2|0:0,0:0:0:0:
140,364,34220,1,0,0:0:0:0:
80,288,34382,2,0,P|56:232|104:136,1,150,8|0,0:2|2:0,0:0:0:0:
72,56,34868,1,0,0:0:0:0:
72,56,35031,6,0,P|124:68|164:56,1,75,0|0,0:0|0:0,0:0:0:0:
240,36,35355,2,0,P|224:88|224:128,1,75,2|0,0:2|2:0,0:0:0:0:
341,108,35679,2,0,P|336:70|323:35,1,75,8|2,0:2|0:2,0:0:0:0:
416,64,36003,2,0,P|453:67|488:55,1,75,0|0,0:0|0:0,0:0:0:0:
488,152,36328,6,0,B|468:184|480:228|480:228|496:276|468:312,1,150,2|0,0:2|2:0,0:0:0:0:
400,360,36814,1,0,0:0:0:0:
320,292,36976,2,0,P|284:280|232:284,1,75,8|0,0:2|2:0,0:0:0:0:
172,320,37301,2,0,P|165:283|173:246,1,75,0|0,0:0|2:0,0:0:0:0:
120,184,37625,6,0,P|60:188|4:112,1,150,0|2,0:0|0:2,0:0:0:0:
84,112,38112,1,0,2:0:0:0:
166,115,38274,2,0,P|198:167|155:259,1,150,8|0,0:2|0:0,0:0:0:0:
232,308,38760,1,0,0:0:0:0:
232,308,38922,6,0,B|280:308|280:308|320:332,1,75,2|0,0:2|0:0,0:0:0:0:
348,256,39247,2,0,B|332:224|332:224|348:180,1,75,0|0,2:0|0:0,0:0:0:0:
412,64,39571,2,0,B|424:100|424:100|412:140,1,75,8|0,0:2|2:0,0:0:0:0:
328,104,39895,1,0,0:0:0:0:
252,52,40058,1,0,2:0:0:0:
172,28,40220,6,0,P|180:92|276:132,1,150,0|2,0:0|0:0,0:0:0:0:
300,232,40706,1,0,0:0:0:0:
300,232,40868,1,8,0:2:0:0:
248,134,41031,1,2,0:0:0:0:
236,320,41193,1,0,0:0:0:0:
404,240,41355,1,0,0:0:0:0:
204,244,41517,6,0,P|152:308|184:388,1,150,4|0,0:0|2:0,0:0:0:0:
292,248,42166,1,8,0:2:0:0:
236,320,42490,1,0,2:0:0:0:
316,360,42814,6,0,B|360:380|408:360|408:360|468:360,1,150,0|0,0:0|2:0,0:0:0:0:
364,252,43463,1,8,0:2:0:0:
484,276,43787,1,0,2:0:0:0:
484,276,44112,6,0,B|468:240|488:204|488:204|512:164|484:108,1,150,0|0,0:0|2:0,0:0:0:0:
408,40,44760,1,8,0:2:0:0:
493,131,45085,1,0,2:0:0:0:
493,131,45409,6,0,B|461:143|433:131|433:131|405:135|405:135|381:119|321:139,1,150,0|0,0:0|2:0,0:0:0:0:
372,208,46058,1,8,0:2:0:0:
220,116,46382,1,0,2:0:0:0:
220,116,46706,6,0,P|208:164|224:212,1,75,4|0,0:0|0:0,0:0:0:0:
356,252,47031,2,0,P|308:244|260:256,1,75,4|0,0:0|0:0,0:0:0:0:
212,384,47355,2,0,P|223:348|219:311,1,75,8|0,0:2|0:0,0:0:0:0:
72,248,47679,2,0,P|120:256|168:244,1,75,0|0,0:0|2:0,0:0:0:0:
212,188,48003,6,0,L|224:60,1,112.5,4|0,0:0|2:0,0:0:0:0:
256,44,48328,2,0,P|296:80|412:68,2,150,4|8|0,0:0|0:2|0:0,0:0:0:0:
256,44,49301,5,4,0:0:0:0:
184,176,49949,5,4,0:0:0:0:
184,176,50598,5,4,0:0:0:0:
280,232,50760,1,2,0:2:0:0:
76,216,50922,1,0,0:0:0:0:
196,72,51085,1,0,0:0:0:0:
176,272,51247,1,2,0:2:0:0:
84,116,51409,1,0,0:0:0:0:
288,128,51571,1,0,0:0:0:0:
184,176,51733,1,2,0:2:0:0:
196,72,51895,6,0,L|112:96,1,75,4|0,0:0|0:0,0:0:0:0:
296,88,52220,2,0,L|276:4,1,75,8|4,0:2|0:0,0:0:0:0:
220,164,52544,2,0,L|240:248,1,75,0|4,0:0|0:0,0:0:0:0:
347,329,52868,2,0,P|344:292|352:256,1,75,8|0,0:2|0:0,0:0:0:0:
440,296,53193,5,4,0:0:0:0:
504,224,53355,1,0,0:0:0:0:
460,136,53517,1,8,0:2:0:0:
364,156,53679,1,4,0:0:0:0:
288,100,53841,2,0,P|248:124|200:124,1,75,0|4,0:0|0:0,0:0:0:0:
148,172,54166,2,0,P|140:208|148:260,1,75,8|4,0:2|0:0,0:0:0:0:
196,308,54490,6,0,L|296:288,1,75,4|0,0:0|0:0,0:0:0:0:
356,296,54814,2,0,P|344:340|352:380,1,75,8|4,0:2|0:0,0:0:0:0:
420,236,55139,2,0,P|372:212|328:216,1,75,0|4,0:0|0:0,0:0:0:0:
284,144,55463,1,8,0:2:0:0:
216,216,55625,1,0,0:0:0:0:
124,180,55787,6,0,L|112:96,1,75,4|0,0:0|0:0,0:0:0:0:
216,216,56112,2,0,L|205:290,1,75,8|4,0:2|0:0,0:0:0:0:
280,348,56436,1,4,0:0:0:0:
376,364,56598,1,0,0:0:0:0:
464,324,56760,1,8,0:2:0:0:
500,232,56922,1,4,0:0:0:0:
488,124,57085,6,0,P|436:144|388:136,1,75,4|0,0:0|0:0,0:0:0:0:
288,44,57409,2,0,P|320:68|344:132,1,75,8|4,0:2|0:0,0:0:0:0:
228,212,57733,2,0,P|280:192|328:200,1,75,0|4,0:0|0:0,0:0:0:0:
428,292,58057,2,0,P|396:268|372:204,1,75,8|0,0:2|0:0,0:0:0:0:
468,368,58382,6,0,B|432:388|388:368|388:368|308:368,1,150,4|8,0:0|0:2,0:0:0:0:
276,284,58868,1,4,0:0:0:0:
184,248,59031,1,0,0:0:0:0:
88,272,59193,1,4,0:0:0:0:
36,356,59355,1,8,0:2:0:0:
36,356,59517,1,4,0:0:0:0:
88,272,59679,6,0,P|36:256|-8:268,1,75,4|0,0:0|0:0,0:0:0:0:
184,248,60003,2,0,P|192:196|176:152,1,75,8|4,0:2|0:0,0:0:0:0:
244,96,60328,1,0,0:0:0:0:
336,132,60490,1,4,0:0:0:0:
424,92,60652,1,8,0:2:0:0:
512,132,60814,1,0,0:0:0:0:
476,224,60976,6,0,P|464:264|472:316,1,75,4|0,0:0|0:0,0:0:0:0:
392,360,61301,2,0,P|356:340|304:336,1,75,8|4,0:2|0:0,0:0:0:0:
224,332,61625,2,0,P|187:338|154:357,1,75,4|0,0:0|0:0,0:0:0:0:
80,296,61949,2,0,P|81:258|69:223,1,75,8|0,0:2|0:0,0:0:0:0:
8,144,62274,6,0,P|52:180|144:160,1,150,4|8,0:0|0:2,0:0:0:0:
216,124,62760,1,4,0:0:0:0:
280,184,62922,2,0,P|264:228|276:280,1,75,0|0,0:0|0:0,0:0:0:0:
344,232,63247,2,0,L|432:228,1,75,8|0,0:2|0:0,0:0:0:0:
492,316,63571,6,0,B|444:300|396:328|396:328|328:328,1,150,4|8,0:0|0:2,0:0:0:0:
260,368,64058,1,4,0:0:0:0:
192,300,64220,1,0,0:0:0:0:
88,296,64382,1,4,0:0:0:0:
20,372,64544,1,8,0:2:0:0:
20,372,64706,1,0,0:0:0:0:
88,296,64868,6,0,L|96:204,1,75,4|0,0:0|0:0,0:0:0:0:
172,128,65193,2,0,L|178:202,1,75,8|4,0:2|0:0,0:0:0:0:
252,304,65517,2,0,L|260:212,1,75,0|0,0:0|0:0,0:0:0:0:
332,124,65842,2,0,L|338:198,1,75,8|0,0:2|0:0,0:0:0:0:
260,84,66166,6,0,P|288:52|396:72,2,150,4|8|0,0:0|0:2|0:0,0:0:0:0:
180,72,66976,1,4,0:0:0:0:
136,144,67139,2,0,P|144:180|132:236,1,75,8|0,0:2|0:0,0:0:0:0:
87,288,67463,6,0,B|131:316|187:288|187:288|259:288,1,150,4|8,0:0|0:2,0:0:0:0:
316,204,67949,1,4,0:0:0:0:
304,100,68112,1,0,0:0:0:0:
436,260,68274,1,0,0:0:0:0:
232,288,68436,2,0,P|224:328|240:376,1,75,8|0,0:2|0:0,0:0:0:0:
264,208,68760,6,0,P|272:168|256:120,1,75,4|0,0:0|0:0,0:0:0:0:
120,164,69085,2,0,L|208:172,1,75,8|4,0:2|0:0,0:0:0:0:
292,52,69409,2,0,L|204:60,1,75,0|4,0:0|0:0,0:0:0:0:
248,268,69733,1,8,0:2:0:0:
264,135,69895,1,0,0:0:0:0:
248,268,70058,6,0,L|348:260,1,75,4|0,0:0|0:0,0:0:0:0:
178,214,70382,2,0,L|152:308,1,75,8|4,0:2|0:0,0:0:0:0:
256,188,70706,2,0,L|236:96,1,75,0|0,0:0|0:0,0:0:0:0:
148,88,71031,1,8,0:2:0:0:
220,32,71193,1,0,0:0:0:0:
240,114,71355,6,0,P|316:158|388:130,1,150,4|8,0:0|0:2,0:0:0:0:
452,112,71841,1,4,0:0:0:0:
500,180,72003,2,0,P|520:248|468:340,1,150,0|8,0:0|0:2,0:0:0:0:
420,372,72490,1,0,0:0:0:0:
348,316,72652,6,0,L|268:324,1,75,4|0,0:0|2:0,0:0:0:0:
196,360,72976,2,0,L|121:352,1,75,8|4,0:2|0:0,0:0:0:0:
76,272,73301,1,0,0:0:0:0:
156,216,73463,1,0,2:0:0:0:
108,136,73625,2,0,P|64:152|20:148,1,75,8|0,0:2|2:0,0:0:0:0:
168,68,73949,6,0,P|192:100|200:144,1,75,4|0,0:0|0:0,0:0:0:0:
271,193,74274,2,0,P|280:156|303:127,1,75,8|4,0:2|0:0,0:0:0:0:
360,196,74598,2,0,P|368:248|392:280,1,75,0|4,0:0|0:0,0:0:0:0:
444,204,74922,2,0,P|453:167|476:138,1,75,8|0,0:2|2:0,0:0:0:0:
488,48,75247,6,0,L|400:44,1,75,4|0,0:0|0:0,0:0:0:0:
340,100,75571,2,0,P|352:152|344:192,1,75,0|4,0:0|0:0,0:0:0:0:
234,172,75895,2,0,P|232:135|244:100,1,75,8|0,0:2|0:0,0:0:0:0:
170,44,76220,2,0,L|96:48,1,75,2|0,0:2|2:0,0:0:0:0:
44,124,76544,6,0,P|24:164|76:272,1,150,4|0,0:0|0:0,0:0:0:0:
92,340,77031,1,4,0:0:0:0:
92,340,77193,2,0,B|128:324|168:344|168:344|208:360|256:332,1,150,8|0,0:2|0:0,0:0:0:0:
324,368,77679,1,0,2:0:0:0:
312,280,77841,6,0,P|300:216|308:188,1,75,4|0,0:0|0:0,0:0:0:0:
232,164,78166,2,0,P|192:180|136:172,1,75,8|4,0:2|0:0,0:0:0:0:
108,108,78490,1,0,0:2:0:0:
108,108,78652,1,0,2:0:0:0:
44,168,78814,1,8,0:2:0:0:
44,168,78976,1,0,2:0:0:0:
76,252,79139,6,0,L|84:328,1,75,4|0,0:0|0:0,0:0:0:0:
164,368,79463,2,0,L|171:293,1,75,8|4,0:2|0:0,0:0:0:0:
236,232,79787,1,0,0:0:0:0:
304,292,79949,1,4,0:0:0:0:
400,284,80112,1,8,0:2:0:0:
448,208,80274,1,0,2:0:0:0:
484,124,80436,6,0,P|436:120|396:136,1,75,4|0,0:0|0:0,0:0:0:0:
332,80,80760,2,0,L|308:164,1,75,8|4,0:2|0:0,0:0:0:0:
220,152,81085,2,0,L|199:79,1,75
120,124,81409,2,0,P|83:115|46:120,1,75,10|0,0:2|0:0,0:0:0:0:
76,204,81733,6,0,P|60:244|72:296,1,75,2|0,0:2|0:0,0:0:0:0:
296,176,82058,1,10,0:2:0:0:
344,260,82220,1,4,0:0:0:0:
152,252,82382,1,2,0:2:0:0:
200,176,82544,1,4,0:0:0:0:
288,336,82706,1,2,0:2:0:0:
200,340,82868,1,0,0:0:0:0:
248,256,83031,5,0,0:0:0:0:
200,176,83193,1,0,0:0:0:0:
116,224,83355,2,0,L|28:228,1,75,8|0,0:2|0:0,0:0:0:0:
4,300,83679,1,0,0:0:0:0:
160,356,84003,1,8,0:2:0:0:
224,304,84166,1,2,2:0:0:0:
224,304,84247,1,0,0:0:0:0:
224,304,84328,6,0,P|268:312|324:296,1,75
356,248,84652,2,0,L|360:160,1,75,8|0,0:2|0:0,0:0:0:0:
296,120,84976,1,0,0:0:0:0:
296,120,85301,1,8,0:2:0:0:
228,168,85463,1,2,2:0:0:0:
228,168,85544,1,0,0:0:0:0:
228,168,85625,6,0,L|148:164,1,75
100,244,85949,2,0,L|174:247,1,75,8|0,0:2|0:0,0:0:0:0:
220,316,86274,1,0,0:0:0:0:
380,356,86598,1,8,0:2:0:0:
440,300,86760,1,2,2:0:0:0:
440,300,86841,1,0,0:0:0:0:
440,300,86922,6,0,L|444:220,1,75
348,160,87247,2,0,L|351:234,1,75,8|0,0:2|0:0,0:0:0:0:
284,292,87571,1,0,0:0:0:0:
284,292,87895,1,8,0:2:0:0:
196,348,88058,1,2,0:2:0:0:
196,348,88139,1,0,0:0:0:0:
