osu file format v14

[General]
AudioFilename: audio.mp3
AudioLeadIn: 0
PreviewTime: 51895
Countdown: 0
SampleSet: None
StackLeniency: 0.7
Mode: 0
LetterboxInBreaks: 0
EpilepsyWarning: 1
WidescreenStoryboard: 1

[Editor]
Bookmarks: 20756,41513,83027
DistanceSpacing: 0.9
BeatDivisor: 2
GridSize: 4
TimelineZoom: 1.1

[Metadata]
Title:(can you) understand me?
TitleUnicode:(can you) understand me?
Artist:Komiya Mao
ArtistUnicode:小宮真央
Creator:Revialink
Version:beginner?
Source:東方輝針城 〜 Double Dealing Character.
Tags:ALiCE'S EMOTiON Precious Ray リバースイデオロギー 東方Project Touhou Reverse Ideology ZUN Kijin Seija 鬼人 正邪 Short Version KittyAdventure gokugohan12468 [ Zzz ] wajinshu Frey Left 4 Dead MkGuh MkMeow Underforest
BeatmapID:976316
BeatmapSetID:455482

[Difficulty]
HPDrainRate:2
CircleSize:2
OverallDifficulty:2
ApproachRate:3
SliderMultiplier:0.6
SliderTickRate:1

[Events]
//Background and Video events
0,0,"aw.jpg",0,0
//Break Periods
2,41717,47861
//Storyboard Layer 0 (Background)
//Storyboard Layer 1 (Fail)
//Storyboard Layer 2 (Pass)
//Storyboard Layer 3 (Foreground)
//Storyboard Sound Samples

[TimingPoints]
4,324.324324324324,4,3,0,55,1,0
5193,-100,4,3,0,60,0,0
9733,-100,4,2,1,60,0,0
10382,-100,4,3,1,65,0,0
10463,-100,4,3,0,65,0,0
20760,-100,4,3,1,65,0,0
20841,-100,4,3,0,65,0,0
41517,-100,4,3,2,60,0,0
50598,-100,4,3,0,65,0,0
51895,-100,4,3,1,70,0,1
51976,-100,4,3,0,70,0,1
62274,-100,4,3,1,70,0,1
62355,-100,4,3,0,70,0,1
72652,-100,4,3,1,60,0,0
72733,-100,4,3,0,60,0,0
77841,-100,4,3,1,60,0,0
77922,-100,4,3,0,60,0,0
83031,-100,4,3,0,20,0,0

[Colours]
Combo1 : 128,84,186
Combo2 : 253,64,64
Combo3 : 240,240,40
Combo4 : 200,200,200
Combo5 : 239,134,71

[HitObjects]
50,120,4,6,0,L|142:198,1,120,0|2,0:0|0:2,0:0:0:0:
247,165,1301,2,0,L|155:87,1,120,0|2,0:0|0:2,0:0:0:0:
51,121,2598,1,0,0:0:0:0:
43,229,3247,1,0,0:0:0:0:
123,305,3895,2,0,P|219:329|255:313,1,120
343,305,5193,6,0,P|284:224|247:214,1,120,4|8,0:0|0:2,0:0:0:0:
172,168,6490,2,0,P|165:109|190:55,1,120,4|8,0:0|0:2,0:0:0:0:
269,127,7787,2,0,P|353:215|337:331,1,240,4|2,0:0|0:2,0:0:0:0:
235,323,9733,1,2,0:0:0:0:
132,292,10382,6,0,P|104:232|188:172,1,180,4|8,0:2|0:2,0:0:0:0:
236,168,11679,2,0,P|308:126|285:46,1,180,4|8,0:0|0:2,0:0:0:0:
236,20,12976,2,0,B|148:20|148:20|92:108,1,180,4|8,0:0|0:2,0:0:0:0:
100,152,14274,2,0,B|148:232|148:232|238:232,1,180,4|8,0:0|0:2,0:0:0:0:
280,204,15571,5,4,0:0:0:0:
304,100,16220,1,0,0:0:0:0:
408,132,16868,2,0,P|452:200|396:272,1,180,4|8,0:0|0:2,0:0:0:0:
344,280,18166,1,4,0:0:0:0:
264,208,18814,2,0,L|160:140,1,120,0|2,0:0|0:2,0:0:0:0:
68,196,20112,1,2,0:2:0:0:
100,296,20760,6,0,P|152:320|220:308,1,120,4|0,0:0|0:0,0:0:0:0:
296,244,22058,2,0,L|360:240,2,60,0|2|0,0:0|0:2|0:0,0:0:0:0:
192,212,23355,2,0,P|156:164|144:104,2,120,2|0|0,0:2|3:0|3:0,0:0:0:0:
256,124,25301,1,0,0:0:0:0:
316,32,25949,6,0,P|351:79|364:137,1,120,2|8,0:2|3:2,0:0:0:0:
332,244,27247,2,0,P|284:280|224:292,1,120,2|8,0:2|3:2,0:0:0:0:
148,220,28544,2,0,B|148:160|148:160|184:96,1,120,2|8,0:2|3:2,0:0:0:0:
256,32,29841,1,0,0:0:0:0:
360,60,30490,1,8,0:2:0:0:
280,132,31139,6,0,P|268:192|288:256,1,120,4|8,0:0|0:2,0:0:0:0:
380,200,32436,2,0,P|392:260|372:324,1,120,0|8,0:0|0:2,0:0:0:0:
272,340,33733,2,0,B|248:356|180:324|148:340,2,120,2|8|0,0:2|0:2|0:0,0:0:0:0:
376,315,35679,1,8,0:2:0:0:
428,220,36328,6,0,P|444:172|424:84,2,120,2|8|0,0:2|0:2|0:0,0:0:0:0:
332,272,38274,1,8,0:2:0:0:
228,248,38922,2,0,P|188:216|157:131,2,120,2|8|0,0:2|0:2|0:0,0:0:0:0:
332,272,40868,1,8,0:2:0:0:
420,208,41517,5,4,0:0:0:0:
256,192,49301,12,0,50598,0:0:0:0:
88,136,51895,6,0,L|132:252,1,120,4|0,0:0|0:0,0:0:0:0:
220,312,53193,2,0,B|276:336|276:336|344:300,1,120,4|0,0:0|0:0,0:0:0:0:
396,228,54490,1,4,0:0:0:0:
368,124,55139,1,0,0:0:0:0:
284,56,55787,2,0,P|192:32|112:52,1,180,4|8,0:0|0:2,0:0:0:0:
68,84,57085,5,4,0:0:0:0:
64,192,57733,1,0,0:0:0:0:
112,288,58382,1,4,0:0:0:0:
160,308,58706,2,0,L|224:300,1,60,8|0,0:2|0:0,0:0:0:0:
324,296,59679,2,0,P|424:236|404:168,1,180,4|8,0:0|0:2,0:0:0:0:
384,148,60976,2,0,L|260:96,1,120,4|4,0:0|0:0,0:0:0:0:
176,154,62274,5,4,0:0:0:0:
96,228,62922,1,0,0:0:0:0:
156,316,63571,2,0,B|179:336|179:336|217:346,2,60,4|8|0,0:0|0:2|0:0,0:0:0:0:
96,228,64868,2,0,P|132:164|180:156,1,120,4|0,0:0|0:0,0:0:0:0:
224,172,65841,1,8,0:2:0:0:
276,192,66166,2,0,P|331:172|353:119,1,120,4|0,0:0|0:0,0:0:0:0:
372,12,67463,6,0,L|480:100,1,120,4|0,0:0|0:0,0:0:0:0:
496,192,68760,1,4,0:0:0:0:
436,284,69409,2,0,L|400:336,1,60,0|8,0:0|0:2,0:0:0:0:
256,192,70058,12,4,72652,0:0:0:0:
92,100,73949,5,4,0:0:0:0:
188,152,74598,1,0,0:0:0:0:
296,152,75247,2,0,B|340:292|200:340|200:340|164:284|100:284|100:284|52:232,1,420,4|0,0:0|0:0,0:0:0:0:
24,200,77841,6,0,B|60:152|60:152|124:144,1,120,4|0,0:0|0:2,0:0:0:0:
208,200,79139,2,0,B|267:190|267:190|315:134,1,120,4|0,0:0|0:0,0:0:0:0:
388,76,80436,2,0,L|420:208,1,120,4|0,0:0|0:0,0:0:0:0:
336,268,81733,2,0,L|212:232,1,120,2|2,0:2|0:2,0:0:0:0:
168,216,82706,1,2,0:2:0:0:
256,192,83031,12,2,88058,0:2:0:0:
