osu file format v14

[General]
AudioFilename: audio.mp3
AudioLeadIn: 0
PreviewTime: 12407
Countdown: 0
SampleSet: Normal
StackLeniency: 0.7
Mode: 1
LetterboxInBreaks: 0
WidescreenStoryboard: 0

[Editor]
Bookmarks: 7245,12434,22812,28001,33191,38380,43569,53947,64326,74704,79893,85083
DistanceSpacing: 1.2
BeatDivisor: 2
GridSize: 32
TimelineZoom: 2

[Metadata]
Title:(can you) understand me?
TitleUnicode:(can you) understand me?
Artist:Komiya Mao
ArtistUnicode:小宮真央
Creator:Poii
Version:Kantan?
Source:東方輝針城 〜 Double Dealing Character.
Tags:ALiCE'S EMOTiON Precious Ray リバースイデオロギー 東方Project Touhou Reverse Ideology ZUN Kijin Seija 鬼人正邪 ron [r] prophecy t+pazolite tpz japanese video game
BeatmapID:2183255
BeatmapSetID:1044362

[Difficulty]
HPDrainRate:7
CircleSize:2
OverallDifficulty:3
ApproachRate:10
SliderMultiplier:1.4
SliderTickRate:1

[Events]
//Background and Video events
0,0,"seija kijin.jpg",0,30
//Break Periods
//Storyboard Layer 0 (Background)
//Storyboard Layer 1 (Fail)
//Storyboard Layer 2 (Pass)
//Storyboard Layer 3 (Foreground)
//Storyboard Layer 4 (Overlay)
//Storyboard Sound Samples

[TimingPoints]
2059,324.324324324324,4,1,0,70,1,0
44866,-100,4,1,0,50,0,0
48761,-100,4,1,0,70,0,0
53950,-100,4,1,0,70,0,1
74707,-100,4,1,0,70,0,0

[HitObjects]
256,192,2059,5,0,0:0:0:0:
256,192,2707,1,8,0:0:0:0:
256,192,3356,1,0,0:0:0:0:
256,192,4004,1,8,0:0:0:0:
256,192,4653,1,0,0:0:0:0:
256,192,5302,1,8,0:0:0:0:
256,192,5626,1,0,0:0:0:0:
256,192,5950,1,8,0:0:0:0:
256,192,6599,1,8,0:0:0:0:
256,192,7248,1,0,0:0:0:0:
256,192,7896,1,8,0:0:0:0:
256,192,8545,1,0,0:0:0:0:
256,192,9842,1,0,0:0:0:0:
256,192,10491,1,8,0:0:0:0:
256,192,10815,1,0,0:0:0:0:
256,192,11140,1,8,0:0:0:0:
256,192,11788,1,8,0:0:0:0:
256,192,12437,1,4,0:0:0:0:
256,192,13086,1,8,0:0:0:0:
256,192,13410,1,8,0:0:0:0:
256,192,13734,1,0,0:0:0:0:
256,192,15031,1,8,0:0:0:0:
256,192,15680,1,8,0:0:0:0:
256,192,16004,1,0,0:0:0:0:
256,192,16329,1,8,0:0:0:0:
256,192,16977,1,8,0:0:0:0:
256,192,17626,1,0,0:0:0:0:
256,192,18275,1,8,0:0:0:0:
256,192,18599,1,8,0:0:0:0:
256,192,18923,1,0,0:0:0:0:
256,192,20221,1,8,0:0:0:0:
256,192,20869,1,0,0:0:0:0:
256,192,21194,1,8,0:0:0:0:
256,192,21518,1,0,0:0:0:0:
256,192,22167,1,8,0:0:0:0:
256,192,22815,1,0,0:0:0:0:
256,192,23464,1,8,0:0:0:0:
256,192,24437,1,0,0:0:0:0:
256,192,25410,1,0,0:0:0:0:
256,192,25896,1,0,0:0:0:0:
256,192,27031,1,8,0:0:0:0:
256,192,27518,1,8,0:0:0:0:
256,192,28004,1,0,0:0:0:0:
256,192,28653,1,8,0:0:0:0:
256,192,29626,1,0,0:0:0:0:
256,192,29950,1,8,0:0:0:0:
256,192,30599,1,0,0:0:0:0:
256,192,31248,1,8,0:0:0:0:
256,192,32221,1,8,0:0:0:0:
256,192,32707,1,8,0:0:0:0:
256,192,33194,1,0,0:0:0:0:
256,192,33841,1,8,0:0:0:0:
256,192,34814,1,0,0:0:0:0:
256,192,35140,1,8,0:0:0:0:
256,192,35787,1,0,0:0:0:0:
256,192,36275,1,0,0:0:0:0:
256,192,37410,1,8,0:0:0:0:
256,192,37895,1,8,0:0:0:0:
256,192,38383,1,0,0:0:0:0:
256,192,39031,1,8,0:0:0:0:
256,192,40004,1,0,0:0:0:0:
256,192,40329,1,8,0:0:0:0:
256,192,40977,1,0,0:0:0:0:
256,192,41464,1,0,0:0:0:0:
256,192,41950,1,0,0:0:0:0:
256,192,42599,1,0,0:0:0:0:
256,192,42923,1,8,0:0:0:0:
256,192,43248,1,0,0:0:0:0:
256,192,43572,1,0,0:0:0:0:
256,192,44869,1,8,0:0:0:0:
256,192,45842,1,0,0:0:0:0:
256,192,46167,1,8,0:0:0:0:
256,192,46815,1,8,0:0:0:0:
256,192,47464,1,0,0:0:0:0:
256,192,48113,1,8,0:0:0:0:
256,192,48761,1,0,0:0:0:0:
256,192,49086,1,0,0:0:0:0:
256,192,50058,1,0,0:0:0:0:
256,192,50383,1,0,0:0:0:0:
256,192,51356,1,0,0:0:0:0:
256,192,52004,1,0,0:0:0:0:
256,192,52653,1,0,0:0:0:0:
256,192,52977,1,0,0:0:0:0:
256,192,53302,1,8,0:0:0:0:
256,192,53950,1,8,0:0:0:0:
256,192,54275,1,8,0:0:0:0:
256,192,54599,1,0,0:0:0:0:
256,192,54923,1,8,0:0:0:0:
256,192,55572,1,8,0:0:0:0:
256,192,55896,1,0,0:0:0:0:
256,192,56221,1,8,0:0:0:0:
256,192,56869,1,0,0:0:0:0:
256,192,57194,1,8,0:0:0:0:
256,192,57518,1,8,0:0:0:0:
256,192,58167,1,8,0:0:0:0:
256,192,59140,1,8,0:0:0:0:
256,192,59464,1,8,0:0:0:0:
256,192,59788,1,0,0:0:0:0:
256,192,60113,1,8,0:0:0:0:
256,192,60761,1,8,0:0:0:0:
256,192,61086,1,0,0:0:0:0:
256,192,61410,1,8,0:0:0:0:
256,192,62058,1,8,0:0:0:0:
256,192,62383,1,8,0:0:0:0:
256,192,62707,1,0,0:0:0:0:
256,192,63031,1,0,0:0:0:0:
256,192,64329,1,8,0:0:0:0:
256,192,64654,1,8,0:0:0:0:
256,192,64978,1,0,0:0:0:0:
256,192,65302,1,8,0:0:0:0:
256,192,65951,1,8,0:0:0:0:
256,192,66275,1,0,0:0:0:0:
256,192,66600,1,8,0:0:0:0:
256,192,67248,1,0,0:0:0:0:
256,192,67573,1,8,0:0:0:0:
256,192,67897,1,8,0:0:0:0:
256,192,68546,1,8,0:0:0:0:
256,192,69519,1,0,0:0:0:0:
256,192,69843,1,8,0:0:0:0:
256,192,70167,1,0,0:0:0:0:
256,192,70492,1,8,0:0:0:0:
256,192,71140,1,8,0:0:0:0:
256,192,71465,1,0,0:0:0:0:
256,192,71789,1,8,0:0:0:0:
256,192,72437,1,8,0:0:0:0:
256,192,72762,1,8,0:0:0:0:
256,192,73086,1,0,0:0:0:0:
256,192,73410,1,8,0:0:0:0:
256,192,74059,1,0,0:0:0:0:
256,192,74707,1,0,0:0:0:0:
256,192,75680,1,8,0:0:0:0:
256,192,76004,1,0,0:0:0:0:
256,192,76329,1,8,0:0:0:0:
256,192,76977,1,0,0:0:0:0:
256,192,77302,1,8,0:0:0:0:
256,192,77950,1,8,0:0:0:0:
256,192,78275,1,0,0:0:0:0:
256,192,78600,1,8,0:0:0:0:
256,192,79248,1,8,0:0:0:0:
256,192,79896,1,0,0:0:0:0:
256,192,80869,1,8,0:0:0:0:
256,192,81193,1,0,0:0:0:0:
256,192,81518,1,8,0:0:0:0:
256,192,82167,1,8,0:0:0:0:
256,192,82490,1,0,0:0:0:0:
256,192,83139,1,8,0:0:0:0:
256,192,83463,1,0,0:0:0:0:
256,192,83788,1,8,0:0:0:0:
256,192,84436,1,8,0:0:0:0:
256,192,85085,1,0,0:0:0:0:
