osu file format v14

[General]
AudioFilename: canyouyukaccome.mp3
AudioLeadIn: 0
PreviewTime: 53943
Countdown: 0
SampleSet: Soft
StackLeniency: 0.7
Mode: 0
LetterboxInBreaks: 0
WidescreenStoryboard: 1

[Editor]
Bookmarks: 12438,22816,33195,43573,53951,74708,85087,95465,105843,116222,123681,139573,147357,157735,168114,173303,179789,181087,183681,191465,199249,209627,220005,225114
DistanceSpacing: 1.3
BeatDivisor: 4
GridSize: 4
TimelineZoom: 2.5

[Metadata]
Title:(can you) understand me?
TitleUnicode:(can you) understand me?
Artist:Komiya Mao
ArtistUnicode:小宮真央
Creator:Okoratu
Version:collab hard?
Source:東方輝針城 〜 Double Dealing Character.
Tags:ALiCE'S EMOTiON Precious Ray リバースイデオロギー Damnae dqs01733 Enhu Smokeman 東方Project Touhou Reverse Ideology ZUN Kijin Seija 鬼人 正邪
BeatmapID:889668
BeatmapSetID:409898

[Difficulty]
HPDrainRate:6
CircleSize:4
OverallDifficulty:6.5
ApproachRate:8
SliderMultiplier:1.4
SliderTickRate:1

[Events]
//Background and Video events
0,0,"ehhhhh.jpg",0,0
//Break Periods
2,157927,162166
//Storyboard Layer 0 (Background)
//Storyboard Layer 1 (Fail)
//Storyboard Layer 2 (Pass)
//Storyboard Layer 3 (Foreground)
Sprite,Foreground,Centre,"sb\me_irl.png",482,428 F,0,1772,2052,0,1 MX,1,1772,2052,442,482 S,0,1772,22808,0.73 F,30,22528,22808,1,0 MY,30,22528,22808,428,468
Sprite,Foreground,Centre,"sb\enhu.png",482,428 F,29,22528,22808,0,1 MY,29,22528,22808,388,428 S,0,22528,53943,0.73 F,30,53663,53943,1,0 MY,30,53663,53943,428,468
Sprite,Foreground,Centre,"sb\me_irl.png",482,428 F,29,53663,53943,0,1 MY,29,53663,53943,388,428 S,0,53663,64322,0.73 F,30,64042,64322,1,0 MY,30,64042,64322,428,468
Sprite,Foreground,Centre,"sb\enhu.png",482,428 F,29,64042,64322,0,1 MY,29,64042,64322,388,428 S,0,64042,74700,0.73 F,30,74420,74700,1,0 MY,30,74420,74700,428,468
Sprite,Foreground,Centre,"sb\me_irl.png",482,428 F,29,74420,74700,0,1 MY,29,74420,74700,388,428 S,0,74420,100646,0.73 F,30,100366,100646,1,0 MY,30,100366,100646,428,468
Sprite,Foreground,Centre,"sb\enhu.png",482,428 F,29,100366,100646,0,1 MY,29,100366,100646,388,428 S,0,100366,116214,0.73 F,30,115934,116214,1,0 MY,30,115934,116214,428,468
Sprite,Foreground,Centre,"sb\me_irl.png",482,428 F,29,115934,116214,0,1 MY,29,115934,116214,388,428 S,0,115934,126592,0.73 F,30,126312,126592,1,0 MY,30,126312,126592,428,468
Sprite,Foreground,Centre,"sb\enhu.png",482,428 F,29,126312,126592,0,1 MY,29,126312,126592,388,428 S,0,126312,147349,0.73 F,30,147069,147349,1,0 MY,30,147069,147349,428,468
Sprite,Foreground,Centre,"sb\me_irl.png",482,428 F,29,147069,147349,0,1 MY,29,147069,147349,388,428 S,0,147069,157727,0.73 F,30,157447,157727,1,0 MY,30,157447,157727,428,468
Sprite,Foreground,Centre,"sb\me_irl.png",482,428 F,0,162636,162916,0,1 MX,1,162636,162916,442,482 S,0,162636,178484,0.73 F,30,178204,178484,1,0 MY,30,178204,178484,428,468
Sprite,Foreground,Centre,"sb\enhu.png",482,428 F,29,178204,178484,0,1 MY,29,178204,178484,388,428 S,0,178204,209619,0.73 F,30,209339,209619,1,0 MY,30,209339,209619,428,468
Sprite,Foreground,Centre,"sb\me_irl.png",482,428 F,29,209339,209619,0,1 MY,29,209339,209619,388,428 S,0,209339,225106,0.73 F,30,224826,225106,1,0 MY,30,224826,225106,428,468
//Storyboard Sound Samples

[TimingPoints]
2052,324.324324324324,4,2,1,22,1,0
2376,-100,4,2,1,44,0,0
12430,-100,4,2,1,44,0,0
22808,-111.111111111111,4,2,1,44,0,0
33187,-100,4,2,1,44,0,0
34160,-100,4,2,1,22,0,0
34322,-100,4,2,1,44,0,0
36754,-100,4,2,1,22,0,0
36916,-100,4,2,1,44,0,0
37079,-100,4,2,1,44,0,0
39349,-100,4,2,1,22,0,0
39511,-100,4,2,1,44,0,0
41943,-100,4,2,1,22,0,0
42024,-100,4,2,1,44,0,0
43241,-100,4,2,1,22,0,0
43403,-100,4,2,1,44,0,0
43565,-200,4,2,1,33,0,0
52646,-125,4,2,1,33,0,0
53943,-100,4,2,1,55,0,1
74700,-100,4,2,1,55,0,1
85079,-111.111111111111,4,2,1,55,0,0
86051,-111.111111111111,4,2,1,33,0,0
86538,-111.111111111111,4,2,1,55,0,0
88646,-111.111111111111,4,2,1,33,0,0
89133,-111.111111111111,4,2,1,55,0,0
91241,-111.111111111111,4,2,1,33,0,0
91727,-111.111111111111,4,2,1,55,0,0
93835,-111.111111111111,4,2,1,33,0,0
94322,-111.111111111111,4,2,1,55,0,0
95457,-100,4,2,1,33,0,0
95943,-100,4,2,1,55,0,0
96430,-100,4,2,1,33,0,0
97079,-100,4,2,1,55,0,0
99024,-100,4,2,1,33,0,0
99511,-100,4,2,1,55,0,0
100646,-100,4,2,1,33,0,0
101133,-100,4,2,1,55,0,0
101619,-100,4,2,1,33,0,0
102268,-100,4,2,1,55,0,0
104214,-100,4,2,1,33,0,0
104700,-100,4,2,1,55,0,0
104862,-100,4,2,1,44,0,0
105349,-100,4,2,1,55,0,0
105835,-200,4,2,1,55,0,0
111024,-200,4,2,1,33,0,0
114916,-125,4,2,1,33,0,0
115079,-125,4,2,1,44,0,0
115889,-125,4,2,1,55,0,0
116214,-100,4,2,1,55,0,1
136970,-100,4,2,1,55,0,1
147349,-125,4,2,1,33,0,0
152538,-100,4,2,1,33,0,0
157727,-100,4,2,1,33,0,0
162916,-200,4,2,1,33,0,0
166808,-133.333333333333,4,2,1,33,0,0
167295,-113.636363636364,4,2,1,44,0,0
167781,-100,4,2,1,55,0,0
168106,-100,4,2,1,55,0,1
188862,-100,4,2,1,55,0,1
199241,-100,4,2,1,33,0,0
199565,-100,4,2,1,44,0,0
204106,-100,4,2,1,55,0,0
204430,-100,4,2,1,55,0,0
209619,-100,4,2,1,55,0,0
219997,-133.333333333333,4,2,1,33,0,0
220646,-133.333333333333,4,2,1,22,0,0
220808,-133.333333333333,4,2,1,33,0,0
221943,-133.333333333333,4,2,1,22,0,0
222106,-133.333333333333,4,2,1,33,0,0
223241,-133.333333333333,4,2,1,22,0,0
223403,-133.333333333333,4,2,1,33,0,0
224538,-133.333333333333,4,2,1,22,0,0
224700,-133.333333333333,4,2,1,33,0,0
225106,-133.333333333333,4,2,1,22,0,0

[Colours]
Combo1 : 235,146,86
Combo2 : 130,167,109
Combo3 : 236,94,104
Combo4 : 164,142,189

[HitObjects]
330,111,2052,6,0,P|279:113|162:92,1,140,2|0,1:2|3:0,0:0:0:0:
111,57,2538,1,0,0:0:0:0:
66,136,2700,2,0,L|48:219,1,70,2|0,3:2|0:0,0:0:0:0:
93,284,3024,2,0,P|124:266|173:264,1,70,0|0,0:0|0:0,0:0:0:0:
275,261,3349,6,0,P|264:302|273:351,1,70,0|0,3:0|0:3,0:0:0:0:
354,307,3673,1,0,1:2:0:0:
354,307,3997,2,0,L|363:157,1,140,2|0,3:2|3:3,0:0:0:0:
232,39,4646,5,0,0:0:0:0:
232,39,4808,2,0,P|191:68|88:65,1,140,2|0,0:0|3:0,0:0:0:0:
35,132,5295,2,0,P|51:167|61:214,1,70,2|0,0:0|0:0,0:0:0:0:
127,257,5619,2,0,P|140:213|165:182,1,70,0|0,0:0|0:0,0:0:0:0:
264,144,5943,6,0,B|284:227|231:201|272:311,1,140,2|2,0:0|1:2,0:0:0:0:
343,323,6430,1,0,0:0:0:0:
395,248,6592,2,0,P|413:219|454:193,1,70,2|0,3:2|0:0,0:0:0:0:
481,116,6916,1,2,3:2:0:0:
481,116,7241,6,0,L|330:102,1,140,0|2,1:0|0:0,0:0:0:0:
265,53,7727,1,0,0:0:0:0:
204,151,7889,2,0,P|198:198|198:231,1,70,8|0,0:0|0:0,0:0:0:0:
278,263,8214,2,0,P|282:223|282:181,1,70,2|0,0:0|0:0,0:0:0:0:
198,305,8538,6,0,P|157:317|75:237,1,140,0|2,1:0|0:0,0:0:0:0:
49,181,9024,1,0,1:0:0:0:
120,82,9187,2,0,L|129:172,1,70,8|4,0:0|1:3,0:0:0:0:
205,196,9511,1,10,0:3:0:0:
205,196,9835,6,0,P|240:154|341:165,1,140,0|0,1:0|0:0,0:0:0:0:
401,194,10322,1,2,0:0:0:0:
401,194,10484,2,0,L|391:281,1,70,8|0,0:0|0:0,0:0:0:0:
484,223,10808,2,0,L|477:138,1,70,2|0,2:0|0:0,0:0:0:0:
406,95,11133,6,0,P|378:99|331:90,1,70,0|0,1:0|0:0,0:0:0:0:
266,35,11457,2,0,P|213:29|175:39,1,70,2|0,2:0|1:0,0:0:0:0:
122,83,11781,1,8,0:0:0:0:
137,172,11943,1,8,0:0:0:0:
270,116,12106,1,8,0:0:0:0:
224,193,12268,1,8,0:0:0:0:
270,116,12430,6,0,P|312:84|409:130,1,140,4|8,1:0|0:0,0:0:0:0:
406,202,12916,1,0,1:0:0:0:
406,202,13079,2,0,P|391:248|388:290,1,70,0|0,2:0|0:0,0:0:0:0:
320,329,13403,2,0,P|314:287|293:252,1,70,8|0,0:0|0:0,0:0:0:0:
229,318,13727,6,0,P|176:328|110:247,1,140,0|8,1:0|0:0,0:0:0:0:
125,184,14214,2,0,P|170:189|213:189,1,70,0|2,1:0|2:0,0:0:0:0:
238,109,14538,1,0,1:0:0:0:
238,109,14700,2,0,P|193:104|150:104,1,70,8|0,2:0|2:0,0:0:0:0:
274,181,15024,6,0,P|276:120|339:55,1,140,0|8,1:0|0:0,0:0:0:0:
415,46,15511,2,0,L|402:195,1,140,0|0,1:0|1:0,0:0:0:0:
416,275,15997,1,10,0:0:0:0:
416,275,16322,6,0,P|370:267|332:274,1,70,0|2,1:0|2:0,0:0:0:0:
284,335,16646,2,0,P|245:344|207:337,1,70,8|0,0:0|1:0,0:0:0:0:
132,303,16970,1,2,0:0:0:0:
190,232,17133,1,0,1:0:0:0:
101,213,17295,1,10,2:0:0:0:
101,213,17619,6,0,P|107:162|102:55,1,140,0|8,1:0|0:0,0:0:0:0:
177,17,18106,1,0,1:0:0:0:
177,17,18268,2,0,P|216:27|260:25,1,70,0|0,2:0|0:0,0:0:0:0:
336,33,18592,2,0,P|322:74|328:130,1,70,8|0,0:0|0:0,0:0:0:0:
393,156,18916,6,0,P|399:114|497:61,1,140,0|8,1:0|0:0,0:0:0:0:
488,149,19403,2,0,P|476:194|475:236,1,70,0|2,1:0|2:0,0:0:0:0:
482,307,19727,1,0,1:0:0:0:
482,307,19889,2,0,P|435:302|384:302,1,70,8|0,2:0|2:0,0:0:0:0:
330,341,20214,6,0,P|264:354|202:294,1,140,0|8,1:0|0:0,0:0:0:0:
163,233,20700,2,0,L|177:68,1,140,0|2,1:0|1:2,0:0:0:0:
100,39,21187,2,0,P|100:88|90:118,1,70,10|2,0:0|0:0,0:0:0:0:
27,169,21511,6,0,P|16:215|18:259,1,70,0|2,1:0|0:0,0:0:0:0:
107,305,21835,2,0,P|96:259|98:215,1,70,8|2,0:0|1:2,0:0:0:0:
188,169,22160,2,0,P|177:215|179:259,1,70,0|2,0:0|1:2,0:0:0:0:
268,305,22484,2,0,P|257:259|259:215,1,70,8|2,2:0|2:0,0:0:0:0:
350,204,22808,6,0,P|341:266|351:328,1,125.999996154785,2|0,1:2|2:0,0:3:0:0:
430,224,23295,1,0,1:0:0:0:
416,147,23457,1,0,2:0:0:0:
416,147,23781,2,0,P|384:133|344:131,1,62.9999980773926,0|0,0:0|2:0,0:0:0:0:
273,145,24106,6,0,P|276:176|284:207,1,62.9999980773926,2|0,2:0|2:0,0:0:0:0:
207,96,24430,2,0,P|197:124|193:170,1,62.9999980773926,2|0,1:2|2:0,0:0:0:0:
186,239,24754,1,0,0:0:0:0:
186,239,25079,2,0,P|217:241|264:264,1,62.9999980773926,2|0,0:0|0:0,0:0:0:0:
299,316,25403,6,0,P|238:331|177:321,1,125.999996154785,2|0,1:2|0:0,0:0:0:0:
74,253,25889,1,0,1:0:0:0:
130,193,26051,1,0,2:0:0:0:
130,193,26376,2,0,L|198:184,1,62.9999980773926,0|0,2:0|2:0,0:0:0:0:
220,108,26700,6,0,L|297:115,1,62.9999980773926,0|0,2:0|2:0,0:0:0:0:
364,99,27024,2,0,P|325:48|245:32,1,125.999996154785,2|0,1:2|0:0,0:0:0:0:
189,32,27511,1,2,1:2:0:0:
189,32,27673,2,0,P|147:28|106:41,1,62.9999980773926,0|0,0:0|0:0,0:0:0:0:
76,191,27997,6,0,P|132:168|185:198,1,125.999996154785,0|0,1:0|2:0,0:0:0:0:
218,276,28484,1,0,1:0:0:0:
276,192,28646,1,8,2:0:0:0:
276,192,28970,2,0,P|255:156|243:108,1,62.9999980773926,0|0,0:0|2:0,0:0:0:0:
180,92,29294,6,0,P|169:129|167:180,1,62.9999980773926,2|0,2:0|2:0,0:0:0:0:
89,181,29618,2,0,P|95:212|108:241,1,62.9999980773926,2|0,1:2|2:0,0:0:0:0:
140,316,29943,1,8,2:0:0:0:
140,316,30268,2,0,L|216:311,1,62.9999980773926,2|0,2:0|0:0,0:0:0:0:
284,295,30592,6,0,B|309:235|258:235|291:154,1,125.999996154785,2|0,1:2|0:0,0:0:0:0:
227,113,31079,1,0,1:0:0:0:
152,185,31241,1,8,2:0:0:0:
152,185,31565,2,0,L|150:253,1,62.9999980773926,0|0,2:0|2:0,0:0:0:0:
189,321,31889,6,0,P|220:313|263:313,1,62.9999980773926,0|0,2:0|2:0,0:0:0:0:
383,332,32214,2,0,P|391:269|386:203,1,125.999996154785,2|8,1:2|0:0,0:0:0:0:
311,187,32700,1,2,1:2:0:0:
311,187,32862,2,0,P|283:170|250:162,1,62.9999980773926,0|0,2:0|0:0,0:0:0:0:
170,101,33187,6,2,P|237:69|316:79,1,140,0|0,1:0|0:0,0:1:0:0:
367,140,33673,1,0,1:0:0:0:
290,190,33835,2,0,L|230:225,1,70,8|0,2:0|0:0,0:0:0:0:
248,316,34160,2,0,P|288:319|336:312,1,70,2|0,0:1|0:0,0:0:0:0:
408,306,34484,6,0,P|412:269|410:235,1,70,2|0,2:1|2:0,0:1:0:0:
325,205,34808,2,0,P|334:135|331:63,1,140,0|8,1:0|2:0,0:0:0:0:
237,40,35295,1,2,2:0:0:0:
154,76,35457,1,2,0:0:0:0:
229,126,35619,1,0,0:0:0:0:
154,76,35781,6,2,P|113:122|72:217,1,140,0|0,1:0|0:0,0:1:0:0:
102,281,36268,1,0,1:0:0:0:
102,281,36430,2,0,P|132:254|168:232,1,70,8|0,2:0|0:0,0:0:0:0:
250,227,36754,2,0,P|284:204|307:168,1,70,2|0,1:1|0:0,0:0:0:0:
372,124,37079,6,0,P|389:154|402:186,1,70,2|0,2:1|0:0,0:1:0:0:
364,260,37403,2,0,P|310:238|239:159,1,140,0|8,1:0|2:2,0:0:0:0:
225,91,37889,1,2,1:2:0:0:
149,50,38051,1,2,0:0:0:0:
93,122,38214,1,0,0:0:0:0:
149,50,38376,6,2,P|208:20|290:30,1,140,2|0,1:2|0:0,0:1:0:0:
274,123,38862,1,0,1:0:0:0:
274,123,39024,2,0,P|241:111|174:108,1,70,8|0,2:0|0:0,0:0:0:0:
136,165,39349,2,0,P|122:202|114:238,1,70,2|0,0:1|0:0,0:0:0:0:
61,304,39673,6,0,P|82:331|107:356,1,70,2|0,2:1|0:0,0:0:0:0:
192,323,39997,2,0,P|266:327|330:307,1,140,0|8,1:1|2:0,0:0:0:0:
438,284,40484,1,2,2:0:0:0:
383,210,40646,1,2,2:0:0:0:
425,129,40808,1,0,2:0:0:0:
350,76,40970,6,2,P|285:123|298:206,1,140,2|0,1:2|0:0,0:1:0:0:
212,236,41457,1,0,1:0:0:0:
212,236,41619,2,0,P|212:195|194:147,1,70,8|0,2:0|2:0,0:0:0:0:
151,94,41943,2,0,P|122:123|106:176,1,70,2|0,1:1|0:0,0:0:0:0:
135,237,42268,5,2,1:1:0:0:
207,293,42430,2,0,P|195:324|175:353,2,70,2|0|2,0:0|1:0|0:0,0:0:0:0:
276,233,42916,1,14,2:0:0:0:
357,192,43079,1,0,1:0:0:0:
289,140,43241,1,2,1:2:0:0:
289,140,43565,6,0,P|230:162|160:132,1,140,2|8,1:2|0:0,0:0:0:0:
228,72,44538,1,2,0:0:0:0:
161,134,44862,6,0,P|136:201|151:276,1,140,2|8,2:2|0:0,0:0:0:0:
236,282,45835,1,2,0:0:0:0:
248,191,46160,6,0,P|252:156|270:120,1,70,2|0,0:0|0:0,0:0:0:0:
330,60,46808,2,0,P|347:90|352:130,1,70,10|0,0:0|2:0,0:0:0:0:
438,154,47457,6,0,P|421:184|380:214,1,70,2|0,0:0|0:0,0:0:0:0:
303,220,48106,2,0,P|318:251|348:280,1,70,10|0,2:0|0:0,0:0:0:0:
265,316,48754,5,2,1:2:0:0:
174,304,49079,1,0,1:0:0:0:
237,238,49403,2,0,P|279:231|304:220,1,70,8|0,2:0|0:0,0:0:0:0:
382,167,50051,5,2,1:2:0:0:
299,128,50376,1,0,1:0:0:0:
303,220,50700,2,0,P|324:254|348:276,1,70,8|0,0:0|0:0,0:0:0:0:
234,316,51349,6,0,P|201:313|165:302,1,70,2|0,1:2|0:0,0:0:0:0:
99,240,51997,2,0,P|130:223|174:215,1,70,2|0,1:2|0:0,0:0:0:0:
209,136,52646,5,0,1:0:0:0:
277,112,52808,1,2,0:0:0:0:
344,138,52970,2,0,P|349:167|348:196,1,56,0|2,0:0|0:0,0:0:0:0:
286,233,53295,2,0,P|293:272|306:306,1,56,0|2,0:0|0:0,0:0:0:0:
383,301,53619,2,0,L|400:343,2,28,2|0|2,0:0|0:0|0:0,0:0:0:0:
433,229,53943,6,0,P|424:189|451:71,1,140,2|8,1:2|0:0,0:0:0:0:
365,39,54430,2,0,P|320:54|276:48,1,70,0|0,1:0|0:0,0:0:0:0:
207,52,54754,1,0,1:0:0:0:
207,52,54916,2,0,P|213:96|211:132,1,70,8|0,2:0|0:0,0:0:0:0:
136,172,55241,6,0,P|103:159|62:133,1,70,0|0,1:0|0:0,0:0:0:0:
215,205,55565,1,8,0:0:0:0:
187,291,55727,1,0,1:0:0:0:
261,343,55889,2,0,P|301:314|402:339,1,140,2|10,0:0|2:0,0:0:0:0:
468,365,56376,1,0,1:0:0:0:
468,365,56538,6,0,L|459:214,1,140,0|8,1:0|2:0,0:0:0:0:
395,161,57024,2,0,P|345:172|298:162,1,70,0|0,1:0|2:0,0:0:0:0:
338,79,57349,1,0,1:0:0:0:
428,73,57511,2,0,P|478:62|525:72,1,70,8|0,2:0|2:0,0:0:0:0:
338,79,57835,6,0,B|258:57|284:103|182:69,1,140,0|8,1:2|0:0,0:0:0:0:
122,40,58322,1,0,1:0:0:0:
122,40,58484,2,0,P|103:90|98:128,1,70,2|0,1:2|0:0,0:0:0:0:
146,183,58808,2,0,P|158:220|160:259,1,70,10|0,2:0|0:0,0:0:0:0:
55,328,59133,6,0,L|62:169,1,140,2|8,1:2|0:0,0:0:0:0:
100,106,59619,2,0,P|154:108|191:99,1,70,0|0,1:0|0:0,0:0:0:0:
253,70,59943,1,0,1:0:0:0:
253,70,60106,2,0,L|247:146,1,70,8|0,2:0|0:0,0:0:0:0:
332,171,60430,6,0,L|372:88,1,70,0|0,1:0|0:0,0:0:0:0:
384,247,60754,1,8,0:0:0:0:
314,305,60916,1,0,1:0:0:0:
245,244,61079,2,0,P|180:205|97:239,1,140,2|10,0:2|2:0,0:0:0:0:
170,294,61565,1,0,1:0:0:0:
170,294,61727,6,0,L|190:137,1,140,0|8,1:0|2:0,0:0:0:0:
238,79,62214,2,0,L|326:73,2,70,0|0|0,1:0|2:0|1:0,0:0:0:0:
156,39,62700,2,0,P|119:28|73:34,1,70,8|0,2:0|2:0,0:0:0:0:
31,101,63024,6,0,B|53:176|11:162|33:257,1,140,0|8,1:0|0:0,0:0:0:0:
85,310,63511,1,0,1:0:0:0:
85,310,63673,2,0,P|126:286|215:299,1,140,2|10,1:3|2:0,0:0:0:0:
295,339,64160,1,0,0:0:0:0:
343,261,64322,6,0,L|335:107,1,140,2|8,1:2|2:0,0:0:0:0:
255,78,64808,2,0,P|220:89|158:94,1,70,0|0,1:0|2:0,0:0:0:0:
102,58,65133,1,0,1:0:0:0:
102,58,65295,2,0,P|100:99|88:157,1,70,8|0,2:0|0:0,0:0:0:0:
56,211,65619,6,0,P|38:185|20:148,1,70,0|0,1:0|0:0,0:0:0:0:
118,278,65943,1,8,2:0:0:0:
193,226,66106,1,0,1:0:0:0:
281,248,66268,2,0,P|301:188|305:107,1,140,2|10,2:0|2:0,0:0:0:0:
250,39,66754,1,0,2:0:0:0:
250,39,66916,6,0,B|308:3|331:54|394:2,1,140,0|8,1:0|2:0,0:0:0:0:
393,100,67403,2,0,L|417:194,2,70,0|0|0,1:0|2:0|0:0,0:0:0:0:
326,162,67889,2,0,P|304:183|257:217,1,70,10|0,2:0|0:0,0:0:0:0:
229,130,68214,6,0,P|177:79|100:86,1,140,2|8,1:2|0:0,0:0:0:0:
150,164,68700,1,0,1:1:0:0:
150,164,68862,2,0,P|134:200|122:253,1,70,2|0,0:2|1:0,0:0:0:0:
181,303,69187,2,0,P|197:267|209:214,1,70,2|0,1:2|0:0,0:0:0:0:
230,150,69511,6,0,P|296:142|400:128,1,140,2|8,1:2|0:0,0:0:0:0:
460,126,69997,2,0,P|453:163|431:215,1,70,0|0,1:0|0:0,0:0:0:0:
367,243,70322,1,0,1:0:0:0:
367,243,70484,2,0,P|330:232|299:208,1,70,8|0,2:0|0:0,0:0:0:0:
218,184,70808,6,0,P|184:213|149:257,1,70,0|0,1:0|0:0,0:0:0:0:
288,123,71133,1,8,0:0:0:0:
372,157,71295,1,0,1:0:0:0:
426,82,71457,2,0,P|456:134|432:236,1,140,2|10,0:2|2:2,0:0:0:0:
394,286,71943,1,0,1:0:0:0:
394,286,72106,6,0,P|364:234|388:132,1,140,0|8,1:0|2:0,0:0:0:0:
399,69,72592,2,0,P|367:56|311:51,2,70,0|0|0,1:0|2:0|1:0,0:0:0:0:
454,143,73079,2,0,L|440:234,1,70,8|0,2:0|2:0,0:0:0:0:
377,276,73403,6,0,B|316:258|305:292|231:262,1,140,2|10,1:2|0:0,0:0:0:0:
212,168,73889,1,0,1:0:0:0:
212,168,74051,2,0,P|169:169|117:179,1,70,2|0,1:2|2:0,0:0:0:0:
115,260,74376,2,0,P|87:243|57:202,1,70,10|0,2:0|2:0,0:0:0:0:
198,287,74700,6,0,B|242:274|276:287|257:301|306:319|360:290,1,140,2|8,1:2|0:0,0:0:0:0:
314,210,75187,2,0,P|309:174|384:115,1,140,2|0,1:2|2:2,0:0:0:0:
470,133,75673,1,8,2:0:0:0:
470,133,75997,6,0,L|465:48,1,70,2|0,1:2|0:2,0:0:0:0:
386,18,76322,1,8,0:0:0:0:
386,18,76484,2,0,P|331:42|242:37,1,140,2|0,1:2|1:0,0:0:0:0:
163,20,76970,1,8,2:0:0:0:
112,195,77295,6,0,L|120:334,1,140,0|0,1:0|0:0,0:0:0:0:
202,374,77781,1,2,1:2:0:0:
256,301,77943,2,0,P|290:261|394:282,1,140,8|2,2:0|2:0,0:0:0:0:
451,307,78430,1,0,0:0:0:0:
451,307,78592,6,0,L|441:379,1,70,0|4,1:0|1:3,0:0:0:0:
504,233,78916,2,0,L|494:150,1,70,2|0,0:2|1:0,0:0:0:0:
431,97,79241,1,8,0:0:0:0:
361,155,79403,1,4,0:3:0:0:
344,65,79565,1,2,2:0:0:0:
344,65,79889,6,0,P|299:77|199:38,1,140,2|8,1:2|2:2,0:0:0:0:
126,18,80376,2,0,B|115:59|120:99|137:82|140:114|120:168,1,140,2|0,1:2|0:0,0:0:0:0:
99,242,80862,1,8,2:0:0:0:
99,242,81187,6,0,L|197:232,1,70,2|0,1:2|0:0,0:0:0:0:
259,230,81511,1,8,2:0:0:0:
259,230,81673,2,0,P|247:280|255:373,1,140,2|0,1:2|1:0,0:0:0:0:
343,353,82160,1,8,0:0:0:0:
413,185,82484,5,0,1:0:0:0:
413,185,82646,2,0,L|315:194,1,70,2|8,2:0|2:0,0:0:0:0:
292,115,82970,2,0,L|449:99,1,140,0|0,1:0|1:0,0:0:0:0:
499,161,83457,2,0,L|491:245,1,70,8|2,2:0|2:0,0:0:0:0:
439,305,83781,6,0,P|391:293|350:300,1,70,0|2,1:0|2:0,0:0:0:0:
256,361,84106,2,0,P|301:367|336:350,1,70,8|8,2:0|2:3,0:0:0:0:
258,247,84430,2,0,P|224:239|190:249,1,70,4|2,2:3|2:0,0:0:0:0:
65,315,84754,2,0,L|68:396,1,70,8|2,2:0|2:0,0:0:0:0:
113,239,85079,6,0,P|73:199|85:120,1,125.999996154785,2|0,1:2|0:0,0:0:0:0:
126,69,85565,1,0,1:0:0:0:
151,170,85727,1,8,2:0:0:0:
151,170,86051,2,0,P|191:163|224:164,1,62.9999980773926,0|0,1:0|0:0,0:0:0:0:
287,194,86376,6,0,L|277:277,1,62.9999980773926,2|0,1:2|0:0,0:0:0:0:
357,232,86700,2,0,L|364:169,1,62.9999980773926,2|0,1:2|0:0,0:0:0:0:
311,86,87024,1,8,2:0:0:0:
311,86,87349,2,0,P|273:89|232:72,1,62.9999980773926,0|0,2:0|2:0,0:0:0:0:
288,10,87673,6,0,P|341:0|411:54,1,125.999996154785,0|0,1:2|2:2,0:0:0:0:
437,109,88160,1,0,1:2:0:0:
377,165,88322,1,8,2:0:0:0:
377,165,88646,2,0,P|335:156|301:156,1,62.9999980773926,0|0,1:2|0:0,0:0:0:0:
246,200,88970,6,0,L|250:284,1,62.9999980773926,0|0,1:2|2:0,0:0:0:0:
157,168,89295,2,0,P|169:121|129:54,1,125.999996154785,2|8,1:2|0:0,0:0:0:0:
85,123,89781,1,2,1:2:0:0:
85,123,89943,2,0,P|84:174|81:199,1,62.9999980773926,0|0,0:0|2:0,0:0:0:0:
137,319,90268,6,0,P|150:276|243:254,1,125.999996154785,2|0,1:2|0:0,0:0:0:0:
297,273,90754,1,0,1:0:0:0:
239,363,90916,1,8,2:0:0:0:
239,363,91241,2,0,P|285:354|329:358,1,62.9999980773926,0|0,1:0|0:0,0:0:0:0:
382,350,91565,6,0,P|375:304|380:274,1,62.9999980773926,2|0,1:2|0:0,0:0:0:0:
450,251,91889,2,0,P|459:207|458:165,1,62.9999980773926,2|0,1:2|0:0,0:0:0:0:
351,124,92214,1,8,2:0:0:0:
351,124,92538,2,0,P|315:130|286:128,1,62.9999980773926,0|0,2:0|2:0,0:0:0:0:
214,94,92862,6,0,P|220:157|212:229,1,125.999996154785,0|0,1:0|2:2,0:0:0:0:
163,284,93349,1,0,1:0:0:0:
104,192,93511,1,8,2:0:0:0:
104,192,93835,2,0,P|105:143|113:108,1,62.9999980773926,0|0,1:2|0:0,0:0:0:0:
127,49,94160,6,0,P|161:56|200:51,1,62.9999980773926,0|0,1:0|2:0,0:0:0:0:
325,17,94484,2,0,B|309:64|341:97|316:168,1,125.999996154785,2|8,1:2|0:0,0:0:0:0:
270,204,94970,1,2,1:2:0:0:
270,204,95133,2,0,P|229:181|188:179,1,62.9999980773926,0|0,0:0|2:0,0:0:0:0:
199,297,95457,6,2,P|262:276|362:296,1,140,2|0,1:2|0:0,0:1:0:0:
412,329,95943,1,0,1:0:0:0:
414,237,96106,2,0,P|415:187|430:146,1,70,8|0,2:0|0:0,0:0:0:0:
441,79,96430,2,0,P|393:87|354:77,1,70,2|0,1:0|0:0,0:0:0:0:
291,41,96754,6,0,P|243:38|192:51,1,70,2|0,1:0|0:0,0:1:0:0:
190,193,97079,2,0,P|218:158|320:176,1,140,0|8,1:0|2:0,0:0:0:0:
328,249,97565,1,2,2:0:0:0:
254,302,97727,1,2,0:0:0:0:
167,273,97889,1,0,0:0:0:0:
91,322,98051,6,2,L|96:170,1,140,2|0,1:2|2:2,0:1:0:0:
139,101,98538,1,0,1:0:0:0:
139,101,98700,2,0,L|222:95,1,70,8|0,2:0|0:0,0:0:0:0:
299,92,99024,2,0,P|288:142|291:170,1,70,2|0,1:1|0:0,0:0:0:0:
364,213,99349,6,0,P|372:173|363:134,1,70,2|0,1:0|2:0,0:1:0:0:
235,212,99673,2,0,P|266:259|265:353,1,140,0|8,1:0|0:0,0:0:0:0:
180,363,100160,1,2,1:2:0:0:
133,284,100322,1,2,0:0:0:0:
51,325,100484,1,0,2:2:0:0:
133,284,100646,6,2,P|138:229|116:131,1,140,2|0,1:2|0:0,0:1:0:0:
106,56,101133,1,0,1:0:0:0:
106,56,101295,2,0,P|146:58|200:79,1,70,8|0,2:0|0:0,0:0:0:0:
249,120,101619,2,0,P|231:154|220:200,1,70,2|0,1:0|0:0,0:0:0:0:
286,249,101943,6,0,P|304:215|315:169,1,70,2|0,1:0|0:0,0:1:0:0:
350,101,102268,2,0,P|398:141|439:228,1,140,0|8,1:0|2:0,0:0:0:0:
374,277,102754,1,2,2:0:0:0:
286,249,102916,1,2,2:0:0:0:
217,309,103079,1,0,2:0:0:0:
137,267,103241,6,2,P|143:207|122:98,1,140,2|0,1:2|2:2,0:1:0:0:
46,89,103727,1,0,1:0:0:0:
46,89,103889,2,0,P|37:121|52:176,1,70,8|0,2:0|0:0,0:0:0:0:
83,238,104214,2,0,L|160:223,1,70,2|0,1:1|0:0,0:0:0:0:
242,214,104538,5,2,1:0:0:0:
252,124,104700,2,0,P|214:114|168:120,2,70,2|0|2,2:0|1:0|2:0,0:0:0:0:
342,135,105187,1,14,0:0:0:0:
399,207,105349,1,0,1:0:0:0:
314,231,105511,1,2,0:0:0:0:
314,231,105835,6,0,P|311:159|276:90,1,140,2|0,1:2|2:2,0:0:0:0:
201,58,106808,1,0,0:0:0:0:
286,23,107133,6,0,P|359:38|416:83,1,140,2|2,2:2|2:2,0:0:0:0:
400,167,108106,1,2,0:0:0:0:
314,198,108430,6,0,P|276:197|242:204,1,70,2|0,2:2|0:0,0:0:0:0:
213,289,109079,2,0,P|188:271|163:237,1,70,2|0,2:2|0:0,0:0:0:0:
194,154,109727,6,0,P|162:148|116:160,1,70,2|0,2:2|0:0,0:0:0:0:
37,178,110376,2,0,P|52:214|86:239,1,70,2|0,2:2|0:0,0:0:0:0:
161,267,111024,5,2,1:2:0:0:
246,233,111349,1,0,1:0:0:0:
336,217,111673,2,0,P|372:216|409:222,1,70,2|0,2:2|0:0,0:0:0:0:
282,140,112322,5,2,1:2:0:0:
197,106,112646,1,0,1:0:0:0:
107,90,112970,2,0,P|71:89|34:95,1,70,2|0,2:2|0:0,0:0:0:0:
35,186,113619,6,0,P|56:214|92:239,1,70,2|0,1:2|0:0,0:0:0:0:
168,197,114268,2,0,P|195:217|216:245,1,70,2|0,1:2|0:0,0:0:0:0:
285,308,114916,5,0,1:0:0:0:
352,276,115079,1,2,2:0:0:0:
391,214,115241,2,0,P|392:189|397:159,1,56,0|2,0:0|0:0,0:0:0:0:
381,87,115565,2,0,P|349:80|302:93,1,56,0|0,0:0|0:0,0:0:0:0:
264,149,115889,2,0,L|259:186,2,28,2|0|2,0:0|0:0|0:0,0:0:0:0:
223,68,116214,6,0,P|168:49|94:116,1,140,2|8,1:2|0:0,0:0:0:0:
73,175,116700,2,0,P|89:219|95:259,1,70,0|0,1:0|0:0,0:0:0:0:
167,293,117024,1,0,1:0:0:0:
167,293,117187,2,0,P|181:253|208:223,1,70,8|0,2:0|0:0,0:0:0:0:
288,231,117511,6,0,P|308:259|318:292,1,70,0|0,1:0|0:0,0:0:0:0:
244,157,117835,1,8,0:0:0:0:
329,126,117997,1,0,1:0:0:0:
278,49,118160,2,0,L|133:52,1,140,2|10,0:0|2:0,0:0:0:0:
67,109,118646,1,0,1:0:0:0:
67,109,118808,6,0,B|83:178|40:167|68:274,1,140,0|8,1:0|2:0,0:0:0:0:
146,282,119295,2,0,P|144:233|156:194,1,70,0|0,1:0|2:0,0:0:0:0:
221,158,119619,1,0,1:0:0:0:
249,244,119781,2,0,P|254:278|251:313,1,70,8|0,2:0|2:0,0:0:0:0:
221,158,120106,6,0,B|291:148|291:148|349:188,1,140,0|8,1:0|0:0,0:0:0:0:
411,252,120592,1,0,1:0:0:0:
464,178,120754,2,0,P|480:139|480:99,1,70,2|0,1:2|0:0,0:0:0:0:
411,252,121079,2,0,P|414:286|428:318,1,70,10|0,2:2|0:0,0:0:0:0:
348,187,121403,6,0,P|329:129|355:38,1,140,2|8,1:2|0:0,0:0:0:0:
258,25,121889,1,0,1:0:0:0:
258,25,122051,2,0,L|176:34,1,70,0|0,0:0|1:0,0:0:0:0:
116,89,122376,2,0,P|128:131|123:171,1,70,8|0,0:0|0:0,0:0:0:0:
177,231,122700,6,0,P|231:209|271:213,1,70,0|0,1:0|0:0,0:0:0:0:
119,308,123024,1,8,0:0:0:0:
74,228,123187,1,0,1:0:0:0:
137,162,123349,2,0,P|166:119|167:77,1,70,2|0,0:0|1:0,0:0:0:0:
69,14,123673,2,0,P|73:67|96:96,1,70,10|0,2:0|1:0,0:0:0:0:
154,27,123997,6,0,B|232:9|223:56|316:33,1,140,0|8,1:0|2:0,0:0:0:0:
373,77,124484,2,0,P|354:112|352:143,2,70,0|0|0,1:0|2:0|1:0,0:0:0:0:
444,20,124970,2,0,L|517:16,1,70,8|0,2:0|2:0,0:0:0:0:
485,103,125295,6,0,P|460:151|478:253,1,140,0|8,1:0|0:0,0:0:0:0:
423,313,125781,1,0,1:0:0:0:
423,313,125943,2,0,L|262:297,1,140,2|10,1:3|2:2,0:0:0:0:
208,351,126430,1,0,0:0:0:0:
136,296,126592,6,0,P|180:232|268:204,1,140,2|8,1:2|2:0,0:0:0:0:
296,136,127079,2,0,P|260:116|208:124,1,70,0|0,1:0|2:0,0:0:0:0:
150,155,127403,1,0,1:0:0:0:
150,155,127565,2,0,P|143:123|149:66,1,70,8|0,2:0|0:0,0:0:0:0:
231,115,127889,6,0,P|238:147|232:204,1,70,0|0,1:0|0:0,0:0:0:0:
291,50,128214,1,8,2:0:0:0:
366,101,128376,1,0,1:0:0:0:
446,56,128538,2,0,P|451:130|388:195,1,140,2|10,2:0|2:0,0:0:0:0:
391,270,129024,1,0,2:0:0:0:
391,270,129187,6,0,B|328:291|325:249|240:273,1,140,0|8,1:0|2:0,0:0:0:0:
173,227,129673,2,0,P|167:190|166:143,1,70,0|0,1:0|2:0,0:0:0:0:
209,78,129997,1,0,0:0:0:0:
291,117,130160,2,0,P|297:154|298:201,1,70,8|0,2:0|0:0,0:0:0:0:
315,276,130484,6,0,P|364:248|379:157,1,140,0|8,1:0|0:0,0:0:0:0:
372,83,130970,1,0,1:0:0:0:
452,129,131133,2,0,P|474:151|496:208,1,70,2|0,2:0|1:0,0:0:0:0:
372,83,131457,2,0,P|350:61|328:4,1,70,10|0,2:0|2:0,0:0:0:0:
384,171,131781,6,0,B|314:166|314:166|231:116,1,140,2|8,1:2|0:0,0:0:0:0:
205,52,132268,2,0,P|175:82|152:138,1,70,0|0,1:0|0:0,0:0:0:0:
159,197,132592,1,0,1:0:0:0:
159,197,132754,2,0,P|197:210|245:243,1,70,8|0,2:0|0:0,0:0:0:0:
303,271,133079,6,0,P|340:275|393:267,1,70,0|0,1:0|0:0,0:0:0:0:
221,307,133403,1,8,0:0:0:0:
135,277,133565,1,0,1:0:0:0:
197,215,133727,2,0,P|232:152|208:72,1,140,2|10,0:0|2:0,0:0:0:0:
148,141,134214,1,0,1:0:0:0:
148,141,134376,6,0,P|220:153|287:195,1,140,0|8,1:0|2:0,0:0:0:0:
337,256,134862,2,0,P|366:233|390:200,1,70,0|0,1:0|0:0,0:0:0:0:
381,116,135187,1,0,1:0:0:0:
295,85,135349,2,0,P|263:87|207:70,1,70,8|0,2:0|2:0,0:0:0:0:
142,41,135673,6,0,L|100:189,1,140,0|8,1:0|0:0,0:0:0:0:
143,259,136160,1,0,1:0:0:0:
143,259,136322,2,0,P|179:243|219:237,1,70,2|0,1:3|2:0,0:0:0:0:
285,288,136646,2,0,P|324:292|365:286,1,70,10|0,2:0|2:0,0:0:0:0:
217,338,136970,6,0,B|154:362|159:312|49:342,1,140,2|8,1:2|0:0,0:0:0:0:
56,247,137457,2,0,P|89:189|87:89,1,140,2|0,1:2|2:2,0:0:0:0:
99,30,137943,1,8,2:0:0:0:
99,30,138268,6,0,P|135:36|177:83,1,70,2|0,1:2|0:0,0:0:0:0:
225,117,138592,1,8,0:0:0:0:
225,117,138754,2,0,P|286:123|384:102,1,140,2|0,1:2|1:0,0:0:0:0:
439,57,139241,1,8,2:0:0:0:
445,242,139565,6,0,L|299:290,1,140,0|0,1:0|0:0,0:0:0:0:
229,325,140051,1,2,1:2:0:0:
240,234,140214,2,0,P|264:176|258:78,1,140,8|2,2:0|2:0,0:0:0:0:
173,103,140700,1,0,0:0:0:0:
173,103,140862,6,0,P|180:70|203:28,1,70,2|4,1:2|1:3,0:0:0:0:
88,152,141187,2,0,P|95:186|110:217,1,70,2|0,0:2|1:0,0:0:0:0:
194,257,141511,1,8,0:0:0:0:
282,232,141673,1,4,0:3:0:0:
352,290,141835,1,2,2:0:0:0:
352,290,142160,6,0,P|359:226|392:133,1,140,2|8,1:2|2:2,0:0:0:0:
405,66,142646,2,0,B|336:90|330:40|245:64,1,140,2|0,1:2|0:0,0:0:0:0:
176,66,143133,1,8,2:0:0:0:
176,66,143457,6,0,P|170:103|144:146,1,70,2|0,1:2|0:0,0:0:0:0:
88,193,143781,1,8,2:0:0:0:
88,193,143943,2,0,P|114:244|188:295,1,140,2|0,1:2|1:0,0:0:0:0:
272,288,144430,1,8,0:0:0:0:
329,115,144754,5,0,1:0:0:0:
329,115,144916,2,0,L|235:129,1,70,2|8,2:0|2:0,0:0:0:0:
177,85,145241,2,0,P|224:52|308:37,1,140,0|0,1:0|1:0,0:0:0:0:
382,86,145727,2,0,P|388:115|388:171,1,70,8|2,2:0|2:0,0:0:0:0:
377,245,146051,6,0,P|338:245|283:257,1,70,0|2,1:0|2:0,0:0:0:0:
242,347,146376,2,0,P|276:347|311:342,1,70,8|8,2:0|2:3,0:0:0:0:
211,259,146700,2,0,P|176:258|141:263,1,70,4|2,2:3|2:0,0:0:0:0:
78,160,147024,2,0,P|81:127|91:81,1,70,8|2,2:0|2:0,0:0:0:0:
152,26,147349,5,2,1:2:0:0:
170,170,147673,1,0,3:0:0:0:
314,152,147997,1,2,3:2:0:0:
178,97,148322,1,0,0:0:0:0:
318,59,148646,6,0,P|366:65|389:79,1,56,0|0,3:1|0:0,0:0:0:0:
425,117,148970,2,0,P|417:159|416:190,1,56,0|0,3:0|0:0,0:0:0:0:
393,241,149295,2,0,P|390:192|323:155,1,112,2|0,3:2|3:2,0:0:0:0:
198,174,149943,6,0,L|206:310,1,112,0|0,1:0|0:0,0:0:0:0:
331,357,150592,1,2,0:0:0:0:
274,222,150916,1,0,0:0:0:0:
292,77,151241,6,0,P|340:61|368:67,1,56,2|0,0:0|0:0,0:0:0:0:
397,151,151565,2,0,P|361:138|325:133,1,56,2|0,0:0|0:0,0:0:0:0:
299,199,151889,2,0,B|264:256|292:315,1,112,2|2,0:0|0:0,0:0:0:0:
442,353,152538,6,0,P|457:307|430:190,1,140,2|0,1:2|0:0,0:0:0:0:
441,136,153024,1,0,0:0:0:0:
441,136,153187,2,0,L|293:138,1,140,10|0,0:0|0:0,0:0:0:0:
305,141,153835,6,0,P|296:182|298:224,1,70,0|0,1:2|0:0,0:0:0:0:
207,240,154160,2,0,P|214:194|203:153,1,70,2|0,0:0|0:0,0:0:0:0:
127,84,154484,2,0,L|134:229,1,140,10|2,0:0|0:3,0:0:0:0:
288,320,155133,6,0,P|320:275|403:274,1,140,0|0,1:2|0:0,0:0:0:0:
481,310,155619,1,0,0:0:0:0:
481,310,155781,2,0,L|482:151,1,140,10|0,0:0|0:0,0:0:0:0:
485,174,156430,6,0,P|439:178|392:162,1,70,2|0,0:0|0:0,0:0:0:0:
346,114,156754,2,0,P|299:103|256:112,1,70,2|0,0:0|0:0,0:0:0:0:
188,126,157079,1,8,0:0:0:0:
219,211,157241,1,0,1:0:0:0:
152,272,157403,1,8,0:0:0:0:
185,356,157565,1,0,0:0:0:0:
257,300,157727,5,4,1:0:0:0:
326,82,162916,6,0,P|291:129|302:210,1,140,2|0,0:0|0:0,0:0:0:0:
351,281,163889,1,0,0:0:0:0:
259,280,164214,6,0,B|193:264|191:312|117:297,1,140,2|0,0:0|0:0,0:0:0:0:
61,230,165187,1,0,0:0:0:0:
61,230,165511,6,0,L|65:87,1,140,2|0,0:0|0:0,0:0:0:0:
133,29,166484,1,0,0:0:0:0:
205,85,166808,6,0,P|251:98|313:67,1,105.000004005432,0|0,1:0|0:0,0:0:0:0:
367,30,167295,1,2,1:2:0:0:
367,30,167457,2,0,L|375:98,1,61.6000018798829,0|0,1:0|0:0,0:0:0:0:
444,148,167781,2,0,P|467:145|483:141,2,35,2|0|2,1:2|0:0|0:0,0:0:0:0:
439,239,168106,6,0,B|379:204|372:255|300:225,1,140,0|8,1:0|0:0,0:0:0:0:
213,216,168592,2,0,P|201:255|202:295,1,70,0|0,1:0|0:0,0:0:0:0:
131,340,168916,1,0,1:0:0:0:
131,340,169079,2,0,P|101:298|74:278,1,70,8|0,2:0|0:0,0:0:0:0:
88,195,169403,6,0,P|113:171|131:141,1,70,0|0,1:0|0:0,0:0:0:0:
17,242,169727,1,8,0:0:0:0:
10,332,169889,1,0,1:0:0:0:
87,286,170051,2,0,P|128:266|182:260,1,70,2|0,0:0|1:0,0:0:0:0:
239,285,170376,2,0,L|243:367,1,70,10|0,2:0|1:0,0:0:0:0:
333,359,170700,6,0,P|328:304|356:217,1,140,0|8,1:0|2:0,0:0:0:0:
403,148,171187,1,0,1:0:0:0:
339,82,171349,2,0,P|271:42|188:69,1,140,0|8,2:0|2:0,0:0:0:0:
138,101,171835,1,0,2:0:0:0:
138,101,171997,6,0,L|144:251,1,140,0|8,1:0|0:0,0:0:0:0:
196,315,172484,1,0,0:0:0:0:
249,241,172646,2,0,P|284:216|330:216,1,70,2|0,0:2|0:0,0:0:0:0:
386,334,172970,2,0,P|352:327|325:305,1,70,8|0,2:0|0:0,0:0:0:0:
393,244,173295,6,0,P|396:195|330:127,1,140,2|8,1:2|0:0,0:0:0:0:
250,109,173781,2,0,L|260:29,1,70,0|0,1:0|2:0,0:0:0:0:
172,33,174106,1,0,1:0:0:0:
172,33,174268,2,0,L|174:120,1,70,8|0,2:0|0:0,0:0:0:0:
88,135,174592,6,0,L|23:70,1,70,0|0,1:0|0:0,0:0:0:0:
159,189,174916,1,8,0:0:0:0:
136,277,175079,1,0,1:0:0:0:
211,327,175241,2,0,P|248:305|295:305,1,70,2|0,0:0|1:0,0:0:0:0:
364,294,175565,2,0,L|363:375,1,70,10|0,2:0|1:0,0:0:0:0:
449,334,175889,6,0,P|445:265|494:177,1,140,0|8,1:0|2:0,0:0:0:0:
474,110,176376,2,0,P|428:115|393:110,1,70,0|0,1:0|2:0,0:0:0:0:
335,53,176700,1,0,1:0:0:0:
335,53,176862,2,0,P|282:40|238:41,1,70,8|0,2:0|2:0,0:0:0:0:
179,67,177187,6,0,L|185:213,1,140,0|8,1:0|0:0,0:0:0:0:
228,286,177673,1,0,1:0:0:0:
228,286,177835,2,0,P|265:256|373:282,1,140,2|10,1:3|2:0,0:0:0:0:
425,319,178322,1,0,0:0:0:0:
430,228,178484,6,0,P|440:160|414:66,1,140,2|8,1:2|2:0,0:0:0:0:
346,134,178970,2,0,P|317:151|251:164,1,70,0|0,1:0|2:0,0:0:0:0:
207,109,179295,1,0,1:0:0:0:
207,109,179457,2,0,P|185:142|175:195,1,70,8|0,2:0|0:0,0:0:0:0:
133,251,179781,6,0,P|94:235|66:199,1,70,0|0,1:0|0:0,0:0:0:0:
228,254,180106,1,8,2:0:0:0:
296,193,180268,1,0,1:0:0:0:
381,224,180430,2,0,P|378:149|318:105,1,140,2|10,2:0|2:0,0:0:0:0:
248,72,180916,1,0,2:0:0:0:
248,72,181079,6,0,P|316:27|396:43,1,140,0|8,1:0|2:0,0:0:0:0:
418,109,181565,2,0,L|440:199,2,70,0|0|0,1:0|2:0|0:0,0:0:0:0:
350,169,182051,2,0,P|326:198|267:220,1,70,10|0,2:2|0:0,0:0:0:0:
223,161,182376,6,0,L|63:144,1,140,2|8,1:2|2:0,0:0:0:0:
50,231,182862,1,0,1:0:0:0:
117,292,183024,2,0,P|153:280|192:239,1,70,2|0,0:0|1:0,0:0:0:0:
268,245,183349,2,0,P|281:271|303:332,1,70,10|0,0:0|0:0,0:0:0:0:
210,191,183673,6,0,P|146:148|110:84,1,140,2|8,1:2|0:0,0:0:0:0:
176,29,184160,2,0,P|215:30|270:42,1,70,0|0,1:0|0:0,0:0:0:0:
328,74,184484,1,0,1:0:0:0:
328,74,184646,2,0,P|298:104|277:159,1,70,8|0,2:0|0:0,0:0:0:0:
331,207,184970,6,0,P|362:195|425:194,1,70,0|0,1:0|0:0,0:0:0:0:
246,232,185295,1,8,0:0:0:0:
160,200,185457,1,0,1:0:0:0:
167,291,185619,2,0,P|220:324|317:307,1,140,2|10,0:0|2:0,0:0:0:0:
376,277,186106,1,0,1:0:0:0:
376,277,186268,6,0,L|400:129,1,140,0|8,1:0|2:0,0:0:0:0:
331,77,186754,2,0,P|296:85|258:117,1,70,0|0,1:0|2:0,0:0:0:0:
272,196,187079,1,0,1:0:0:0:
246,284,187241,2,0,P|218:303|165:311,1,70,8|0,0:0|2:0,0:0:0:0:
113,254,187565,6,0,P|142:197|140:97,1,140,2|10,1:2|0:0,0:0:0:0:
165,33,188051,1,0,1:0:0:0:
165,33,188214,2,0,P|201:31|261:51,1,70,2|0,1:2|2:0,0:0:0:0:
298,104,188538,2,0,P|333:99|379:79,1,70,10|0,2:0|2:0,0:0:0:0:
214,127,188862,6,0,B|148:144|146:103|47:134,1,140,2|8,1:2|0:0,0:0:0:0:
46,214,189349,2,0,P|103:245|165:304,1,140,2|0,1:2|2:2,0:0:0:0:
236,352,189835,1,8,2:0:0:0:
236,352,190160,6,0,P|245:314|271:265,1,70,2|0,1:2|0:0,0:0:0:0:
338,235,190484,1,8,0:0:0:0:
338,235,190646,2,0,P|289:201|190:222,1,140,2|0,1:2|1:0,0:0:0:0:
128,244,191133,1,8,2:0:0:0:
200,77,191457,6,0,L|348:66,1,140,0|0,1:0|0:0,0:0:0:0:
406,129,191943,1,2,1:2:0:0:
348,200,192106,2,0,P|275:192|185:226,1,140,8|2,2:0|2:0,0:0:0:0:
138,264,192592,1,0,0:0:0:0:
138,264,192754,6,0,P|120:233|78:206,1,70,2|4,1:2|1:3,0:0:0:0:
220,306,193079,2,0,P|238:337|280:364,1,70,2|0,0:2|1:0,0:0:0:0:
350,326,193403,1,8,2:0:0:0:
413,260,193565,1,4,0:3:0:0:
324,238,193727,1,2,2:0:0:0:
324,238,194051,6,0,P|348:178|337:92,1,140,2|8,1:2|2:2,0:0:0:0:
264,55,194538,2,0,L|117:67,1,140,2|0,1:2|0:0,0:0:0:0:
46,114,195024,1,8,2:0:0:0:
46,114,195349,6,0,P|82:126|122:168,1,70,2|0,1:2|0:0,0:0:0:0:
184,194,195673,1,8,2:0:0:0:
184,194,195835,2,0,B|251:169|252:207|344:190,1,140,2|0,1:2|1:0,0:0:0:0:
414,195,196322,1,8,0:0:0:0:
293,331,196646,5,0,1:0:0:0:
293,331,196808,2,0,L|383:317,1,70,2|8,2:0|2:0,0:0:0:0:
420,249,197133,2,0,P|390:192|383:105,1,140,0|2,1:0|1:2,0:0:0:0:
368,28,197619,2,0,P|334:26|270:39,1,70,8|2,2:0|2:0,0:0:0:0:
243,117,197943,6,0,P|232:154|233:190,1,70,0|2,1:0|2:0,0:0:0:0:
321,258,198268,2,0,P|332:221|331:185,1,70,8|8,2:0|2:3,0:0:0:0:
227,277,198592,2,0,P|216:314|217:350,1,70,4|2,2:3|2:0,0:0:0:0:
360,349,198916,2,0,P|400:335|433:313,1,70,8|2,2:0|2:0,0:0:0:0:
434,225,199241,6,0,L|292:201,1,140,2|0,1:2|3:3,0:0:0:0:
206,183,199727,1,0,0:0:0:0:
127,137,199889,2,0,P|97:107|82:72,1,70,2|0,3:2|0:0,0:0:0:0:
172,49,200214,2,0,P|204:62|255:58,1,70,0|0,0:0|0:0,0:0:0:0:
319,18,200538,6,0,P|358:24|389:38,1,70,0|0,3:3|0:0,0:0:0:0:
401,126,200862,1,0,1:2:0:0:
401,126,201187,2,0,L|346:275,1,140,2|0,3:2|3:2,0:0:0:0:
181,319,201835,5,0,0:0:0:0:
181,319,201997,2,0,P|186:247|154:177,1,140,2|0,0:0|0:0,0:0:0:0:
109,109,202484,2,0,P|144:103|183:84,1,70,2|0,0:0|0:0,0:0:0:0:
242,27,202808,2,0,P|282:34|325:54,1,70,0|0,0:0|0:0,0:0:0:0:
365,124,203133,6,0,L|218:174,1,140,2|2,0:0|0:0,0:0:0:0:
157,220,203619,1,0,0:0:0:0:
238,263,203781,2,0,P|278:270|327:301,1,70,2|0,0:0|0:0,0:0:0:0:
388,321,204106,1,2,0:0:0:0:
388,321,204430,6,0,P|384:244|406:171,1,140,0|2,1:0|0:0,0:0:0:0:
405,93,204916,1,0,0:0:0:0:
328,143,205079,2,0,P|291:156|262:184,1,70,8|0,0:0|0:0,0:0:0:0:
214,250,205403,2,0,P|188:226|175:175,1,70,2|0,0:0|0:0,0:0:0:0:
149,107,205727,6,0,B|219:66|219:120|298:78,1,140,0|2,1:0|0:0,0:0:0:0:
368,123,206214,1,0,0:0:0:0:
360,213,206376,2,0,P|344:251|345:290,1,70,10|4,0:0|0:3,0:0:0:0:
397,352,206700,1,10,0:3:0:0:
397,352,207024,6,0,P|336:327|253:333,1,140,0|0,1:0|0:0,0:0:0:0:
176,302,207511,1,2,0:0:0:0:
176,302,207673,2,0,L|76:309,1,70,8|0,0:0|0:0,0:0:0:0:
132,220,207997,2,0,L|219:229,1,70,2|0,2:0|0:0,0:0:0:0:
289,256,208322,6,0,P|326:256|366:244,1,70,2|0,1:2|0:0,0:0:0:0:
361,157,208646,2,0,P|324:157|284:169,1,70,2|0,2:0|1:0,0:0:0:0:
202,158,208970,1,8,0:0:0:0:
123,112,209133,1,8,0:0:0:0:
147,15,209295,1,8,0:0:0:0:
223,66,209457,1,8,0:0:0:0:
147,15,209619,6,0,L|-5:28,1,140,4|8,1:0|0:0,0:0:0:0:
16,117,210106,1,0,1:0:0:0:
16,117,210268,2,0,P|36:163|37:198,1,70,0|0,2:0|0:0,0:0:0:0:
126,201,210592,2,0,B|142:163|179:132|177:133,1,70,8|0,0:0|0:0,0:0:0:0:
256,133,210916,6,0,P|248:200|248:282,1,140,0|8,1:0|0:0,0:0:0:0:
324,321,211403,2,0,P|361:303|407:303,1,70,0|2,1:0|2:0,0:0:0:0:
403,210,211727,1,0,1:0:0:0:
403,210,211889,2,0,P|366:228|320:228,1,70,8|0,2:0|2:0,0:0:0:0:
359,124,212214,6,0,P|435:136|513:122,1,140,0|8,1:0|0:0,0:0:0:0:
498,36,212700,2,0,P|422:24|344:38,1,140,0|0,1:0|1:0,0:0:0:0:
269,46,213187,1,10,0:0:0:0:
269,46,213511,6,0,L|275:127,1,70,0|0,1:0|2:0,0:0:0:0:
187,144,213835,2,0,L|137:76,1,70,8|0,0:0|1:0,0:0:0:0:
56,65,214160,1,2,0:0:0:0:
79,152,214322,1,0,1:0:0:0:
61,241,214484,1,8,2:0:0:0:
61,241,214808,6,0,P|134:234|208:260,1,140,0|8,1:0|0:0,0:0:0:0:
271,305,215295,1,0,1:0:0:0:
271,305,215457,2,0,P|311:313|346:312,1,70,0|0,2:0|0:0,0:0:0:0:
318,224,215781,2,0,L|326:136,1,70,8|0,0:0|0:0,0:0:0:0:
242,114,216106,6,0,P|204:142|94:109,1,140,0|8,1:0|0:0,0:0:0:0:
170,56,216592,2,0,L|252:31,1,70,0|2,1:0|2:0,0:0:0:0:
327,37,216916,1,0,1:0:0:0:
327,37,217079,2,0,L|319:129,1,70,8|0,2:0|2:0,0:0:0:0:
392,208,217403,6,0,B|381:147|425:149|400:59,1,140,0|8,1:0|0:0,0:0:0:0:
320,106,217889,2,0,L|306:269,1,140,0|2,1:0|1:2,0:0:0:0:
232,297,218376,2,0,P|184:275|147:275,1,70,10|2,0:0|0:0,0:0:0:0:
78,304,218700,6,0,P|67:244|72:210,1,70,0|2,1:0|0:0,0:0:0:0:
118,150,219024,2,0,P|158:159|205:155,1,70,8|2,0:0|1:2,0:0:0:0:
285,179,219349,2,0,P|296:119|291:85,1,70,0|2,0:0|1:2,0:0:0:0:
245,25,219673,2,0,P|205:34|158:30,1,70,2|2,2:0|2:0,0:0:0:0:
334,29,219997,6,0,P|388:57|394:101,1,105.000004005432,2|0,2:0|2:0,0:0:0:0:
374,172,220484,1,0,2:0:0:0:
374,172,220646,2,0,L|258:164,1,105.000004005432,8|2,0:0|2:0,0:0:0:0:
111,155,221295,2,0,L|100:228,1,52.5000020027161,0|0,0:0|0:0,0:0:0:0:
176,235,221619,2,0,L|176:305,1,52.5000020027161,0|0,0:0|0:0,0:0:0:0:
246,322,221943,2,0,P|258:281|326:265,1,105.000004005432,8|2,2:0|2:0,0:0:0:0:
459,318,222592,6,0,L|453:189,1,105.000004005432,0|0,0:0|0:0,0:0:0:0:
447,132,223079,1,0,0:0:0:0:
447,132,223241,2,0,B|391:140|397:118|331:131,1,105.000004005432,8|2,2:0|2:0,0:0:0:0:
189,166,223889,2,0,L|192:233,1,52.5000020027161
118,139,224214,2,0,L|124:78,1,52.5000020027161,0|0,0:0|0:0,0:0:0:0:
42,144,224538,2,0,L|43:263,1,105.000004005432,8|2,0:0|0:0,0:0:0:0:
91,310,225024,2,0,L|136:298,1,26.2500010013581,0|0,0:0|0:0,0:0:0:0:
