osu file format v14

[General]
AudioFilename: canyouunderstandme.mp3
AudioLeadIn: 0
PreviewTime: 52700
Countdown: 0
SampleSet: None
StackLeniency: 0.2
Mode: 0
LetterboxInBreaks: 0
WidescreenStoryboard: 1

[Editor]
Bookmarks: 2106,4700,7295,9889,12484,15078,17673,20268,22862,28051,33241,38430,43619,53997,55295,56592,57889,59187,60484,61781,63078,64376,65673,66970,68268,69565,70862,72160,73457,74754,77349,79943,82538,85133,90322,95511,100700,105889,116268,121457,126646,131835,137024,139619,142214,144808,147403,152592,157781,162970,168160,169457,170754,172051,173349,174646,175943,177241,178538,179835,181133,182430,183727,185024,186322,187619,188916,191511,194105,196700,199295,204484,209673,214862,220051,225168
DistanceSpacing: 1
BeatDivisor: 4
GridSize: 16
TimelineZoom: 3.399999

[Metadata]
Title:(can you) understand me?
TitleUnicode:(can you) understand me?
Artist:Komiya Mao
ArtistUnicode:小宮真央
Creator:Axarious
Version:2B
Source:東方輝針城 〜 Double Dealing Character.
Tags:ALiCE'S EMOTiON Precious Ray リバースイデオロギー 東方Project Touhou Reverse Ideology ZUN Kijin Seija 鬼人 正邪
BeatmapID:1626836
BeatmapSetID:773980

[Difficulty]
HPDrainRate:4
CircleSize:5
OverallDifficulty:8
ApproachRate:9
SliderMultiplier:3.2
SliderTickRate:1

[Events]
//Background and Video events
0,0,"canyouunderstandme.jpg",0,0
//Break Periods
//Storyboard Layer 0 (Background)
//Storyboard Layer 1 (Fail)
//Storyboard Layer 2 (Pass)
//Storyboard Layer 3 (Foreground)
//Storyboard Sound Samples

[TimingPoints]
2106,324.324324324324,4,1,0,40,1,0
2106,-800,4,1,0,40,0,0
4700,-100,4,1,0,40,0,0
7295,-800,4,1,0,40,0,0
9889,-100,4,1,0,40,0,0
12484,-800,4,1,0,40,0,0
15078,-100,4,1,0,40,0,0
17673,-800,4,1,0,40,0,0
20268,-100,4,1,0,40,0,0
22862,-800,4,1,0,40,0,0
28051,-100,4,1,0,40,0,0
33241,-800,4,1,0,40,0,0
38430,-100,4,1,0,40,0,0
43619,-800,4,2,0,40,0,0
53997,-66.6666666666667,4,1,0,40,0,1
55295,-800,4,1,0,40,0,1
56592,-66.6666666666667,4,1,0,40,0,1
57889,-800,4,1,0,40,0,1
59187,-66.6666666666667,4,1,0,40,0,1
60484,-800,4,1,0,40,0,1
61781,-66.6666666666667,4,1,0,40,0,1
63078,-800,4,1,0,40,0,1
64376,-66.6666666666667,4,1,0,40,0,1
65673,-800,4,1,0,40,0,1
66970,-66.6666666666667,4,1,0,40,0,1
68268,-800,4,1,0,40,0,1
69565,-66.6666666666667,4,1,0,40,0,1
70862,-800,4,1,0,40,0,1
72160,-66.6666666666667,4,1,0,40,0,1
73457,-800,4,1,0,40,0,1
74754,-100,4,1,0,40,0,0
77349,-800,4,1,0,40,0,0
79943,-100,4,1,0,40,0,0
82538,-800,4,1,0,40,0,0
85133,-200,4,1,0,40,0,0
90322,-800,4,1,0,40,0,0
95511,-200,4,1,0,40,0,0
100700,-800,4,1,0,40,0,0
105889,-400,4,2,0,40,0,0
114970,1297.2972972973,4,1,0,40,1,0
114970,-50,4,1,0,40,0,0
116268,324.324324324324,4,1,0,40,1,1
116268,-800,4,1,0,40,0,1
121457,-50,4,1,0,40,0,1
126646,-800,4,1,0,40,0,1
131835,-50,4,1,0,40,0,1
137024,-800,4,1,0,40,0,0
139619,-66.6666666666667,4,1,0,40,0,0
142214,-800,4,1,0,40,0,0
144808,-66.6666666666667,4,1,0,40,0,0
147403,-800,4,1,0,40,0,0
152592,-200,4,1,0,40,0,0
157781,-800,4,2,0,40,0,0
162970,-200,4,2,0,40,0,0
168160,-800,4,1,0,40,0,1
169457,-50,4,1,0,40,0,1
170754,-800,4,1,0,40,0,1
172051,-50,4,1,0,40,0,1
173349,-800,4,1,0,40,0,1
174646,-40,4,1,0,40,0,1
175943,-800,4,1,0,40,0,1
177240,-40,4,1,0,40,0,1
178538,-800,4,1,0,40,0,1
179835,-33.3333333333333,4,1,0,40,0,1
181133,-800,4,1,0,40,0,1
182430,-33.3333333333333,4,1,0,40,0,1
183727,-800,4,1,0,40,0,1
185024,-28.5714285714286,4,1,0,40,0,1
186322,-800,4,1,0,40,0,1
187619,-28.5714285714286,4,1,0,40,0,1
188916,-800,4,1,0,40,0,0

[Colours]
Combo1 : 105,12,233
Combo2 : 251,184,181
Combo3 : 203,181,251
Combo4 : 243,18,18

[HitObjects]
29,46,2106,6,0,L|32:86,1,40,4|0,0:0|0:0,0:0:0:0:
90,0,2592,1,0,0:0:0:0:
294,89,2754,2,0,L|291:129,1,40,8|0,0:0|0:0,0:0:0:0:
182,149,3241,1,0,0:0:0:0:
182,149,3322,1,0,0:0:0:0:
182,149,3403,6,0,L|201:152,1,20
512,63,3727,1,8,0:0:0:0:
447,75,3889,1,0,0:0:0:0:
382,86,4051,2,0,L|342:93,1,40,8|0,0:0|0:0,0:0:0:0:
472,342,4700,6,0,B|491:320|491:320|464:228|464:228|459:262,1,160,2|0,0:0|0:0,0:0:0:0:
277,340,5024,2,0,L|437:356,1,160
358,377,5349,5,8,0:0:0:0:
198,368,5511,1,0,0:0:0:0:
38,359,5673,2,0,L|277:341,1,240
322,329,5997,6,0,B|315:248|315:248|257:302,1,160,2|0,0:0|0:0,0:0:0:0:
509,353,6322,2,0,B|486:367|486:367|353:356,1,160
45,226,6646,6,0,B|31:249|31:249|42:382,1,160,8|0,0:0|0:0,0:0:0:0:
127,235,6970,2,0,B|325:254|325:254|286:268,1,240,8|0,0:0|0:0,0:0:0:0:
273,156,7295,6,0,L|266:116,1,40,4|0,0:0|0:0,0:0:0:0:
253,51,7781,1,0,0:0:0:0:
454,7,7943,2,0,L|451:26,1,20,8|0,0:0|0:0,0:0:0:0:
440,93,8268,1,0,0:0:0:0:
253,51,8430,1,0,0:0:0:0:
253,51,8511,1,0,0:0:0:0:
253,51,8592,6,0,L|214:49,1,40,2|0,0:0|0:0,0:0:0:0:
48,106,9078,1,0,0:0:0:0:
134,112,9241,2,0,L|114:110,1,20,8|0,0:0|0:0,0:0:0:0:
48,106,9565,1,8,0:0:0:0:
200,117,9727,1,0,0:0:0:0:
47,250,9889,6,0,B|29:264|29:264|165:248,1,160,2|0,0:0|0:0,0:0:0:0:
334,349,10214,2,0,L|492:329,1,160
255,361,10538,6,0,B|275:225|275:225|284:246,1,160,8|0,0:0|0:0,0:0:0:0:
165,248,10862,1,0,0:0:0:0:
47,250,11024,1,0,0:0:0:0:
284,246,11187,6,0,L|442:226,1,160,2|0,0:0|0:0,0:0:0:0:
284,246,11511,2,0,L|442:226,1,160
151,379,11835,6,0,P|95:326|20:341,3,160,8|0|8|8,0:0|0:0|0:0|0:0,0:0:0:0:
15,108,12484,6,0,L|24:147,1,40,4|8,0:0|0:0,0:0:0:0:
59,12,12970,1,0,0:0:0:0:
114,56,13133,2,0,L|111:75,1,20
391,155,13457,2,0,L|388:135,1,20,8|0,0:0|0:0,0:0:0:0:
194,20,13781,6,0,L|187:59,1,40,2|8,0:0|0:0,0:0:0:0:
172,127,14268,1,0,0:0:0:0:
458,116,14430,2,0,P|474:105|483:87,1,40,0|8,0:0|0:0,0:0:0:0:
65,375,15078,6,0,P|7:322|2:244,1,160,2|0,0:0|0:0,0:0:0:0:
140,367,15403,2,0,L|299:352,1,160,8|0,0:0|0:0,0:0:0:0:
97,307,15727,5,0,0:0:0:0:
268,316,15889,1,0,0:0:0:0:
439,325,16051,2,0,B|221:295|221:295|237:283,1,240,8|0,0:0|0:0,0:0:0:0:
358,288,16376,6,0,B|255:375|255:375|280:376,1,160
493,374,16700,2,0,B|473:360|473:360|449:227,1,160,8|0,0:0|0:0,0:0:0:0:
41,290,17024,6,0,P|115:308|144:379,1,160
358,288,17349,2,0,L|118:269,1,240,8|0,0:0|0:0,0:0:0:0:
20,128,17673,6,0,P|27:146|44:156,1,40,4|8,0:0|0:0,0:0:0:0:
88,97,18160,1,0,0:0:0:0:
77,27,18322,2,0,L|73:7,1,20
297,146,18646,2,0,P|305:150|315:152,1,20,8|0,0:0|0:0,0:0:0:0:
449,61,18970,6,0,L|489:55,1,40,0|8,0:0|0:0,0:0:0:0:
322,79,19457,1,0,0:0:0:0:
209,148,19619,2,0,P|216:129|214:109,1,40,0|8,0:0|0:0,0:0:0:0:
57,343,20268,6,0,B|75:361|75:361|52:228,1,160,2|0,0:0|0:0,0:0:0:0:
282,294,20592,2,0,B|408:340|408:340|384:347,1,160,8|0,0:0|0:0,0:0:0:0:
57,343,20916,5,0,0:0:0:0:
223,323,21078,1,0,0:0:0:0:
389,303,21241,2,0,B|503:289|503:289|461:270,1,160,8|0,0:0|0:0,0:0:0:0:
212,237,21565,6,0,L|52:228,1,160
212,237,21889,2,0,L|52:228,1,160,8|0,0:0|0:0,0:0:0:0:
361,379,22214,6,0,P|417:326|492:341,3,160,0|0|8|8,0:0|0:0|0:0|0:0,0:0:0:0:
477,95,22862,6,0,L|470:134,1,40,4|8,0:0|0:0,0:0:0:0:
290,159,23349,2,0,L|297:120,1,40,0|8,0:0|0:0,0:0:0:0:
309,52,23835,1,0,0:0:0:0:
5,76,23997,1,0,0:0:0:0:
78,91,24160,6,0,L|117:98,2,40,2|8|0,0:0|0:0|0:0,0:0:0:0:
16,56,24970,6,0,L|25:57,1,10,8|0,0:0|0:0,0:0:0:0:
89,71,25133,1,0,0:0:0:0:
309,52,25295,1,0,0:0:0:0:
152,155,25457,6,0,P|141:138|139:118,1,40,0|8,0:0|0:0,0:0:0:0:
375,82,25943,6,0,L|414:75,1,40,0|8,0:0|0:0,0:0:0:0:
224,29,26430,2,0,L|221:48,1,20
210,117,26754,5,2,0:0:0:0:
483,62,27078,1,8,0:0:0:0:
414,75,27241,1,0,0:0:0:0:
152,155,27403,5,0,0:0:0:0:
460,128,27565,1,8,0:0:0:0:
366,126,27727,1,0,0:0:0:0:
81,154,27889,1,8,0:0:0:0:
436,239,28051,6,0,B|489:255|489:255|283:294|283:294|326:262,1,320,2|8,0:0|0:0,0:0:0:0:
492,330,28538,1,0,0:0:0:0:
214,282,28700,2,0,B|172:307|172:307|61:294,2,160,0|8|0,0:0|0:0|0:0,0:0:0:0:
238,347,29187,1,0,0:0:0:0:
12,235,29349,6,0,P|123:263|159:372,1,240,2|0,0:0|0:0,0:0:0:0:
238,347,29673,2,0,L|78:357,1,160,8|0,0:0|0:0,0:0:0:0:
492,330,29997,1,0,0:0:0:0:
314,320,30160,2,0,L|154:309,1,160,8|0,0:0|0:0,0:0:0:0:
421,331,30484,1,0,0:0:0:0:
79,358,30646,6,0,P|119:250|232:229,1,240,2|0,0:0|0:0,0:0:0:0:
310,240,30970,2,0,B|296:252|296:252|437:239,1,160,8|0,0:0|0:0,0:0:0:0:
79,358,31295,6,0,L|318:336,1,240
492,330,31619,2,0,P|450:266|375:274,1,160,8|0,0:0|0:0,0:0:0:0:
0,286,31943,6,0,L|239:307,1,240
318,337,32268,2,0,L|397:344,1,80
421,331,32430,1,8,0:0:0:0:
225,284,32592,1,0,0:0:0:0:
375,274,32754,6,0,L|295:266,1,80
239,307,32916,1,8,0:0:0:0:
253,330,33078,1,8,0:0:0:0:
358,158,33241,6,0,P|376:149|396:148,1,40,2|0,0:0|0:0,0:0:0:0:
461,156,33727,1,0,0:0:0:0:
41,143,33889,1,8,0:0:0:0:
110,133,34051,1,0,0:0:0:0:
439,93,34214,1,0,0:0:0:0:
137,69,34376,1,0,0:0:0:0:
67,79,34538,6,0,L|71:39,1,40,2|0,0:0|0:0,0:0:0:0:
301,116,35024,2,0,L|306:77,1,40
262,27,35511,1,0,0:0:0:0:
196,35,35673,1,0,0:0:0:0:
461,156,35835,6,0,L|501:149,1,40,2|0,0:0|0:0,0:0:0:0:
318,77,36322,2,0,P|329:61|335:42,1,40
50,37,36808,2,0,L|53:56,1,20
70,139,37133,6,0,L|66:119,1,20,2|0,0:0|0:0,0:0:0:0:
118,76,37457,1,8,0:0:0:0:
439,93,37619,1,0,0:0:0:0:
508,83,37781,1,0,0:0:0:0:
142,141,37943,5,0,0:0:0:0:
373,118,38105,1,8,0:0:0:0:
461,156,38268,1,8,0:0:0:0:
153,297,38430,6,0,B|103:320|51:304|25:255|25:255|192:227,1,320,4|0,0:0|0:0,0:0:0:0:
0,333,38916,1,0,0:0:0:0:
217,321,39078,2,0,P|261:257|337:243,2,160,8|0|0,0:0|0:0|0:0,0:0:0:0:
192,227,39565,1,0,0:0:0:0:
266,371,39727,6,0,B|416:364|416:364|453:335|500:345,1,240,2|0,0:0|0:0,0:0:0:0:
510,245,40051,2,0,P|434:234|392:297,1,160
192,227,40376,1,8,0:0:0:0:
287,304,40538,1,0,0:0:0:0:
484,259,40700,1,0,0:0:0:0:
338,243,40862,1,0,0:0:0:0:
266,371,41024,6,0,B|83:379|83:379|61:361|32:356,1,240,2|0,0:0|0:0,0:0:0:0:
0,228,41349,2,0,B|39:242|39:242|47:284|81:310|124:309,1,160
484,259,41673,2,0,B|424:282|377:237|377:237|285:227|285:227|258:243,1,240,8|0,0:0|0:0,0:0:0:0:
192,227,41997,2,0,B|186:268|186:268|216:294|225:337|207:376,1,160
0,316,42322,6,0,P|72:291|139:331,1,160,2|0,0:0|0:0,0:0:0:0:
299,233,42646,2,0,P|324:305|284:372,1,160
65,365,42970,1,8,0:0:0:0:
217,346,43133,1,0,0:0:0:0:
369,326,43295,2,0,P|377:233|306:295,1,240,8|0,0:0|0:0,0:0:0:0:
348,119,43619,6,0,L|353:158,1,40
37,91,44268,2,0,L|42:130,1,40
353,158,44916,6,0,L|348:119,1,40
37,91,45565,2,0,L|42:130,1,40
348,119,46214,6,0,L|353:158,1,40
37,91,46862,2,0,L|42:130,1,40
353,158,47511,6,0,L|348:119,1,40
37,91,48160,2,0,L|42:130,1,40
103,158,48808,5,0,3:0:0:0:
103,158,49133,1,0,3:0:0:0:
37,91,49457,2,0,L|42:130,1,40
103,158,50105,5,0,3:0:0:0:
103,158,50430,1,0,3:0:0:0:
37,91,50754,2,0,L|42:130,1,40
103,158,51403,5,0,3:0:0:0:
353,158,52051,1,0,3:0:0:0:
415,126,52700,5,0,0:0:0:0:
483,119,52862,1,0,0:0:0:0:
358,90,53024,5,0,0:0:0:0:
130,58,53187,2,0,L|120:60,1,10
195,78,53349,1,0,0:0:0:0:
340,17,53511,1,0,0:0:0:0:
27,150,53673,6,0,L|36:147,1,10,8|8,0:0|0:0,0:0:0:0:
240,129,53835,2,0,L|249:126,1,10,8|0,0:0|0:0,0:0:0:0:
4,260,53997,6,0,B|187:241|187:241|136:266,2,240.000009155274,4|0|8,0:0|0:0|0:0,0:0:0:0:
243,270,54484,1,0,0:0:0:0:
35,330,54646,2,0,L|274:346,1,240.000009155274
7,365,54970,2,0,B|50:360|50:360|110:320|132:252|132:252|184:226,1,240.000009155274,8|0,0:0|0:0,0:0:0:0:
27,154,55295,6,0,P|21:145|19:135,1,20,2|0,0:0|0:0,0:0:0:0:
86,123,55619,1,8,0:0:0:0:
470,143,55781,1,0,0:0:0:0:
129,46,55943,2,0,L|126:65,1,20
382,131,56268,2,0,L|401:133,1,20,8|0,0:0|0:0,0:0:0:0:
356,351,56592,6,0,B|336:361|336:361|375:270|375:270|442:341|442:341|421:340,2,240.000009155274,4|0|8,0:0|0:0|0:0,0:0:0:0:
484,269,57078,1,0,0:0:0:0:
176,308,57241,2,0,B|154:298|154:298|121:311|85:303|85:303|68:323|68:323|88:340|88:340|121:327|157:335|157:335|176:322,1,240.000009155274
277,326,57565,2,0,P|206:282|288:302,1,240.000009155274,8|0,0:0|0:0,0:0:0:0:
288,132,57889,5,2,0:0:0:0:
298,67,58051,2,0,L|300:47,1,20,0|8,0:0|0:0,0:0:0:0:
313,156,58376,1,0,0:0:0:0:
329,56,58538,2,0,L|331:36,1,20
218,145,58862,2,0,P|210:151|201:155,1,20,8|0,0:0|0:0,0:0:0:0:
342,238,59187,6,0,B|301:235|301:235|280:275|232:293|189:280|189:280|124:297,1,240.000009155274,4|0,0:0|0:0,0:0:0:0:
151,319,59430,2,0,B|124:297|124:297|77:304|49:266,1,120.000004577637,0|8,0:0|0:0,0:0:0:0:
333,310,59673,1,0,0:0:0:0:
110,230,59835,2,0,B|145:226|145:226|263:326|263:326|271:354|288:368,1,240.000009155274
0,331,60160,2,0,B|50:271|139:288|164:356|164:356|200:366,1,240.000009155274,8|0,0:0|0:0,0:0:0:0:
414,93,60484,5,2,0:0:0:0:
462,158,60646,2,0,L|466:139,1,20,0|8,0:0|0:0,0:0:0:0:
480,72,60970,1,0,0:0:0:0:
414,93,61133,1,0,0:0:0:0:
113,151,61295,1,0,0:0:0:0:
356,138,61457,1,8,0:0:0:0:
49,120,61619,1,0,0:0:0:0:
137,287,61781,5,4,0:0:0:0:
367,314,61943,2,0,P|343:228|320:314,1,240.000009155274,0|8,0:0|0:0,0:0:0:0:
278,293,62187,2,0,P|288:348|344:355,1,120.000004577637
112,326,62430,2,0,P|176:265|91:287,1,240.000009155274
477,246,62754,2,0,L|237:228,1,240.000009155274,8|0,0:0|0:0,0:0:0:0:
46,78,63078,6,0,L|50:117,1,40,2|0,0:0|0:0,0:0:0:0:
61,125,63565,1,0,0:0:0:0:
130,154,63727,2,0,L|125:114,1,40,2|8,0:0|0:0,0:0:0:0:
116,46,64214,1,8,0:0:0:0:
64,354,64376,6,0,B|140:268|235:330|288:306,1,240.000009155274,4|0,0:0|0:0,0:0:0:0:
329,247,64619,2,0,B|363:251|404:226|440:270,1,120.000004577637,0|8,0:0|0:0,0:0:0:0:
259,244,64862,1,0,0:0:0:0:
64,354,65024,2,0,P|182:360|288:306,1,240.000009155274
481,360,65349,2,0,P|442:254|329:247,1,240.000009155274,8|0,0:0|0:0,0:0:0:0:
475,153,65673,6,0,P|484:153|494:156,1,20,2|0,0:0|0:0,0:0:0:0:
94,120,65997,2,0,L|74:124,1,20,8|0,0:0|0:0,0:0:0:0:
162,59,66322,2,0,L|155:77,1,20
246,95,66646,2,0,L|226:99,1,20,8|0,0:0|0:0,0:0:0:0:
13,230,66970,5,2,0:0:0:0:
217,316,67133,2,0,B|321:255|321:255|436:284,2,240.000009155274,0|8|0,0:0|0:0|0:0,0:0:0:0:
13,230,67619,2,0,B|132:231|132:231|217:316,1,240.000009155274
487,243,67943,2,0,B|442:352|442:352|357:263,1,240.000009155274,8|0,0:0|0:0,0:0:0:0:
383,0,68268,5,4,0:0:0:0:
394,68,68430,2,0,L|397:87,1,20,0|8,0:0|0:0,0:0:0:0:
57,63,68754,1,0,0:0:0:0:
448,23,68916,2,0,L|451:42,1,20
131,113,69241,2,0,L|111:109,1,20,8|0,0:0|0:0,0:0:0:0:
419,230,69565,6,0,B|481:245|481:245|521:301|497:373|436:385,1,240.000009155274,2|0,0:0|0:0,0:0:0:0:
313,277,69808,2,0,B|357:268|386:307|386:307|422:305,1,120.000004577637,0|8,0:0|0:0,0:0:0:0:
255,324,70051,1,0,0:0:0:0:
322,349,70214,2,0,B|339:373|361:384|361:384|223:360|223:360|176:364,1,240.000009155274
44,227,70538,2,0,B|12:257|19:306|58:327|58:327|105:351|105:351|111:315|144:297,1,240.000009155274,8|0,0:0|0:0,0:0:0:0:
109,136,70862,6,0,P|109:145|107:155,1,20,2|0,0:0|0:0,0:0:0:0:
422,46,71187,2,0,L|402:43,1,20,8|0,0:0|0:0,0:0:0:0:
338,30,71511,1,0,0:0:0:0:
41,135,71673,1,0,0:0:0:0:
360,95,71835,1,8,0:0:0:0:
382,160,71997,1,0,0:0:0:0:
404,225,72160,5,4,0:0:0:0:
151,304,72322,2,0,B|59:337|59:337|87:372|87:372|138:288,1,240.000009155274,0|8,0:0|0:0,0:0:0:0:
217,314,72565,2,0,B|136:224,1,120.000004577637
353,332,72808,2,0,B|367:319|367:319|346:273|346:273|294:280|294:280|288:331|288:331|330:353|330:353|344:340,1,240.000009155274
463,257,73133,2,0,B|419:231|419:231|386:255|386:255|239:236,1,240.000009155274,8|0,0:0|0:0,0:0:0:0:
483,150,73457,6,0,P|463:149|443:152,1,40,2|8,0:0|0:0,0:0:0:0:
22,136,73943,1,0,0:0:0:0:
92,127,74105,2,0,L|131:122,1,40,0|8,0:0|0:0,0:0:0:0:
57,319,74754,6,0,B|376:331,1,320,4|8,0:0|0:0,0:0:0:0:
188,300,75241,1,0,0:0:0:0:
0,280,75403,2,0,B|319:267,1,320,0|8,0:0|0:0,0:0:0:0:
64,249,76051,6,0,B|223:255,2,160,2|0|8,0:0|0:0|0:0,0:0:0:0:
188,300,76538,1,0,0:0:0:0:
320,267,76700,2,0,B|479:260,1,160
266,315,77024,1,8,0:0:0:0:
46,138,77349,6,0,L|43:118,1,20,4|0,0:0|0:0,0:0:0:0:
251,75,77673,1,8,0:0:0:0:
215,19,77835,2,0,L|213:0,1,20
233,138,78160,2,0,L|235:157,1,20,0|8,0:0|0:0,0:0:0:0:
251,75,78646,5,0,0:0:0:0:
235,157,78808,2,0,L|233:138,1,20,0|8,0:0|0:0,0:0:0:0:
214,0,79133,2,0,L|216:19,1,20
43,118,79457,2,0,L|46:138,1,20,0|8,0:0|0:0,0:0:0:0:
468,268,79943,6,0,P|382:352|404:234,1,320,4|8,0:0|0:0,0:0:0:0:
256,352,80430,1,0,0:0:0:0:
44,268,80592,2,0,P|129:352|107:234,1,320,0|8,0:0|0:0,0:0:0:0:
412,296,81241,6,0,B|256:262|256:262|100:296,1,320,2|8,0:0|0:0,0:0:0:0:
44,268,81727,2,0,B|200:234,1,160
468,268,82051,2,0,B|312:234,1,160,0|8,0:0|0:0,0:0:0:0:
256,24,82538,6,0,L|253:4,1,20,4|0,0:0|0:0,0:0:0:0:
260,64,82862,2,0,L|262:44,1,20,8|0,0:0|0:0,0:0:0:0:
256,104,83187,2,0,L|253:84,1,20
332,133,83511,2,0,L|351:130,1,20,8|0,0:0|0:0,0:0:0:0:
17,118,83835,6,0,L|19:98,1,20,2|0,0:0|0:0,0:0:0:0:
17,118,84160,2,0,L|19:98,1,20,8|0,0:0|0:0,0:0:0:0:
17,118,84484,2,0,L|19:98,1,20
17,118,84808,2,0,L|19:98,1,20,8|8,0:0|0:0,0:0:0:0:
488,232,85133,6,0,B|488:240|488:240|480:232|480:232|480:240|480:240|472:232|472:232|472:240|472:240|464:232|464:232|464:240|464:240|456:232|456:232|456:240|456:240|448:232|448:232|448:240|448:240|440:232|440:232|440:240|440:240|432:232|432:232|432:240|432:240|424:232|424:232|424:240|424:240|416:232|416:232|416:240|416:240|408:232|408:232|408:240|408:240|400:232|400:232|400:240|400:240|392:232|392:232|392:240|392:240|384:232|384:232|384:240|384:240|376:232|376:232|376:240|376:240|368:232|368:232|368:240|368:240|360:232|360:232|360:240|360:240|352:232|352:232|352:240,1,320,4|8,0:0|0:0,0:0:0:0:
288,264,85943,1,0,0:0:0:0:
264,288,86024,1,0,0:0:0:0:
232,296,86105,1,0,0:0:0:0:
168,272,86268,1,0,0:0:0:0:
16,336,86430,6,0,B|16:344|16:344|24:336|24:336|24:344|24:344|32:336|32:336|32:344|32:344|40:336|40:336|40:344|40:344|48:336|48:336|48:344|48:344|56:336|56:336|56:344|56:344|64:336|64:336|64:344|64:344|72:336|72:336|72:344|72:344|80:336|80:336|80:344|80:344|88:336|88:336|88:344|88:344|96:336|96:336|96:344|96:344|104:336|104:336|104:344|104:344|112:336|112:336|112:344|112:344|120:336|120:336|120:344|120:344|128:336|128:336|128:344|128:344|136:336|136:336|136:344|136:344|144:336|144:336|144:344|144:344|152:336|152:336|152:344,1,320,0|8,0:0|0:0,0:0:0:0:
216,368,87241,1,0,0:0:0:0:
424,336,87403,1,0,0:0:0:0:
288,352,87727,6,0,B|288:344|288:344|296:352|296:352|296:344|296:344|304:352|304:352|304:344|304:344|312:352|312:352|312:344|312:344|320:352|320:352|320:344|320:344|328:352|328:352|328:344|328:344|336:352|336:352|336:344|336:344|344:352|344:352|344:344|344:344|352:352|352:352|352:344,1,160,2|0,0:0|0:0,0:0:0:0:
504,264,88214,2,0,B|504:256|504:256|496:264|496:264|496:256|496:256|488:264|488:264|488:256|488:256|480:264|480:264|480:256|480:256|472:264|472:264|472:256|472:256|464:264|464:264|464:256|464:256|456:264|456:264|456:256|456:256|448:264|448:264|448:256|448:256|440:264|440:264|440:256,1,160
392,312,88700,2,0,B|392:320|392:320|384:312|384:312|384:320|384:320|376:312|376:312|376:320|376:320|368:312|368:312|368:320|368:320|360:312|360:312|360:320|360:320|352:312|352:312|352:320|352:320|344:312|344:312|344:320|344:320|336:312|336:312|336:320|336:320|328:312|328:312|328:320,2,160
376,248,89511,1,0,0:0:0:0:
288,352,89673,1,0,0:0:0:0:
392,312,89835,1,0,0:0:0:0:
304,240,89997,1,0,0:0:0:0:
48,32,90322,6,0,L|128:32,1,80,4|8,0:0|0:0,0:0:0:0:
192,72,91133,1,0,0:0:0:0:
216,96,91214,1,0,0:0:0:0:
248,104,91295,1,0,0:0:0:0:
312,80,91457,1,0,0:0:0:0:
448,120,91619,6,0,L|368:120,1,80,0|8,0:0|0:0,0:0:0:0:
304,152,92430,1,0,0:0:0:0:
96,120,92592,1,0,0:0:0:0:
240,136,92916,6,0,L|200:136,1,40,2|0,0:0|0:0,0:0:0:0:
16,64,93403,2,0,L|56:64,1,40
96,120,93889,2,0,L|136:120,2,40,0|0|8,0:0|0:0|0:0,0:0:0:0:
56,64,94700,1,0,0:0:0:0:
200,152,94862,1,0,0:0:0:0:
96,120,95024,1,0,0:0:0:0:
176,40,95187,1,8,0:0:0:0:
16,304,95511,6,0,L|336:304,1,320,4|8,0:0|0:0,0:0:0:0:
496,224,96322,1,0,0:0:0:0:
496,264,96403,1,0,0:0:0:0:
496,304,96484,2,0,L|416:304,1,80
416,384,96808,6,0,L|256:384,2,160,0|0|8,0:0|0:0|0:0,0:0:0:0:
176,384,97619,1,0,0:0:0:0:
496,384,97781,1,0,0:0:0:0:
496,304,97943,1,0,0:0:0:0:
176,304,98105,6,0,L|16:304,1,160,2|0,0:0|0:0,0:0:0:0:
336,304,98592,2,0,L|176:304,1,160
376,304,98997,1,0,0:0:0:0:
416,304,99078,2,0,L|496:304,1,80
176,224,99403,2,0,L|336:224,2,160,0|0|8,0:0|0:0|0:0,0:0:0:0:
96,224,100214,1,0,0:0:0:0:
96,304,100376,1,8,0:0:0:0:
96,384,100538,1,8,0:0:0:0:
96,144,100700,6,0,L|96:104,1,40,4|0,0:0|0:0,0:0:0:0:
208,96,101187,2,0,L|208:56,1,40
176,40,101592,1,0,0:0:0:0:
136,48,101673,1,0,0:0:0:0:
280,32,101835,1,0,0:0:0:0:
424,16,101997,6,0,L|424:56,2,40,0|0|8,0:0|0:0|0:0,0:0:0:0:
472,112,102808,1,0,0:0:0:0:
360,96,102970,1,0,0:0:0:0:
248,80,103133,1,0,0:0:0:0:
184,104,103295,6,0,L|184:144,1,40,2|0,0:0|0:0,0:0:0:0:
152,40,103781,2,0,L|152:80,1,40
40,0,104268,2,0,L|40:40,1,40
0,96,104754,1,0,0:0:0:0:
96,144,104916,1,0,0:0:0:0:
136,80,105078,1,0,0:0:0:0:
232,128,105241,1,0,0:0:0:0:
304,104,105403,1,0,0:0:0:0:
376,120,105565,1,0,0:0:0:0:
496,224,105889,6,0,L|16:224,1,480
16,304,108484,6,0,L|496:304,1,480
496,384,111078,6,0,B|496:376|496:376|496:384|496:384|432:384|432:384|432:376|432:376|432:384|432:384|208:384|208:384|208:392|208:392|208:384|208:384|144:384|144:384|144:392|144:392|144:384|144:384|16:384|16:384|16:304|16:304|32:304|32:304|32:296|32:296|32:304|32:304|176:304|176:304|176:312|176:312|176:304|176:304|320:304,1,960
416,304,115132,6,0,B|496:304|496:304|416:304|416:304|416:224|416:224|496:224|496:224|496:304|496:304|480:304|480:304|488:304|488:304|464:304|464:304|472:304|472:304|448:304|448:304|456:304|456:304|432:304|432:304|440:304|440:304|416:304|416:304|424:304|424:304|416:304,1,560,0|4,0:0|0:0,0:0:0:0:
496,304,115294,1,0,0:0:0:0:
416,304,115456,1,0,0:0:0:0:
416,224,115618,1,0,0:0:0:0:
496,224,115780,1,0,0:0:0:0:
496,304,115942,1,0,0:0:0:0:
416,120,116429,5,0,0:0:0:0:
416,120,116591,1,0,0:0:0:0:
416,48,116753,1,0,0:0:0:0:
344,48,116916,1,0,2:0:0:0:
344,48,116956,1,0,2:0:0:0:
344,48,116997,2,0,L|344:40,2,5,0|0|0,3:0|3:0|3:0,3:0:0:0:
344,120,117240,1,0,0:0:0:0:
344,120,117402,1,0,0:0:0:0:
272,120,117564,6,0,L|232:120,1,40,2|0,0:0|0:0,0:0:0:0:
160,120,118051,1,0,0:0:0:0:
88,120,118213,1,0,3:0:0:0:
88,120,118253,1,0,3:0:0:0:
88,120,118294,2,0,L|88:112,2,5,0|0|0,3:0|3:0|3:0,3:0:0:0:
16,120,118537,1,0,0:0:0:0:
16,48,118699,1,0,0:0:0:0:
88,48,118862,1,4,0:0:0:0:
88,120,119024,6,0,L|108:120,1,20
160,120,119348,2,0,L|180:120,1,20,0|0,0:0|3:0,0:0:0:0:
232,120,119551,1,0,3:0:0:0:
232,120,119591,2,0,L|232:112,2,5,0|0|0,3:0|3:0|3:0,3:0:0:0:
232,48,119835,1,0,0:0:0:0:
232,48,119997,1,0,0:0:0:0:
160,48,120159,5,0,0:0:0:0:
304,48,120321,2,0,L|304:88,1,40
376,48,120808,1,0,3:0:0:0:
376,48,120848,1,0,3:0:0:0:
376,48,120889,2,0,L|376:40,2,5,0|0|0,3:0|3:0|3:0,3:0:0:0:
448,48,121132,1,0,3:0:0:0:
448,48,121172,1,0,3:0:0:0:
448,48,121213,2,0,L|448:40,2,5,0|0|0,3:0|3:0|3:0,3:0:0:0:
448,224,121456,5,4,0:0:0:0:
479,283,121618,2,0,P|322:316|163:325,1,320,0|8,0:0|0:0,0:0:0:0:
93,272,121943,2,0,L|413:278,1,320
448,224,122267,2,0,L|128:229,2,320,0|8|0,0:0|0:0|0:0,0:0:0:0:
479,283,122753,5,2,0:0:0:0:
440,336,123078,6,0,P|282:312|124:334,1,320,8|0,0:0|0:0,0:0:0:0:
65,361,123402,2,0,P|107:250|13:323,1,320
70,300,123726,2,0,P|227:321|385:298,2,320,8|0|4,0:0|0:0|0:0,0:0:0:0:
26,222,124213,6,0,P|181:258|340:246,1,320,0|8,0:0|0:0,0:0:0:0:
400,222,124537,1,0,0:0:0:0:
446,272,124699,2,0,L|126:264,1,320
70,300,125024,2,0,L|389:307,1,320,8|0,0:0|0:0,0:0:0:0:
511,329,125348,6,0,P|370:257|212:237,1,320
139,250,125591,2,0,P|64:277|0:324,1,160,0|8,0:0|0:0,0:0:0:0:
0,234,125835,2,0,P|56:290|126:328,1,160
206,351,125997,2,0,P|285:350|362:328,1,160,2|0,0:0|0:0,0:0:0:0:
446,272,126159,1,0,0:0:0:0:
212,237,126321,2,0,P|266:283|306:224,3,160,8|0|8|0,0:0|0:0|0:0|0:0,0:0:0:0:
446,272,126645,5,4,0:0:0:0:
460,145,126807,2,0,L|440:143,1,20,0|8,0:0|0:0,0:0:0:0:
512,104,127132,1,0,0:0:0:0:
103,118,127294,2,0,L|83:116,1,20
44,64,127618,1,8,0:0:0:0:
154,77,127780,1,0,0:0:0:0:
103,118,128267,6,0,L|83:116,1,20,8|0,0:0|0:0,0:0:0:0:
460,145,128591,2,0,L|440:143,1,20
412,25,128916,1,8,0:0:0:0:
399,91,129078,1,0,0:0:0:0:
348,47,129240,5,4,0:0:0:0:
460,145,129402,2,0,L|440:143,1,20,0|8,0:0|0:0,0:0:0:0:
512,104,129726,1,0,0:0:0:0:
103,118,129889,2,0,L|83:116,1,20
44,64,130213,1,8,0:0:0:0:
154,77,130375,1,0,0:0:0:0:
83,116,130699,6,0,L|103:118,1,20,0|8,0:0|0:0,0:0:0:0:
154,77,131024,1,0,0:0:0:0:
440,143,131186,2,0,L|460:145,1,20
512,104,131510,1,8,0:0:0:0:
478,325,131835,5,4,0:0:0:0:
359,273,131997,2,0,B|339:240|339:240|497:249|497:249|375:270,2,320,0|8|0,0:0|0:0|0:0,0:0:0:0:
247,323,132483,2,0,B|164:306|164:306|250:360|250:360|478:325|478:325|423:357|423:357|267:327,2,640,0|8|0,0:0|0:0|0:0,0:0:0:0:
0,256,133456,1,8,0:0:0:0:
66,289,133618,6,0,B|111:230|111:230|150:342|150:342|39:323|39:323|49:310,2,320
0,256,134105,1,8,0:0:0:0:
195,238,134429,5,4,0:0:0:0:
296,379,134591,2,0,P|254:280|277:385,2,320,0|8|0,0:0|0:0|0:0,0:0:0:0:
468,276,135078,2,0,B|364:354|364:354|500:372|500:372|379:225|379:225|516:241|516:241|479:267,2,640,0|8|2,0:0|0:0|0:0,0:0:0:0:
194,300,135889,2,0,B|319:241|319:241|326:285|326:285|189:274,2,320,0|8|0,0:0|0:0|0:0,0:0:0:0:
79,354,136375,2,0,B|53:365|53:365|6:311|6:311|118:262|118:262|126:332|126:332|101:343,2,320,0|0|8,0:0|0:0|0:0,0:0:0:0:
43,108,137024,5,4,0:0:0:0:
115,90,137186,1,0,0:0:0:0:
40,128,137348,5,8,0:0:0:0:
112,110,137510,1,0,0:0:0:0:
37,148,137835,5,0,0:0:0:0:
109,130,137997,1,8,0:0:0:0:
181,112,138159,1,0,0:0:0:0:
106,150,138321,5,0,0:0:0:0:
178,132,138483,1,0,0:0:0:0:
250,114,138645,1,8,0:0:0:0:
322,96,138807,1,0,0:0:0:0:
247,134,139132,5,8,0:0:0:0:
319,116,139294,1,8,0:0:0:0:
76,350,139618,5,4,0:0:0:0:
148,332,139780,1,0,0:0:0:0:
220,314,139943,1,8,0:0:0:0:
292,296,140105,1,0,0:0:0:0:
364,278,140267,1,0,0:0:0:0:
436,260,140429,1,0,0:0:0:0:
508,242,140591,1,8,0:0:0:0:
7,348,140916,5,2,0:0:0:0:
79,330,141078,1,0,0:0:0:0:
151,312,141240,1,8,0:0:0:0:
223,294,141402,1,0,0:0:0:0:
295,276,141564,1,0,0:0:0:0:
367,258,141726,1,8,0:0:0:0:
439,240,141889,1,8,0:0:0:0:
43,108,142213,5,4,0:0:0:0:
115,90,142375,1,0,0:0:0:0:
40,128,142537,5,8,0:0:0:0:
112,110,142699,1,0,0:0:0:0:
37,148,143024,5,0,0:0:0:0:
109,130,143186,1,8,0:0:0:0:
181,112,143348,1,0,0:0:0:0:
106,150,143510,5,0,0:0:0:0:
178,132,143672,1,0,0:0:0:0:
250,114,143835,1,8,0:0:0:0:
322,96,143997,1,0,0:0:0:0:
247,134,144321,5,8,0:0:0:0:
319,116,144483,1,8,0:0:0:0:
76,350,144807,5,4,0:0:0:0:
148,332,144970,1,0,0:0:0:0:
220,314,145132,1,8,0:0:0:0:
292,296,145294,1,0,0:0:0:0:
364,278,145456,1,0,0:0:0:0:
436,260,145618,1,0,0:0:0:0:
505,262,145780,5,8,0:0:0:0:
433,280,145943,1,0,0:0:0:0:
502,282,146105,5,0,0:0:0:0:
430,300,146267,1,0,0:0:0:0:
499,302,146429,5,8,0:0:0:0:
427,320,146591,1,0,0:0:0:0:
496,322,146753,5,0,0:0:0:0:
424,340,146916,1,0,0:0:0:0:
493,342,147078,5,8,0:0:0:0:
421,360,147240,1,8,0:0:0:0:
256,160,148051,5,0,3:0:0:0:
256,160,149348,1,0,3:0:0:0:
256,160,150645,1,0,3:0:0:0:
236,160,151943,2,0,L|276:160,1,40,0|0,3:0|3:0,3:0:0:0:
328,224,153078,5,0,3:0:0:0:
256,224,153240,1,0,3:0:0:0:
328,224,154375,1,0,3:0:0:0:
256,224,154537,1,0,3:0:0:0:
184,224,154699,1,0,3:0:0:0:
256,296,154862,1,0,3:0:0:0:
328,224,155672,1,0,3:0:0:0:
256,224,155835,1,0,3:0:0:0:
176,224,157132,2,0,L|336:224,1,160,0|0,3:0|3:0,3:0:0:0:
256,192,157780,12,0,159072,0:0:0:0:
176,160,157943,5,0,0:0:0:0:
256,160,158105,5,0,0:0:0:0:
336,160,158267,5,0,0:0:0:0:
416,160,158429,5,0,0:0:0:0:
256,192,159078,12,0,160370,0:0:0:0:
176,160,159402,5,0,0:0:0:0:
256,160,159564,5,0,0:0:0:0:
336,160,159726,5,0,0:0:0:0:
256,192,160375,12,0,161666,0:0:0:0:
256,88,160537,5,0,0:0:0:0:
176,160,160699,5,0,0:0:0:0:
256,160,160862,5,0,0:0:0:0:
336,160,161024,5,0,0:0:0:0:
256,192,161672,12,0,162949,0:0:0:0:
176,160,161835,5,0,0:0:0:0:
336,160,162159,5,0,0:0:0:0:
256,160,162321,5,0,0:0:0:0:
256,192,162970,12,0,162975,0:0:0:0:
256,224,163132,5,0,0:0:0:0:
256,264,163294,1,0,0:0:0:0:
256,304,163456,1,0,0:0:0:0:
256,344,163618,1,8,0:0:0:0:
336,304,163943,5,0,0:0:0:0:
336,344,164105,1,0,0:0:0:0:
416,304,164591,5,0,0:0:0:0:
416,344,164753,1,0,0:0:0:0:
416,384,164916,1,8,0:0:0:0:
496,384,165240,5,0,0:0:0:0:
496,304,165564,5,0,0:0:0:0:
416,304,165726,1,0,0:0:0:0:
336,304,165889,1,0,0:0:0:0:
256,304,166051,1,0,0:0:0:0:
176,304,166213,1,8,0:0:0:0:
336,224,166537,5,0,0:0:0:0:
256,224,166699,1,0,0:0:0:0:
256,384,166862,5,2,0:0:0:0:
256,384,167024,1,0,0:0:0:0:
176,304,167186,5,0,0:0:0:0:
256,304,167348,1,8,0:0:0:0:
416,224,167510,5,8,0:0:0:0:
256,224,167672,1,0,0:0:0:0:
96,304,167835,5,8,0:0:0:0:
256,304,167916,1,8,0:0:0:0:
96,304,167997,1,8,0:0:0:0:
256,304,168078,1,8,0:0:0:0:
96,304,168159,5,4,0:0:0:0:
131,129,168321,2,0,L|127:148,1,20,0|8,0:0|0:0,0:0:0:0:
79,80,168645,1,0,0:0:0:0:
434,152,168807,2,0,P|451:143|464:128,1,40,0|8,0:0|0:0,0:0:0:0:
199,101,169294,1,0,0:0:0:0:
96,304,169456,5,2,0:0:0:0:
512,374,169780,2,0,B|488:329|433:333|433:333|362:339|362:339|309:394|309:394|336:364|343:325,1,320,8|0,0:0|0:0,0:0:0:0:
255,338,170105,2,0,B|282:305|283:259|283:259|360:250|360:250|385:265|385:265|483:257|483:257|471:248|454:249,1,320
96,304,170429,2,0,B|136:202|249:182|263:315|163:346|145:267|48:298,1,320,8|0,0:0|0:0,0:0:0:0:
199,101,170754,6,0,L|197:120,2,20,4|0|8,0:0|0:0|0:0,0:0:0:0:
207,32,171240,1,0,0:0:0:0:
140,61,171402,2,0,L|139:65,4,5,0|0|0|0|0,3:0|3:0|3:0|3:0|3:0,3:0:0:0:
482,108,171726,1,8,0:0:0:0:
490,39,171889,1,0,0:0:0:0:
218,238,172051,5,2,0:0:0:0:
405,337,172213,2,0,B|358:388|282:379|253:312|253:312|289:292|301:247|301:247|291:297,1,320,0|8,0:0|0:0,0:0:0:0:
490,331,172537,1,0,0:0:0:0:
211,380,172699,2,0,B|180:342|176:298|176:298|112:340|41:309|41:309|2:346|2:346|35:337,1,320
218,238,173024,2,0,B|300:270|303:364|303:364|357:289|438:302,1,320,8|0,0:0|0:0,0:0:0:0:
364,150,173349,6,0,L|370:131,1,20,4|0,0:0|0:0,0:0:0:0:
166,117,173672,2,0,P|157:123|147:125,1,20,8|0,0:0|0:0,0:0:0:0:
440,121,173997,2,0,L|436:120,4,5,0|0|0|0|0,3:0|3:0|3:0|3:0|3:0,3:0:0:0:
225,75,174321,1,8,0:0:0:0:
233,145,174483,1,0,0:0:0:0:
512,289,174646,5,2,0:0:0:0:
445,274,174970,2,0,L|45:269,2,400,8|0|0,0:0|0:0|0:0,0:0:0:0:
512,289,175456,1,0,0:0:0:0:
464,338,175618,2,0,L|64:342,1,400,8|0,0:0|0:0,0:0:0:0:
7,157,175943,5,4,0:0:0:0:
19,93,176105,2,0,L|22:73,1,20,0|8,0:0|0:0,0:0:0:0:
433,66,176429,2,0,L|429:85,1,20
465,141,176753,1,0,0:0:0:0:
70,138,176916,1,8,0:0:0:0:
135,151,177078,1,0,0:0:0:0:
42,384,177240,6,0,B|258:342|467:378|467:378|279:414|175:282|175:282|195:268|218:264,1,800,2|8,0:0|0:0,0:0:0:0:
218,264,177645,2,0,B|291:247|356:297|356:297|327:293|304:293,1,200
0,238,177889,2,0,B|35:268|83:289|83:289|96:303|96:303|114:300|114:300|234:339|395:323|508:235|508:235|503:328|503:328|464:262|383:228,1,800,0|8,0:0|0:0,0:0:0:0:
385,229,178294,2,0,B|301:215|243:251|243:251|268:253|296:248,1,200
474,71,178537,5,4,0:0:0:0:
462,138,178699,2,0,L|459:158,1,20,0|8,0:0|0:0,0:0:0:0:
223,126,179024,1,0,0:0:0:0:
273,55,179186,2,0,L|270:75,1,20
293,143,179510,1,8,0:0:0:0:
25,120,179672,1,0,0:0:0:0:
11,384,179835,6,0,B|428:352|428:352|301:250|143:310,1,720.000027465821,2|0,0:0|0:0,0:0:0:0:
144,309,180159,6,0,B|106:328|79:357|79:357|216:385|366:349|449:259,1,480.000018310548,8|0,0:0|0:0,0:0:0:0:
44,244,180484,6,0,B|23:277|30:309|30:309|159:180|396:193|501:342|501:342|144:309,2,960.000036621095,0|8|4,0:0|0:0|0:0,0:0:0:0:
132,150,181295,6,0,P|133:141|133:131,1,20,0|8,0:0|0:0,0:0:0:0:
65,138,181619,1,0,0:0:0:0:
505,129,181781,1,0,0:0:0:0:
443,161,181943,1,0,0:0:0:0:
112,87,182105,1,8,0:0:0:0:
374,154,182267,1,0,0:0:0:0:
401,223,182429,5,2,0:0:0:0:
478,370,182591,2,0,B|527:342|520:271|464:251|464:251|430:312|341:289|320:231|320:231|375:270|372:338|328:350,1,480.000018310548,0|8,0:0|0:0,0:0:0:0:
329,350,182835,2,0,B|260:368|223:311|223:311|200:375|135:378,1,240.000009155274
399,361,183078,2,0,B|326:347|270:302|248:227|248:227|108:224|28:260|0:344|0:344|146:286|306:279|442:312,2,960.000036621095,0|8|4,0:0|0:0|0:0,0:0:0:0:
228,160,183889,6,0,L|224:140,1,20,0|8,0:0|0:0,0:0:0:0:
274,94,184213,2,0,L|277:74,2,20
6,119,184699,1,8,0:0:0:0:
210,75,184862,1,0,0:0:0:0:
66,321,185024,5,2,0:0:0:0:
0,292,185348,2,0,P|270:247|510:382,2,560.000005340576,8|0|0,0:0|0:0|0:0,0:0:0:0:
66,321,185835,1,0,0:0:0:0:
8,361,185997,2,0,P|253:241|516:319,1,560.000005340576,8|0,0:0|0:0,0:0:0:0:
473,129,186322,6,0,P|476:138|476:148,1,20,4|0,0:0|0:0,0:0:0:0:
417,86,186645,1,8,0:0:0:0:
110,113,186807,1,0,0:0:0:0:
94,135,186970,1,0,0:0:0:0:
409,152,187132,1,0,0:0:0:0:
352,114,187294,1,8,0:0:0:0:
47,80,187456,1,0,0:0:0:0:
201,357,187619,6,0,B|297:398|432:393|515:342|515:342|364:288|160:298|37:382|37:382|11:301|72:228|72:228|145:223|201:253,1,1120.00001068115,2|8,0:0|0:0,0:0:0:0:
201,253,188024,2,0,B|308:236|414:251|414:251|479:239,1,280.000002670288
292,384,188267,6,0,B|185:363|94:309|42:225|42:225|5:274|-4:340|25:395|25:395|117:309|342:279|515:342|515:342|469:371|400:380,1,1120.00001068115,0|8,0:0|0:0,0:0:0:0:
400,379,188672,2,0,B|357:386|357:386|360:293|388:223|388:223|353:233|320:239,1,280.000002670288
417,86,188916,6,0,P|348:125|269:135,1,160,4|0,0:0|0:0,0:0:0:0:
