osu file format v14

[General]
AudioFilename: audio.mp3
AudioLeadIn: 0
PreviewTime: 51902
Countdown: 0
SampleSet: None
StackLeniency: 0.7
Mode: 2
LetterboxInBreaks: 0
WidescreenStoryboard: 0

[Editor]
Bookmarks: 787,22940,52479,67248
DistanceSpacing: 1
BeatDivisor: 4
GridSize: 8
TimelineZoom: 1

[Metadata]
Title:Resuscitated Hope -TVsize-
TitleUnicode:Resuscitated Hope -TVsize-
Artist:Komine Lisa
ArtistUnicode:コミネリサ
Creator:Ascendance
Version:Fiance's Salad
Source:GOSICK
Tags:ending size victorique blois kujou kazuya fii -wwwww kaitlin
BeatmapID:1252657
BeatmapSetID:591791

[Difficulty]
HPDrainRate:4
CircleSize:2.8
OverallDifficulty:6.8
ApproachRate:6.8
SliderMultiplier:1.5
SliderTickRate:2

[Events]
//Background and Video events
0,0,"heart+slider.jpg",0,0
//Break Periods
//Storyboard Layer 0 (Background)
//Storyboard Layer 1 (Fail)
//Storyboard Layer 2 (Pass)
//Storyboard Layer 3 (Foreground)
//Storyboard Sound Samples

[TimingPoints]
787,461.538461538462,4,1,0,60,1,0
8171,-100,4,2,0,50,0,0
15556,-100,4,3,0,60,0,0
18210,-100,4,3,0,5,0,0
18325,-100,4,3,0,60,0,0
21902,-100,4,3,0,5,0,0
22017,-100,4,3,0,60,0,0
26517,-100,4,3,0,5,0,0
26633,-100,4,3,0,60,0,0
37710,-100,4,2,0,50,0,0
45094,-100,4,3,0,60,0,0
52479,-100,4,3,1,75,0,1
57902,-100,4,3,1,5,0,1
58017,-100,4,3,1,75,0,1
66787,-100,4,3,1,75,0,0
67248,-100,4,3,1,75,0,1
80171,-100,4,3,1,75,0,0
82017,-100,4,2,1,40,0,0

[Colours]
Combo1 : 219,89,135
Combo2 : 251,222,121
Combo3 : 142,102,217
Combo4 : 113,188,244

[HitObjects]
120,336,787,6,0,L|104:240,1,75,4|0,0:0|0:0,0:0:0:0:
392,336,2633,6,0,L|408:240,1,75,4|0,0:0|0:0,0:0:0:0:
40,288,4479,6,0,L|112:248,1,75,4|0,0:0|0:0,0:0:0:0:
472,288,6325,6,0,L|400:248,1,75,4|0,0:0|0:0,0:0:0:0:
88,320,8171,6,0,P|64:256|160:128,1,225,2|0,0:0|0:0,0:0:0:0:
256,120,9094,2,0,L|408:112,1,150,0|2,0:0|0:0,0:0:0:0:
176,248,10017,6,0,L|432:232,2,225,2|0|2,0:0|0:0|0:0,0:0:0:0:
256,192,11863,12,0,15094,0:0:0:0:
448,352,15556,6,0,L|456:256,1,75,4|0,0:0|0:0,0:0:0:0:
248,344,16248,1,0,0:0:0:0:
160,336,16479,2,0,L|168:240,1,75,4|0,0:0|0:0,0:0:0:0:
280,208,16940,2,0,L|272:112,1,75,8|0,0:0|0:0,0:0:0:0:
128,256,17633,5,0,0:0:0:0:
40,248,17864,2,0,L|48:152,1,75,4|0,0:0|0:0,0:0:0:0:
136,56,18325,2,0,L|304:40,1,150,2|10,0:0|0:0,0:0:0:0:
472,360,19248,6,0,L|480:264,1,75,4|0,0:0|0:0,0:0:0:0:
248,312,19940,2,0,L|240:216,1,75,0|4,0:0|0:0,0:0:0:0:
472,360,20633,6,0,L|480:264,1,75,0|0,0:0|0:0,0:0:0:0:
232,144,21325,2,0,L|320:128,1,75,0|12,0:0|0:0,0:0:0:0:
472,360,22017,2,0,L|304:344,1,150,2|2,0:0|0:0,0:0:0:0:
56,288,22940,6,0,P|24:208|72:136,1,150,4|2,0:2|0:0,0:0:0:0:
160,80,23633,1,0,0:0:0:0:
312,232,24094,2,0,L|216:224,1,75,0|2,0:0|0:0,0:0:0:0:
432,144,24787,5,0,0:0:0:0:
280,56,25017,2,0,P|240:120|288:200,1,150,0|0,0:0|0:0,0:0:0:0:
360,240,25710,2,0,L|352:336,1,75
240,352,26171,1,2,0:0:0:0:
448,128,26633,6,0,L|272:128,1,150,0|2,0:0|0:0,0:0:0:0:
176,128,27325,1,0,0:0:0:0:
352,256,27787,2,0,L|432:256,1,75,0|2,0:0|0:0,0:0:0:0:
192,320,28479,5,0,0:0:0:0:
328,256,28710,2,0,P|360:208|312:112,1,150,0|0,0:0|0:0,0:0:0:0:
232,72,29402,2,0,L|152:72,1,75,0|0,0:0|0:0,0:0:0:0:
320,160,29863,2,0,L|400:160,1,75,2|0,0:0|0:0,0:0:0:0:
160,360,30325,6,0,P|104:264|176:192,1,225
328,112,31479,2,0,L|424:120,1,75,0|2,0:0|0:0,0:0:0:0:
192,64,32171,6,0,L|96:64,2,75,0|0|2,0:0|0:0|0:0,0:0:0:0:
360,120,33094,2,0,L|352:200,1,75,0|0,0:0|0:0,0:0:0:0:
448,232,33556,2,0,L|432:336,1,75,2|0,0:0|0:0,0:0:0:0:
224,344,34017,6,0,L|-24:360,2,225,0|0|2,0:0|0:0|0:0,0:0:0:0:
368,336,35633,1,0,0:0:0:0:
160,256,35863,6,0,P|146:179|176:96,1,150,0|2,0:0|0:0,0:0:0:0:
296,88,36556,2,0,L|312:-8,1,75,0|0,0:0|0:0,0:0:0:0:
96,112,37248,2,0,L|88:208,1,75,2|0,0:0|0:0,0:0:0:0:
304,336,37710,6,0,P|360:288|304:168,1,225,2|0,0:0|0:0,0:0:0:0:
56,128,39094,2,0,L|152:112,1,75,2|0,0:0|0:0,0:0:0:0:
272,48,39556,6,0,L|456:64,1,150
336,48,40248,1,0,0:0:0:0:
168,200,40940,2,0,L|192:296,1,75,2|0,0:0|0:0,0:0:0:0:
336,296,41402,6,0,P|392:208|304:112,1,225,0|2,0:0|0:0,0:0:0:0:
184,64,42787,2,0,L|88:72,1,75,0|0,0:0|0:0,0:0:0:0:
256,136,43248,6,0,L|440:152,1,150,2|0,0:0|0:0,0:0:0:0:
240,256,43940,2,0,L|232:160,1,75,0|2,0:0|0:0,0:0:0:0:
392,144,44633,2,0,L|408:64,1,75,0|0,0:0|0:0,0:0:0:0:
176,104,45094,6,0,P|112:184|184:296,1,225
352,336,46479,2,0,L|440:328,1,75,2|0,0:0|0:0,0:0:0:0:
280,272,46940,6,0,L|184:264,2,75,0|0|2,0:0|0:0|0:0,0:0:0:0:
88,208,47863,2,0,L|80:120,1,75,0|0,0:0|0:0,0:0:0:0:
200,280,48325,2,0,L|112:304,1,75,2|0,0:0|0:0,0:0:0:0:
360,336,48787,6,0,P|424:288|352:112,1,300
184,96,50171,2,0,L|96:104,1,75,2|0,0:0|0:0,0:0:0:0:
336,152,50633,6,0,L|440:160,2,75,2|0|2,0:0|0:0|0:0,0:0:0:0:
216,144,51325,1,0,0:0:0:0:
16,128,51556,1,2,0:0:0:0:
176,240,52017,2,0,L|80:232,1,75,0|0,0:0|0:0,0:0:0:0:
304,200,52479,6,0,P|312:272|232:336,1,150,6|0,0:0|0:0,0:0:0:0:
112,344,53171,1,2,0:0:0:0:
256,344,53402,2,0,L|344:328,1,75,8|0,0:0|0:0,0:0:0:0:
208,192,53863,2,0,L|120:176,1,75,2|0,0:0|0:0,0:0:0:0:
304,112,54325,6,0,L|480:88,1,150,0|2,0:0|0:0,0:0:0:0:
360,16,55017,1,0,0:0:0:0:
264,120,55248,2,0,P|240:168|296:248,1,150,8|0,0:0|0:0,0:0:0:0:
384,272,55940,1,0,0:0:0:0:
168,368,56171,6,0,L|136:192,1,150,4|0,0:0|0:0,0:0:0:0:
256,8,56863,2,0,L|352:16,1,75,2|8,0:0|0:0,0:0:0:0:
144,112,57556,2,0,L|48:120,1,75,0|0,0:0|0:0,0:0:0:0:
184,216,58017,6,0,L|280:224,2,75,0|0|0,0:0|0:0|0:0,0:0:0:0:
344,336,58940,2,0,L|440:328,1,75,8|0,0:0|0:0,0:0:0:0:
464,240,59402,2,0,L|368:232,1,75,2|0,0:0|0:0,0:0:0:0:
160,208,59863,6,0,L|128:32,1,150,4|0,0:0|0:0,0:0:0:0:
272,40,60556,2,0,L|368:32,1,75,2|8,0:0|0:0,0:0:0:0:
232,240,61017,2,0,L|136:232,2,75,0|0|0,0:0|0:0|0:0,0:0:0:0:
392,288,61710,6,0,P|400:240|328:152,1,150,2|0,0:0|0:0,0:0:0:0:
256,136,62402,1,0,0:0:0:0:
120,288,62633,2,0,P|112:240|184:152,1,150,8|0,0:0|0:0,0:0:0:0:
272,136,63325,1,0,0:0:0:0:
424,200,63556,6,0,L|440:296,1,75,4|0,0:0|0:0,0:0:0:0:
312,272,64017,2,0,L|296:368,1,75,0|2,0:0|0:0,0:0:0:0:
176,216,64479,2,0,L|192:312,1,75,8|0,0:0|0:0,0:0:0:0:
64,288,64940,2,0,L|48:384,1,75
280,248,65402,6,0,P|316:183|172:31,1,300,0|8,0:0|0:0,0:0:0:0:
384,80,66787,2,0,L|472:72,1,75,2|0,0:0|0:0,0:0:0:0:
232,208,67248,6,0,L|48:208,1,150,4|0,0:0|0:0,0:0:0:0:
192,208,67940,1,0,0:0:0:0:
288,344,68171,2,0,L|304:264,1,75,8|0,0:0|0:0,0:0:0:0:
192,208,68633,2,0,L|184:128,1,75,2|0,0:0|0:0,0:0:0:0:
344,56,69094,6,0,P|416:160|352:224,1,225,2|0,0:0|0:0,0:0:0:0:
264,288,70017,2,0,L|176:288,2,75,8|0|2,0:0|0:0|0:0,0:0:0:0:
40,200,70940,6,0,L|224:200,1,150,2|0,0:0|0:0,0:0:0:0:
328,200,71633,1,0,0:0:0:0:
192,104,72094,2,0,L|272:104,1,75,0|2,0:0|0:0,0:0:0:0:
112,264,72787,6,0,L|96:168,1,75,2|0,0:0|0:0,0:0:0:0:
264,336,73248,2,0,L|88:336,1,150,0|8,0:0|0:0,0:0:0:0:
376,288,74171,2,0,L|400:200,1,75,2|0,0:0|0:0,0:0:0:0:
176,32,74633,6,0,P|120:88|216:200,1,225,4|2,0:0|0:0,0:0:0:0:
336,232,75556,2,0,L|424:224,1,75,0|0,0:0|0:0,0:0:0:0:
328,352,76017,2,0,L|240:344,1,75,8|0,0:0|0:0,0:0:0:0:
32,304,76479,6,0,P|0:224|96:120,1,225,2|2,0:0|0:0,0:0:0:0:
208,56,77402,2,0,L|296:64,2,75,0|0|8,0:0|0:0|0:0,0:0:0:0:
464,184,78325,6,0,B|416:176|328:104|328:104|368:152|384:208|376:256|368:312|336:360|304:376,1,450,2|8,0:0|0:0,0:0:0:0:
208,312,80171,2,0,L|104:320,1,75
312,192,80748,2,0,L|192:192,1,112.5
80,120,81325,2,0,L|0:136,1,75,0|0,0:0|0:0,0:0:0:0:
56,160,81671,1,0,0:0:0:0:
368,352,82017,6,0,L|400:104,1,225,4|0,0:0|0:0,0:0:0:0:
224,72,83402,2,0,P|192:128|288:240,1,225,0|0,0:0|0:0,0:0:0:0:
152,320,84787,2,0,L|304:336,1,150,0|0,0:0|0:0,0:0:0:0:
32,344,85710,5,2,0:0:0:0:
