osu file format v14

[General]
AudioFilename: 01-01- Resuscitated Hope.mp3
AudioLeadIn: 0
PreviewTime: 134035
Countdown: 0
SampleSet: Normal
StackLeniency: 0.7
Mode: 0
LetterboxInBreaks: 0
WidescreenStoryboard: 0

[Editor]
Bookmarks: 1677,9061,16446,23830,38600,45996,53381,82919,90304,105073,119842,127227,134612,137842,164150,171535,178919,193689,208458,223227,237996,241689,256458,285996,289689,293381
DistanceSpacing: 1.04
BeatDivisor: 4
GridSize: 4
TimelineZoom: 0.6999996

[Metadata]
Title:Resuscitated Hope
TitleUnicode:Resuscitated Hope
Artist:Komine Lisa
ArtistUnicode:コミネリサ
Creator:Okorin
Version:Insane
Source:GOSICK
Tags:ゴシック Ending Full Version Size Smokeman Okoratu
BeatmapID:765880
BeatmapSetID:347023

[Difficulty]
HPDrainRate:7
CircleSize:4
OverallDifficulty:7
ApproachRate:8.3
SliderMultiplier:1.7
SliderTickRate:1

[Events]
//Background and Video events
0,0,"goshikku.jpg",0,0
//Break Periods
2,164349,169877
//Storyboard Layer 0 (Background)
//Storyboard Layer 1 (Fail)
//Storyboard Layer 2 (Pass)
//Storyboard Layer 3 (Foreground)
//Storyboard Sound Samples

[TimingPoints]
1689,461.538461538462,4,1,1,50,1,0
1689,-133.333333333333,4,1,1,50,0,0
3996,-133.333333333333,4,1,1,20,0,0
4227,-133.333333333333,4,1,1,50,0,0
4689,-133.333333333333,4,1,1,20,0,0
4919,-133.333333333333,4,1,1,50,0,0
9073,-125,4,2,1,50,0,0
15419,-125,4,2,1,20,0,0
15535,-125,4,2,1,50,0,0
16458,-111.111111111111,4,1,1,50,0,0
23842,-100,4,2,1,40,0,0
38612,-133.333333333333,4,2,1,40,0,0
45996,-114.942528735632,4,1,1,40,0,0
49689,-100,4,1,1,45,0,0
51535,-100,4,1,1,50,0,0
51765,-100,4,1,1,55,0,0
51996,-100,4,1,1,60,0,0
52227,-100,4,1,1,65,0,0
52458,-100,4,1,1,70,0,0
52919,-100,4,2,1,45,0,0
53381,-90.9090909090909,4,1,1,45,0,1
67227,-100,4,1,1,40,0,0
67458,-95.2380952380952,4,1,1,40,0,0
68150,-86.9565217391304,4,1,1,45,0,1
82919,-100,4,1,1,50,0,0
83150,-100,4,1,1,40,0,0
90304,-133.333333333333,4,2,1,30,0,0
105073,-100,4,2,1,50,0,0
119842,-133.333333333333,4,2,1,40,0,0
127227,-114.942528735632,4,1,1,40,0,0
130919,-100,4,1,1,45,0,0
132765,-100,4,1,1,50,0,0
132996,-100,4,1,1,55,0,0
133227,-100,4,1,1,60,0,0
133458,-100,4,1,1,65,0,0
133689,-100,4,1,1,70,0,0
134150,-100,4,2,1,45,0,0
134612,-90.9090909090909,4,1,1,45,0,1
147535,480,4,1,1,45,1,1
148458,461.538461538462,4,1,1,40,1,0
149381,461.538461538462,4,1,1,50,1,1
149381,-86.9565217391304,4,1,1,50,0,1
164150,-100,4,1,1,45,0,0
170627,451.127819548872,4,1,1,45,1,0
171534,461.538461538462,4,1,1,50,1,0
171534,-125,4,1,1,50,0,0
178918,-100,4,1,1,50,0,0
195995,-100,4,1,1,40,0,0
207995,-100,4,1,1,30,0,0
208457,-125,4,1,1,40,0,0
215380,-125,4,1,1,30,0,0
215841,-125,4,1,1,40,0,0
230610,-125,4,2,1,30,0,0
234303,-125,4,1,1,40,0,0
237995,-125,4,1,1,40,0,0
238457,-111.111111111111,4,1,1,40,0,0
238918,-100,4,1,1,45,0,0
240764,-100,4,1,1,35,0,0
241687,-166.666666666667,4,2,1,30,0,0
256457,-90.9090909090909,4,1,1,45,0,1
270303,-90.9090909090909,4,1,1,45,0,0
271226,-86.9565217391304,4,1,1,45,0,1
285995,-100,4,1,1,35,0,0

[Colours]
Combo1 : 111,157,227
Combo2 : 218,231,124
Combo3 : 194,135,110
Combo4 : 255,215,135

[HitObjects]
122,42,1689,5,4,0:2:0:0:
174,226,1919,1,4,0:2:0:0:
174,226,3535,5,4,0:2:0:0:
122,42,3765,2,0,P|85:29|45:29,1,63.7500024318696,4|0,0:2|2:0,0:0:0:0:
174,226,4227,2,0,P|171:177|217:107,1,127.500004863739,2|0,2:0|2:2,2:2:0:0:
339,244,4919,1,2,2:0:0:0:
358,45,5381,5,4,0:2:0:0:
347,252,5612,1,4,0:2:0:0:
347,252,7227,5,4,0:2:0:0:
358,45,7458,1,4,0:2:0:0:
446,151,7689,2,0,P|437:197|442:285,1,127.500004863739,2|0,2:2|2:2,2:2:0:0:
440,277,8612,1,2,2:0:0:0:
340,216,8842,1,0,2:0:0:0:
254,305,9073,6,0,P|213:318|160:250,1,136,2|0,0:0|0:0,0:0:0:0:
223,151,9765,2,0,B|230:102|230:102|218:6,1,136,2|0,0:0|0:0,0:0:0:0:
72,38,10458,1,0,0:0:0:0:
158,98,10689,1,0,0:0:0:0:
72,38,10919,6,0,B|39:105|90:105|57:184,1,136,2|0,0:0|0:0,0:0:0:0:
50,299,11612,2,0,P|71:250|164:253,1,136,2|0,0:0|0:0,0:0:0:0:
251,329,12304,6,0,L|260:201,1,102,2|0,0:0|0:0,0:0:0:0:
289,188,12765,2,0,P|323:194|368:182,1,68,2|0,3:2|2:0,0:0:0:0:
472,134,13227,2,0,B|441:97|441:97|369:85,1,102,0|0,0:0|0:0,0:0:0:0:
352,54,13689,2,0,L|269:56,1,68,2|0,3:2|0:0,0:0:0:0:
164,34,14150,1,2,0:0:0:0:
171,42,14612,6,0,B|137:99|160:193|185:152|204:249|176:288,1,238
168,305,15535,2,0,P|136:292|87:291,1,68
274,255,15996,2,2,B|283:243|283:243|305:248|305:248|340:235|378:257,1,102,2|0,0:0|0:0,0:0:0:0:
410,284,16458,5,4,0:2:0:0:
424,118,16689,2,0,L|429:29,1,76.4999976654053,0|0,0:0|2:0,0:0:0:0:
417,197,17150,1,0,0:0:0:0:
319,97,17381,2,0,P|275:74|209:146,1,152.999995330811,8|0,0:2|0:0,0:0:0:0:
137,280,18073,2,0,B|168:276|168:276|218:230,1,76.4999976654053,0|0,0:0|2:0,0:0:0:0:
41,118,18535,5,0,0:0:0:0:
56,284,18765,2,0,L|64:388,1,76.4999976654053,8|0,0:0|2:0,0:0:0:0:
286,199,19227,1,8,0:2:0:0:
131,166,19458,1,4,0:3:0:0:
267,297,19689,1,8,0:0:0:0:
303,116,19919,1,4,0:3:0:0:
174,260,20150,5,4,0:2:0:0:
200,90,20381,2,0,L|209:7,1,76.4999976654053,0|0,0:0|2:0,0:0:0:0:
266,199,20842,1,0,0:0:0:0:
113,71,21073,2,0,P|70:61|37:171,1,152.999995330811,8|0,0:0|0:0,0:0:0:0:
67,248,21765,1,0,1:0:0:0:
74,256,22227,5,0,0:0:0:0:
215,185,22458,2,0,L|293:157,1,76.4999976654053,8|0,0:0|2:0,0:0:0:0:
184,285,22919,1,8,0:0:0:0:
122,137,23150,1,4,0:3:0:0:
330,235,23381,1,8,0:0:0:0:
216,366,23612,1,4,0:3:0:0:
190,332,23727,1,0,0:0:0:0:
184,285,23842,6,0,P|198:234|189:112,1,170,6|8,0:0|0:0,0:0:0:0:
51,29,24535,2,0,L|59:136,1,85,2|0,0:0|3:0,0:0:0:0:
57,113,24996,1,0,0:0:0:0:
194,31,25227,2,0,B|253:25|253:25|302:42|302:42|377:34,1,170,10|0,0:0|3:3,0:0:0:0:
441,141,25919,5,2,0:0:0:0:
441,141,26035,1,0,0:0:0:0:
441,141,26150,2,0,P|432:189|432:232,1,85,8|0,0:0|0:0,0:0:0:0:
287,337,26612,1,0,3:0:0:0:
299,188,26842,1,0,0:0:0:0:
391,350,27073,1,8,0:0:0:0:
224,247,27304,1,4,0:3:0:0:
335,103,27535,6,0,B|299:182|363:183|341:279,1,170,2|8,3:2|0:0,0:0:0:0:
224,143,28227,2,0,P|172:136|123:160,1,85,2|0,0:0|3:0,0:0:0:0:
46,241,28689,1,0,0:0:0:0:
48,62,28919,1,10,0:0:0:0:
72,160,29150,1,0,0:0:0:0:
157,28,29381,6,0,P|208:11|258:21,1,85,0|0,3:0|0:0,0:0:0:0:
400,89,29842,1,8,0:0:0:0:
313,237,30073,1,0,0:0:0:0:
313,237,30189,1,0,0:0:0:0:
313,237,30304,1,2,3:2:0:0:
290,88,30535,1,0,0:0:0:0:
407,299,30765,1,8,0:0:0:0:
253,307,30996,1,4,0:3:0:0:
416,178,31227,6,0,P|454:197|381:231,1,170,2|8,3:2|0:0,0:0:0:0:
290,88,31919,2,0,L|387:74,1,85,2|0,0:0|3:0,0:0:0:0:
328,167,32381,1,0,0:0:0:0:
204,59,32612,2,0,B|156:73|106:65|137:49|61:44|35:65,1,170,10|0,0:0|3:0,0:0:0:0:
90,197,33304,5,2,0:0:0:0:
90,197,33419,1,0,2:3:0:0:
90,197,33535,1,8,0:0:0:0:
222,146,33765,1,0,0:0:0:0:
177,306,33996,1,0,3:0:0:0:
149,133,34227,1,0,0:0:0:0:
276,348,34458,1,8,0:0:0:0:
109,259,34689,1,4,0:3:0:0:
300,170,34919,6,0,L|471:187,1,170,2|8,0:0|0:0,0:0:0:0:
306,59,35612,2,0,P|255:62|213:88,1,85,2|0,0:0|0:0,0:0:0:0:
153,286,36073,1,0,0:0:0:0:
153,286,36189,1,0,0:0:0:0:
153,286,36304,1,10,0:0:0:0:
228,162,36535,1,0,0:0:0:0:
110,344,36765,6,0,B|90:265|135:264|117:166,1,170,2|8,0:0|0:0,0:0:0:0:
54,48,37458,1,0,0:0:0:0:
58,51,37689,2,0,L|167:46,1,85,2|0,0:0|0:0,0:0:0:0:
328,109,38150,1,8,0:0:0:0:
324,229,38381,1,8,0:0:0:0:
328,109,38612,6,0,P|341:155|322:244,1,127.500004863739,2|0,0:0|0:0,0:0:0:0:
220,292,39304,1,2,0:0:0:0:
220,292,39535,2,0,L|222:218,1,63.7500024318696,0|0,3:0|0:0,0:0:0:0:
169,140,39996,2,0,L|171:66,1,63.7500024318696,2|0,3:2|0:0,0:0:0:0:
51,67,40458,6,0,P|15:102|43:189,1,127.500004863739,2|0,0:0|0:0,0:0:0:0:
121,246,41150,2,0,B|166:239|166:239|198:242|198:242|269:232,1,127.500004863739,2|0,0:0|0:0,0:0:0:0:
374,169,41842,1,2,0:0:0:0:
277,101,42073,1,2,0:0:0:0:
330,251,42304,6,0,P|341:293|326:380,1,127.500004863739,2|0,3:2|0:0,0:0:0:0:
204,272,42996,1,2,0:0:0:0:
204,272,43227,2,0,P|198:225|206:191,1,63.7500024318696,0|0,3:0|0:0,0:0:0:0:
162,65,43689,1,2,0:0:0:0:
264,124,43919,1,0,0:0:0:0:
162,65,44150,6,0,P|127:59|69:127,1,127.500004863739,2|0,0:0|3:0,0:0:0:0:
75,247,44842,1,2,0:0:0:0:
75,247,45073,2,0,L|68:110,1,127.500004863739,2|2,0:0|3:2,0:0:0:0:
160,196,45765,1,2,0:0:0:0:
225,101,45996,6,0,P|264:71|361:90,1,147.900001241226,0|0,0:0|0:0,0:0:0:0:
419,171,46689,1,2,3:2:0:0:
361,285,46919,2,0,P|348:329|345:367,1,73.9500006206131,8|0,0:0|3:2,0:0:0:0:
251,227,47381,2,0,P|218:205|183:196,1,73.9500006206131,2|0,0:2|3:0,0:0:0:0:
53,147,47842,6,0,P|76:111|117:92,1,73.9500006206131,0|0,0:0|3:2,0:0:0:0:
237,55,48304,1,2,0:2:0:0:
282,152,48535,1,0,3:0:0:0:
181,144,48765,1,10,0:2:0:0:
334,72,48996,1,0,3:0:0:0:
265,233,49227,1,2,0:2:0:0:
237,55,49458,1,0,3:0:0:0:
382,206,49689,6,0,P|431:219|473:217,1,85,2|0,0:2|0:0,0:0:0:0:
464,218,50150,1,0,0:0:0:0:
433,104,50381,1,2,0:2:0:0:
270,176,50612,2,0,B|258:204|258:204|262:276,1,85,8|0,0:0|0:2,0:0:0:0:
287,299,50958,1,0,0:0:0:0:
287,299,51073,2,0,L|281:418,1,85,0|0,0:0|0:0,0:0:0:0:
89,216,51535,5,0,0:0:0:0:
212,125,51765,1,0,0:0:0:0:
79,292,51996,1,0,0:0:0:0:
177,54,52227,1,0,0:0:0:0:
162,349,52458,1,8,0:0:0:0:
401,111,52919,5,0,0:0:0:0:
310,204,53150,1,2,0:0:0:0:
186,70,53381,6,0,P|121:37|52:120,1,187.000005706787,4|0,0:2|0:0,0:0:0:0:
89,218,54073,1,2,2:3:0:0:
261,140,54304,1,10,0:2:0:0:
262,331,54535,1,2,2:3:0:0:
172,189,54765,1,0,0:3:0:0:
366,200,54996,1,0,0:3:0:0:
180,346,55227,6,0,P|197:296|194:249,1,93.5000028533936,2|2,0:2|0:3,0:0:0:0:
198,89,55689,2,0,L|319:75,1,93.5000028533936,2|2,0:3|0:2,0:0:0:0:
119,163,56150,2,0,P|92:110|96:61,1,93.5000028533936,10|0,0:2|0:0,0:0:0:0:
395,56,56612,2,0,P|391:102|367:141,1,93.5000028533936,2|0,0:2|0:0,0:0:0:0:
329,172,56958,1,0,0:0:0:0:
329,172,57073,6,0,B|306:227|318:272|341:251|352:310|325:370,1,187.000005706787,2|0,0:2|0:0,0:0:0:0:
143,191,57765,1,2,0:2:0:0:
143,191,57996,2,0,P|92:181|43:190,1,93.5000028533936,8|0,0:0|0:0,0:0:0:0:
220,38,58458,2,0,P|219:86|241:134,1,93.5000028533936,2|0,0:2|0:0,0:0:0:0:
421,258,58919,5,2,0:2:0:0:
378,123,59150,1,2,0:3:0:0:
240,309,59381,1,2,0:3:0:0:
413,277,59612,1,2,0:3:0:0:
299,158,59842,2,0,L|313:273,1,93.5000028533936,10|0,0:2|0:0,0:0:0:0:
416,96,60304,1,2,0:2:0:0:
287,29,60535,1,0,0:2:0:0:
158,189,60765,6,0,P|107:222|60:120,1,187.000005706787,6|0,0:2|0:0,0:0:0:0:
159,81,61458,1,2,2:3:0:0:
67,250,61689,1,10,0:2:0:0:
240,136,61919,1,2,2:3:0:0:
189,329,62150,1,0,0:0:0:0:
136,150,62381,1,0,0:0:0:0:
320,278,62612,6,0,P|361:258|385:202,1,93.5000028533936,2|2,0:2|0:3,0:0:0:0:
388,173,62958,1,0,0:0:0:0:
388,173,63073,2,0,P|377:119|381:72,1,93.5000028533936,2|2,0:3|0:2,0:0:0:0:
231,257,63535,2,0,P|242:311|238:358,1,93.5000028533936,10|0,0:2|0:0,0:0:0:0:
143,157,63996,2,0,P|191:131|261:130,1,93.5000028533936,2|0,0:2|0:0,0:0:0:0:
67,302,64458,6,0,B|81:189|40:233|56:117,1,187.000005706787,2|0,0:2|0:0,0:0:0:0:
209,29,65150,1,2,0:3:0:0:
151,233,65381,2,0,B|147:166|147:166|186:94,1,140.25000428009,10|0,0:2|2:2,0:0:0:0:
234,98,65842,2,0,P|286:83|311:48,1,93.5000028533936,2|2,0:2|0:3,0:0:0:0:
92,24,66304,6,0,P|45:39|11:83,1,93.5000028533936,2|0,0:2|0:0,0:0:0:0:
183,179,66765,1,2,1:3:0:0:
93,107,66996,1,2,1:3:0:0:
146,286,67227,2,0,L|154:339,1,42.5,10|0,0:2|0:0,0:0:0:0:
313,230,67458,2,0,L|317:174,1,44.6249986381531,2|0,0:2|0:0,0:0:0:0:
203,93,67689,1,2,1:2:0:0:
179,130,67804,1,0,1:2:0:0:
174,174,67919,1,2,1:2:0:0:
188,216,68035,1,2,1:2:0:0:
219,247,68150,6,0,B|293:212|310:272|415:243,1,195.500003728867,4|8,0:2|0:0,0:0:0:0:
463,82,68842,1,2,2:3:0:0:
261,39,69073,1,2,0:2:0:0:
279,147,69304,1,2,2:3:0:0:
384,6,69535,1,8,0:2:0:0:
455,166,69765,1,0,0:3:0:0:
261,39,69996,6,0,P|189:29|144:45,1,97.7500018644333,2|2,0:2|0:3,0:0:0:0:
133,78,70342,1,0,0:0:0:0:
133,78,70458,2,0,P|132:134|121:180,1,97.7500018644333,8|2,0:2|0:2,0:0:0:0:
7,314,70919,2,0,P|1:256|19:191,1,97.7500018644333,2|0,1:3|0:0,0:0:0:0:
218,253,71381,2,0,P|213:300|196:347,1,97.7500018644333,10|0,0:2|0:0,0:0:0:0:
125,181,71842,6,0,B|189:164|189:164|249:179|249:179|330:158,1,195.500003728867,2|8,0:2|0:0,0:0:0:0:
391,16,72535,1,2,0:2:0:0:
391,16,72650,1,0,0:0:0:0:
391,16,72765,2,0,P|336:1|283:19,1,97.7500018644333,2|0,0:3|0:0,0:0:0:0:
452,143,73227,2,0,P|491:116|513:56,1,97.7500018644333,10|0,0:2|0:0,0:0:0:0:
344,109,73689,5,2,0:2:0:0:
480,248,73919,1,2,0:3:0:0:
336,101,74150,2,0,P|279:82|221:165,1,146.62500279665,10|0,0:2|0:0,0:0:0:0:
228,180,74612,2,0,B|236:218|236:218|228:287,1,97.7500018644333,2|0,0:2|0:0,0:0:0:0:
38,150,75073,1,10,0:2:0:0:
141,44,75304,1,0,0:2:0:0:
289,153,75535,6,0,B|334:169|334:169|491:142,1,195.500003728867,6|8,0:2|0:0,0:0:0:0:
360,76,76227,2,0,B|350:193|384:136|368:281,1,195.500003728867,2|2,1:2|2:3,0:0:0:0:
377,277,76804,1,0,0:0:0:0:
385,285,76919,1,8,0:0:0:0:
238,198,77150,1,0,0:0:0:0:
450,221,77381,6,0,P|464:298|359:368,1,195.500003728867,2|10,0:2|0:2,0:0:0:0:
181,260,78073,2,0,P|167:183|272:113,1,195.500003728867,2|0,0:2|0:0,0:0:0:0:
281,267,78765,2,0,P|274:317|281:379,1,97.7500018644333,10|0,0:2|0:0,0:0:0:0:
415,135,79227,6,0,P|346:100|368:198,1,195.500003728867,2|8,0:2|0:0,0:0:0:0:
438,350,79919,1,0,0:0:0:0:
438,350,80035,1,0,0:0:0:0:
438,350,80150,2,0,L|436:230,1,97.7500018644333,0|0,0:0|0:0,0:0:0:0:
303,352,80612,1,8,0:0:0:0:
312,361,81073,5,2,0:2:0:0:
249,231,81304,2,0,B|207:218|207:218|138:238,1,97.7500018644333,8|4,0:0|0:3,0:0:0:0:
113,246,81650,2,0,L|120:136,1,97.7500018644333,8|4,0:0|0:3,0:0:0:0:
130,95,81996,1,8,0:0:0:0:
32,190,82227,1,0,0:0:0:0:
203,24,82458,1,4,0:3:0:0:
205,72,82573,1,4,0:3:0:0:
207,121,82688,1,4,0:3:0:0:
37,34,82919,5,6,0:2:0:0:
203,24,83150,2,0,L|305:20,1,85,2|0,0:2|3:0,0:0:0:0:
210,215,83612,1,6,0:2:0:0:
327,101,83842,2,0,P|384:86|434:96,1,85,10|0,0:2|3:0,0:0:0:0:
301,266,84304,1,6,0:2:0:0:
198,121,84535,2,0,P|142:92|89:98,1,85,2|0,0:2|3:3,0:0:0:0:
205,297,84996,5,6,0:2:0:0:
282,96,85227,2,0,L|302:283,1,170,10|0,0:2|3:2,0:0:0:0:
300,265,86150,1,0,0:0:0:0:
86,150,86612,5,6,0:2:0:0:
179,51,86842,2,0,L|183:157,1,85,2|0,0:2|3:3,0:0:0:0:
396,279,87304,1,6,0:2:0:0:
303,180,87534,2,0,L|299:286,1,85,10|0,0:2|0:3,0:0:0:0:
329,76,87996,1,6,0:2:0:0:
178,220,88227,2,0,L|181:135,1,85,2|0,0:2|3:3,0:0:0:0:
325,182,88689,5,6,0:2:0:0:
179,51,88919,2,0,L|182:135,1,85,2|0,0:2|0:0,0:0:0:0:
390,117,89381,1,10,0:2:0:0:
407,78,89496,1,4,0:3:0:0:
406,37,89611,1,4,0:3:0:0:
182,135,89842,1,10,0:2:0:0:
163,174,89957,1,8,0:3:0:0:
165,216,90072,1,8,0:3:0:0:
289,16,90304,6,0,B|351:11|351:11|433:35,1,127.500004863739,2|0,0:0|0:0,0:0:0:0:
447,143,90996,2,0,P|429:185|429:274,1,127.500004863739,2|0,0:0|0:0,0:0:0:0:
334,214,91689,2,0,P|294:195|252:204,1,79.687503039837,2|0,0:0|0:0,0:0:0:0:
172,262,92150,6,0,L|175:319,2,42.5000016212464,2|0|0,0:0|0:0|0:0,0:0:0:0:
134,154,92612,2,0,L|138:97,2,42.5000016212464,2|0|0,0:0|0:0|0:0,0:0:0:0:
61,238,93073,2,0,B|50:260|50:260|51:321,1,63.7500024318696,2|0,0:0|0:0,0:0:0:0:
131,379,93535,2,0,B|142:357|142:357|141:296,1,63.7500024318696,2|0,0:0|0:0,0:0:0:0:
196,209,93996,6,0,P|245:230|270:314,1,127.500004863739,2|0,3:2|0:0,0:0:0:0:
112,252,94689,2,0,L|128:104,1,127.500004863739,2|0,0:0|0:0,0:0:0:0:
251,113,95381,2,0,P|242:155|239:225,1,85.0000032424928,2|2,0:0|0:0,0:0:0:0:
332,72,95842,6,0,L|385:53,1,42.5000016212464,2|0,0:0|0:0,0:0:0:0:
328,168,96150,1,2,0:0:0:0:
328,168,96304,2,0,L|336:236,1,42.5000016212464,2|0,0:0|0:0,0:0:0:0:
228,88,96612,1,2,0:0:0:0:
228,88,96765,2,0,L|177:94,2,42.5000016212464,2|0|0,0:0|0:0|0:0,0:0:0:0:
315,75,97227,1,2,0:0:0:0:
264,166,97381,1,0,0:0:0:0:
315,75,97535,1,0,0:0:0:0:
264,166,97689,6,0,P|248:216|271:291,1,127.500004863739,2|0,0:0|0:0,0:0:0:0:
348,354,98304,2,0,L|408:339,1,42.5000016212464
392,200,98612,2,0,L|351:211,1,42.5000016212464,2|0,0:0|0:0,0:0:0:0:
461,261,98919,1,0,0:0:0:0:
478,163,99073,2,0,L|487:108,1,42.5000016212464,2|0,0:0|0:0,0:0:0:0:
460,19,99381,1,2,0:0:0:0:
366,55,99535,6,0,P|336:62|315:60,1,42.5000016212464,2|0,0:0|0:0,0:0:0:0:
223,33,99842,1,2,0:0:0:0:
223,137,99996,2,0,L|221:192,1,42.5000016212464,2|0,0:0|0:0,0:0:0:0:
215,306,100304,1,2,0:0:0:0:
138,203,100458,2,0,P|112:189|85:184,1,42.5000016212464,2|0,0:0|0:0,0:0:0:0:
138,315,100765,1,2,0:0:0:0:
255,242,100919,2,0,P|288:233|315:230,1,42.5000016212464,2|0,0:0|0:0,0:0:0:0:
426,269,101227,1,0,0:0:0:0:
336,310,101381,6,0,P|329:258|368:193,1,127.500004863739,2|0,0:0|0:0,0:0:0:0:
449,60,102073,2,0,L|456:195,1,127.500004863739,2|0,0:0|0:0,0:0:0:0:
346,65,102765,2,0,P|337:29|323:-1,1,63.7500024318696,0|0,0:0|0:0,0:0:0:0:
202,122,103227,6,0,B|207:169|207:169|203:194|203:194|214:269,1,127.500004863739,2|0,0:0|0:0,0:0:0:0:
246,375,103919,1,0,0:0:0:0:
351,236,104150,2,0,P|385:210|471:235,1,127.500004863739,2|0,0:0|0:0,0:0:0:0:
455,310,104804,2,0,L|451:337,2,21.2500008106232,2|2|2,0:0|0:0|0:0,0:0:0:0:
455,310,105073,6,4,B|455:263|455:263|466:205,1,85,6|0,0:0|0:0,0:0:0:0:
498,93,105535,1,8,0:0:0:0:
351,236,105765,2,0,L|359:126,1,85,2|0,0:0|3:0,0:0:0:0:
383,300,106227,1,0,0:0:0:0:
248,172,106458,2,0,B|227:267|266:249|240:357,1,170,10|0,0:0|3:3,0:0:0:0:
65,218,107150,5,2,0:0:0:0:
65,218,107265,1,0,0:0:0:0:
65,218,107381,2,0,L|162:209,1,85,8|0,0:0|0:0,0:0:0:0:
46,303,107842,1,2,3:2:0:0:
3,155,108073,1,0,0:0:0:0:
200,64,108304,1,10,0:0:0:0:
149,210,108535,1,4,0:3:0:0:
220,46,108765,6,0,B|263:30|306:41|288:57|342:66|399:44,1,170,2|8,3:2|0:0,0:0:0:0:
405,186,109458,2,0,P|383:224|376:287,1,85,2|0,0:0|3:0,0:0:0:0:
496,299,109919,1,0,0:0:0:0:
283,220,110150,2,0,P|273:267|291:324,1,85,10|0,0:0|0:0,0:0:0:0:
332,133,110612,6,0,P|278:120|218:144,1,85,0|0,3:0|0:0,0:0:0:0:
159,305,111073,1,8,0:0:0:0:
144,143,111304,2,0,L|139:96,1,42.5,0|0,0:0|0:0,0:0:0:0:
219,210,111535,1,2,3:2:0:0:
51,107,111765,1,0,0:0:0:0:
238,103,111996,1,10,0:0:0:0:
70,206,112226,1,4,0:3:0:0:
138,44,112458,6,0,B|124:77|136:130|151:114|161:162|140:218,1,170,2|8,3:2|0:0,0:0:0:0:
248,67,113150,2,0,P|292:47|341:56,1,85,2|0,0:0|3:0,0:0:0:0:
248,195,113612,1,0,0:0:0:0:
385,92,113842,2,0,P|430:75|436:177,1,170,10|0,0:0|3:0,0:0:0:0:
306,265,114535,5,2,0:0:0:0:
306,265,114650,1,0,2:3:0:0:
306,265,114765,1,8,0:0:0:0:
298,136,114996,1,0,0:0:0:0:
414,266,115227,1,2,3:2:0:0:
228,291,115458,1,0,0:0:0:0:
384,168,115689,1,10,0:0:0:0:
329,350,115919,1,4,0:3:0:0:
210,188,116150,6,0,B|173:174|116:188|137:216|89:223|29:210,1,170,2|8,0:0|0:0,0:0:0:0:
66,35,116842,2,0,L|79:131,1,85,2|0,0:0|0:0,0:0:0:0:
170,264,117304,1,0,0:0:0:0:
174,70,117535,1,10,0:0:0:0:
81,225,117765,1,0,0:0:0:0:
263,106,117996,6,0,B|314:92|314:92|376:98|376:98|432:82,1,170,2|8,0:0|0:0,0:0:0:0:
424,208,118689,1,0,0:0:0:0:
424,208,118919,2,0,P|407:253|407:295,1,85,2|0,0:0|0:0,0:0:0:0:
226,341,119381,1,8,0:0:0:0:
302,177,119612,1,8,0:0:0:0:
302,339,119842,6,0,P|286:290|195:269,1,127.500004863739,2|0,0:0|0:0,0:0:0:0:
95,327,120535,1,2,0:0:0:0:
95,327,120765,2,0,L|90:262,1,63.7500024318696,0|0,3:0|0:0,0:0:0:0:
30,160,121227,2,0,L|62:93,1,63.7500024318696,2|0,3:2|0:0,0:0:0:0:
156,22,121689,6,0,B|143:91|182:80|166:156,1,127.500004863739,2|0,0:0|0:0,0:0:0:0:
155,271,122381,2,0,B|142:202|181:213|165:137,1,127.500004863739,2|0,0:0|0:0,0:0:0:0:
65,66,123073,1,2,0:0:0:0:
83,170,123304,1,2,0:0:0:0:
183,47,123535,6,0,P|232:35|295:89,1,127.500004863739,2|0,3:2|0:0,0:0:0:0:
304,183,124227,2,0,P|336:155|433:189,1,127.500004863739,2|0,0:0|0:0,0:0:0:0:
437,274,124919,2,0,L|428:345,1,63.7500024318696,2|0,0:0|0:0,0:0:0:0:
319,359,125381,6,0,B|278:320|224:341|224:341|172:360,1,127.500004863739,2|0,0:0|3:0,0:0:0:0:
83,364,126073,1,2,0:0:0:0:
40,262,126304,2,0,L|50:121,1,127.500004863739,2|2,0:0|3:2,0:0:0:0:
146,203,126996,1,2,0:0:0:0:
174,88,127227,6,0,P|203:39|295:36,1,147.900001241226,0|0,0:0|0:0,0:0:0:0:
386,108,127919,1,2,3:2:0:0:
337,226,128150,2,0,P|328:269|327:312,1,73.9500006206131,8|0,0:0|3:2,0:0:0:0:
469,205,128612,2,0,P|466:168|458:132,1,73.9500006206131,2|0,0:2|3:0,0:0:0:0:
320,61,129073,6,0,L|224:73,1,73.9500006206131,0|0,0:0|3:2,0:0:0:0:
103,171,129535,1,2,0:2:0:0:
219,193,129765,1,0,3:0:0:0:
175,94,129996,1,10,0:2:0:0:
143,281,130227,1,0,3:0:0:0:
258,122,130458,1,2,0:2:0:0:
37,125,130689,1,0,3:0:0:0:
226,231,130919,6,0,P|242:269|248:333,1,85,2|0,0:2|0:0,0:0:0:0:
135,121,131381,2,0,L|145:17,1,85,0|2,0:0|0:2,0:0:0:0:
341,37,131842,1,8,0:0:0:0:
314,199,132073,1,0,0:2:0:0:
341,37,132304,2,0,L|349:121,1,85,0|0,0:0|0:0,0:0:0:0:
260,287,132765,5,0,0:0:0:0:
226,106,132996,1,0,0:0:0:0:
360,308,133227,1,0,0:0:0:0:
158,204,133458,1,0,0:0:0:0:
426,114,133689,1,8,0:0:0:0:
226,355,134150,5,0,0:0:0:0:
273,221,134381,1,2,0:0:0:0:
127,106,134612,6,0,P|74:105|90:227,1,187.000005706787,4|0,0:2|0:0,0:0:0:0:
178,253,135304,1,2,2:3:0:0:
272,95,135535,1,10,0:2:0:0:
380,304,135765,1,2,2:3:0:0:
263,196,135996,1,0,0:3:0:0:
456,183,136227,1,0,0:3:0:0:
301,321,136458,6,0,P|312:267|341:219,1,93.5000028533936,2|2,0:2|0:3,0:0:0:0:
175,57,136919,2,0,P|194:96|202:148,1,93.5000028533936,2|2,0:3|0:2,0:0:0:0:
120,337,137381,2,0,B|139:299|139:299|187:272,1,93.5000028533936,10|0,0:2|0:0,0:0:0:0:
394,129,137842,2,0,B|374:166|374:166|326:193,1,93.5000028533936,2|0,0:2|0:0,0:0:0:0:
282,207,138189,1,0,0:0:0:0:
282,207,138304,6,0,B|248:161|259:120|279:118|282:74|252:23,1,187.000005706787,2|0,0:2|0:0,0:0:0:0:
91,97,138996,1,2,0:2:0:0:
91,97,139227,2,0,P|78:139|85:188,1,93.5000028533936,8|0,0:0|0:0,0:0:0:0:
350,258,139689,2,0,P|363:216|356:167,1,93.5000028533936,2|0,0:2|0:0,0:0:0:0:
149,30,140150,5,2,0:2:0:0:
223,178,140381,1,0,0:2:0:0:
309,25,140612,1,2,0:3:0:0:
140,134,140842,1,2,0:3:0:0:
367,96,141073,2,0,B|406:88|406:88|467:94,1,93.5000028533936,10|0,0:2|0:0,0:0:0:0:
288,199,141535,1,2,0:2:0:0:
209,44,141765,1,0,0:2:0:0:
386,195,141996,6,0,B|397:241|392:282|368:269|360:318|382:381,1,187.000005706787,6|0,0:2|0:0,0:0:0:0:
471,159,142689,1,2,2:3:0:0:
288,220,142919,1,10,0:2:0:0:
464,319,143150,1,2,2:3:0:0:
375,154,143381,1,0,0:0:0:0:
372,355,143612,1,0,0:0:0:0:
224,194,143842,6,0,B|137:178|137:178|37:216,1,187.000005706787,2|2,0:2|0:3,0:0:0:0:
229,355,144535,1,2,0:2:0:0:
229,355,144765,2,0,P|265:311|262:259,1,93.5000028533936,10|0,0:2|0:0,0:0:0:0:
83,134,145227,2,0,P|47:178|50:230,1,93.5000028533936,2|0,0:2|0:0,0:0:0:0:
193,285,145689,6,0,B|172:226|184:188|207:196|202:147|180:100,1,187.000005706787,2|0,0:2|0:0,0:0:0:0:
130,330,146381,1,2,0:3:0:0:
273,132,146612,2,0,P|332:108|423:177,1,187.000005706787,10|2,0:2|0:2,0:0:0:0:
322,248,147304,1,2,0:3:0:0:
433,50,147535,6,0,L|496:56,2,42.5,8|8|4,0:0|0:3|0:3,0:0:0:0:
181,15,148015,1,4,0:3:0:0:
181,15,148134,1,8,0:3:0:0:
397,166,148458,2,0,L|408:104,1,42.5,10|0,0:2|0:0,0:0:0:0:
217,119,148688,2,0,L|224:180,1,42.5,2|0,0:2|0:0,0:0:0:0:
221,319,148919,1,2,1:2:0:0:
242,280,149034,1,0,1:2:0:0:
277,252,149150,1,2,1:2:0:0:
319,240,149265,1,2,1:2:0:0:
369,243,149381,6,0,B|382:330|347:300|324:356|383:437|452:359,1,195.500003728867,4|8,0:2|0:0,0:0:0:0:
474,151,150073,1,2,2:3:0:0:
474,151,150188,1,0,0:0:0:0:
474,151,150304,1,2,0:2:0:0:
301,227,150534,1,2,2:3:0:0:
482,254,150765,1,8,0:2:0:0:
415,78,150996,1,0,0:3:0:0:
301,227,151227,6,0,P|237:253|182:238,1,97.7500018644333,2|2,0:2|0:3,0:0:0:0:
322,130,151688,2,0,P|368:155|393:210,1,97.7500018644333,8|2,0:2|0:2,0:0:0:0:
219,145,152150,2,0,P|226:81|269:39,1,97.7500018644333,2|0,1:3|0:0,0:0:0:0:
390,193,152611,2,0,P|383:257|340:299,1,97.7500018644333,10|0,0:2|0:0,0:0:0:0:
245,55,153073,6,0,L|448:36,1,195.500003728867,2|8,0:2|0:0,0:0:0:0:
390,193,153765,1,2,0:2:0:0:
390,193,153881,1,0,0:0:0:0:
390,193,153996,2,0,L|286:177,1,97.7500018644333,2|0,0:3|0:0,0:0:0:0:
80,106,154457,2,0,L|184:90,1,97.7500018644333,10|0,0:2|0:0,0:0:0:0:
84,213,154919,5,2,0:2:0:0:
20,50,155150,1,2,0:3:0:0:
233,25,155381,2,0,P|266:79|217:172,1,146.62500279665,10|0,0:2|0:0,0:0:0:0:
207,184,155842,2,0,B|167:168|167:168|104:174,1,97.7500018644333,2|0,0:2|0:0,0:0:0:0:
290,230,156304,1,10,0:2:0:0:
173,96,156534,1,0,0:2:0:0:
163,296,156765,6,0,B|209:274|253:283|241:308|300:324|355:281,1,195.500003728867,6|8,0:2|0:0,0:0:0:0:
213,366,157457,2,0,P|195:297|298:232,1,195.500003728867,2|2,1:2|2:3,0:0:0:0:
293,374,158150,1,8,0:0:0:0:
166,194,158381,1,0,0:0:0:0:
392,302,158611,6,0,P|420:245|363:131,1,195.500003728867,2|10,0:2|0:2,0:0:0:0:
257,40,159304,2,0,B|273:98|273:98|264:162|264:162|289:252,1,195.500003728867,2|0,0:2|0:0,0:0:0:0:
54,102,159996,2,0,P|96:40|152:33,1,97.7500018644333,10|0,0:2|0:0,0:0:0:0:
191,189,160457,6,0,B|170:306|228:257|198:395,1,195.500003728867,2|8,0:2|0:0,0:0:0:0:
283,229,161150,1,0,0:0:0:0:
107,334,161381,2,0,P|47:300|88:162,1,195.500003728867,0|8,0:0|0:0,0:0:0:0:
238,120,162073,1,0,0:0:0:0:
238,120,162304,6,0,L|323:100,2,65.1666679096222,8|4|4,0:3|0:3|0:3,0:0:0:0:
273,29,162765,2,0,P|333:26|385:93,1,146.62500279665,12|0,0:3|1:1,0:0:0:0:
387,132,163227,2,0,B|377:176|377:176|399:294,1,146.62500279665,4|0,0:3|0:0,0:0:0:0:
405,311,163688,2,0,P|452:349|480:243,1,195.500003728867,8|6,0:3|0:2,0:0:0:0:
310,253,170627,6,0,B|324:193|324:193|314:117,1,127.5,8|0,0:0|0:0,0:0:0:0:
301,83,171078,2,0,P|240:96|184:84,1,85,4|0,0:3|0:0,0:0:0:0:
389,24,171534,6,0,L|401:98,1,68,6|0,0:2|0:0,0:0:0:0:
409,217,171995,1,2,0:2:0:0:
409,217,172226,2,0,P|350:173|344:307,1,272,2|0,0:2|1:2,0:0:0:0:
351,302,173264,1,0,1:0:0:0:
365,280,173380,6,0,B|315:247|215:264|240:306|159:312|84:253,1,272,6|2,1:2|0:2,0:0:0:0:
38,177,174534,1,0,0:0:0:0:
126,92,174764,2,0,P|148:57|153:12,1,68,2|0,0:2|0:0,0:0:0:0:
357,32,175226,6,0,L|356:126,1,68,6|0,0:2|0:0,0:0:0:0:
436,268,175687,1,2,0:2:0:0:
415,150,175918,2,0,B|375:103|295:86|245:134|234:149|234:149|258:193|240:225,1,272,2|0,0:2|1:2,0:0:0:0:
243,237,176957,1,0,1:0:0:0:
235,259,177072,5,8,1:0:0:0:
127,165,177303,1,0,1:0:0:0:
331,191,177534,1,8,1:0:0:0:
118,260,177764,1,0,1:0:0:0:
243,43,177995,1,8,1:0:0:0:
235,259,178226,1,8,1:0:0:0:
109,58,178457,1,8,1:0:0:0:
356,92,178687,1,8,1:0:0:0:
118,260,178918,6,2,P|103:210|198:140,1,170,2|0,0:0|0:0,0:0:0:0:
300,165,179610,1,0,0:0:0:0:
300,165,179841,2,0,L|303:276,1,85,8|0,0:0|0:0,0:0:0:0:
428,153,180303,2,2,L|417:52,1,85,2|0,0:0|0:2,0:0:0:0:
401,31,180649,1,2,0:2:0:0:
401,31,180764,6,2,B|352:17|352:17|324:45|324:45|266:4|196:29|170:71,1,255,2|0,0:0|0:0,0:0:0:0:
154,178,181687,2,0,L|267:156,1,85,8|0,0:0|0:0,0:0:0:0:
42,43,182149,2,2,L|57:146,1,85,2|0,0:0|0:0,0:0:0:0:
39,154,182495,1,2,0:2:0:0:
25,179,182610,6,2,B|11:240|11:240|65:252|65:252|25:326|69:400,1,255,2|0,0:0|0:0,0:0:0:0:
212,268,183534,2,0,P|204:199|101:158,1,170,8|0,0:0|0:0,0:0:0:0:
151,311,184226,1,0,0:0:0:0:
287,224,184457,6,0,P|329:207|386:227,1,85,8|4,0:0|0:3,0:0:0:0:
399,233,184803,1,0,0:0:0:0:
399,233,184918,2,0,B|389:276|389:276|396:343,1,85
469,152,185380,1,10,0:2:0:0:
469,152,185495,1,4,0:3:0:0:
469,152,185610,1,4,0:3:0:0:
289,225,185841,2,2,P|237:234|191:216,1,85,2|0,0:0|0:2,0:0:0:0:
287,82,186303,6,2,P|235:73|189:91,1,85,6|0,0:2|0:2,0:0:0:0:
52,196,186764,2,0,P|57:151|51:100,1,85,2|0,0:2|0:0,0:0:0:0:
45,76,187110,1,0,0:2:0:0:
31,43,187226,2,0,B|70:28|70:28|102:48|102:48|159:30|222:92|188:157,1,255,8|0,0:0|0:0,0:0:0:0:
46,265,188149,5,8,0:1:0:0:
125,119,188380,1,4,0:3:0:0:
281,204,188610,2,0,L|272:317,1,85,0|2,0:0|0:2,0:0:0:0:
265,89,189072,2,0,L|367:81,1,85,10|0,0:0|0:0,0:0:0:0:
469,181,189534,2,0,P|419:191|363:158,1,85,2|0,0:0|0:0,0:0:0:0:
430,107,189880,1,0,0:0:0:0:
430,107,189995,6,2,B|412:144|426:191|440:181|450:242|420:290,1,170,0|0,0:0|0:0,0:0:0:0:
307,352,190687,1,0,0:0:0:0:
228,232,190918,2,0,P|189:205|133:205,1,85,10|0,0:0|0:0,0:0:0:0:
205,335,191380,1,2,0:0:0:0:
333,251,191610,1,0,0:2:0:0:
121,281,191841,6,2,P|76:240|97:135,1,170,2|0,0:0|0:0,0:0:0:0:
178,48,192457,2,0,P|207:49|253:39,1,56.6666666666667,2|0,0:2|0:0,0:0:0:0:
352,69,192764,1,8,0:0:0:0:
352,69,192880,2,0,L|359:184,1,85,8|4,0:3|0:3,0:0:0:0:
425,193,193226,2,0,P|440:138|479:93,1,85,12|2,0:1|0:0,0:0:0:0:
468,260,193687,6,2,B|438:287|375:278|397:260|351:248|303:276,1,170,2|8,0:0|0:0,0:0:0:0:
238,361,194380,2,2,P|261:311|158:249,1,170,2|0,0:0|0:0,0:0:0:0:
69,268,195072,2,2,L|76:372,1,85,10|0,0:0|0:0,0:0:0:0:
128,181,195534,6,0,P|84:156|41:157,1,85,2|0,0:0|0:0,0:0:0:0:
152,58,195995,2,0,P|219:68|248:36,1,85,10|0,0:0|0:2,0:0:0:0:
299,21,196341,2,0,L|303:133,1,85,2|0,0:0|0:0,0:0:0:0:
347,129,196687,2,0,L|342:223,1,85,2|8,0:0|0:0,0:0:0:0:
383,256,197034,2,0,L|373:343,1,85,2|2,0:0|0:2,0:0:0:0:
459,357,197380,6,2,B|419:229|515:256|453:94,1,255,2|0,0:0|0:0,0:0:0:0:
333,66,198303,2,0,L|342:162,1,85,2|0,0:0|0:0,0:0:0:0:
214,29,198764,2,0,L|191:130,1,85,10|0,0:0|0:0,0:0:0:0:
224,242,199226,6,0,P|186:170|81:189,1,170,2|8,0:0|0:0,0:0:0:0:
158,322,199918,1,0,0:0:0:0:
158,322,200149,2,0,L|256:310,1,85,0|0,0:0|0:0,0:0:0:0:
323,141,200610,2,0,P|323:185|335:236,1,85,8|0,0:0|0:0,0:0:0:0:
438,336,201072,6,2,B|488:195|388:232|452:65,1,255,2|0,0:0|0:0,0:0:0:0:
312,24,201995,2,0,P|265:47|212:50,1,85,2|0,0:0|0:0,0:0:0:0:
136,152,202457,2,2,P|187:162|217:196,1,85,10|0,0:0|0:0,0:0:0:0:
144,237,202803,1,2,0:2:0:0:
144,237,202918,6,0,P|175:162|70:45,1,255,2|2,0:0|0:0,0:0:0:0:
37,227,203841,2,0,L|49:282,2,56.6666666666667,2|2|2,0:0|0:0|0:0,0:0:0:0:
144,237,204303,2,0,P|154:298|148:348,1,85,10|0,0:0|0:0,0:0:0:0:
232,364,204649,1,0,0:0:0:0:
232,364,204764,6,2,B|218:203|304:285|282:111,1,255,2|0,0:0|0:0,0:0:0:0:
178,40,205687,2,0,P|168:86|178:143,1,85,2|0,0:0|0:0,0:0:0:0:
383,81,206149,2,0,P|368:41|342:9,1,85,14|0,0:0|0:0,0:0:0:0:
286,199,206610,5,8,0:0:0:0:
428,141,206841,2,0,P|474:141|515:173,1,85,8|4,0:0|0:3,0:0:0:0:
505,209,207187,2,0,L|486:307,1,85,8|4,0:0|0:3,0:0:0:0:
479,344,207534,1,8,0:0:0:0:
372,231,207764,1,8,0:0:0:0:
293,363,207995,1,4,0:3:0:0:
252,372,208110,1,4,0:3:0:0:
210,364,208225,1,4,0:3:0:0:
177,338,208341,1,4,0:3:0:0:
158,301,208457,6,0,P|167:234|171:136,1,136,6|0,0:2|0:0,0:0:0:0:
64,17,209149,1,0,0:0:0:0:
40,98,209380,2,0,P|40:140|48:182,1,68,8|0,0:0|0:0,0:0:0:0:
135,34,209841,2,0,P|171:36|234:27,1,68,2|0,0:2|0:0,0:0:0:0:
394,20,210303,6,0,P|336:44|351:127,1,136,2|0,0:2|0:0,0:0:0:0:
371,281,210995,1,0,0:0:0:0:
432,224,211226,2,0,L|505:218,1,68,8|0,0:0|0:0,0:0:0:0:
304,190,211687,2,0,L|214:178,1,68,2|0,0:2|0:0,0:0:0:0:
81,96,212149,6,0,B|146:75|144:116|223:93,1,136,2|0,0:2|0:0,0:0:0:0:
403,29,212841,1,2,0:2:0:0:
319,6,213072,2,0,P|268:5|229:24,1,68,8|0,0:2|0:0,0:0:0:0:
377,173,213534,2,0,P|379:128|372:93,1,68,2|0,0:2|0:0,0:0:0:0:
214,95,213995,6,0,B|250:195|168:184|209:303,1,204,2|0,0:2|0:0,0:0:0:0:
358,254,214918,2,0,P|406:244|448:255,1,68,8|0,0:0|0:0,0:0:0:0:
304,327,215380,2,0,P|295:284|281:262,1,68,6|0,0:2|0:0,0:0:0:0:
426,110,215841,6,0,P|420:171|429:274,1,136,6|0,0:2|0:0,0:0:0:0:
348,64,216534,1,0,0:0:0:0:
348,64,216764,2,0,P|306:49|266:49,1,68,8|0,0:0|0:0,0:0:0:0:
290,190,217226,2,0,P|333:170|373:164,1,68,2|0,0:2|0:0,0:0:0:0:
197,90,217687,6,0,L|211:244,1,136,2|0,0:2|0:0,0:0:0:0:
86,340,218380,1,2,0:2:0:0:
86,340,218610,2,0,L|93:251,1,68,8|0,0:0|0:0,0:0:0:0:
35,98,219072,2,0,L|40:181,1,68,2|0,0:2|0:0,0:0:0:0:
177,243,219534,6,0,P|167:182|289:142,1,204,6|0,0:2|0:0,0:0:0:0:
206,312,220457,1,8,0:0:0:0:
242,201,220687,1,0,0:0:0:0:
352,306,220918,2,0,L|270:310,1,68,2|0,0:2|0:0,0:0:0:0:
412,87,221380,5,8,0:0:0:0:
393,226,221610,1,8,0:0:0:0:
202,57,221841,1,12,0:3:0:0:
346,31,222071,1,12,0:3:0:0:
234,157,222303,1,8,0:3:0:0:
106,127,222534,1,8,0:3:0:0:
258,248,222764,1,4,0:3:0:0:
359,225,222995,1,4,0:3:0:0:
170,218,223226,6,0,B|153:286|192:282|171:371,2,136,6|0|8,0:2|0:0|0:2,0:0:0:0:
123,56,224380,1,2,0:2:0:0:
41,108,224610,2,0,P|40:159|55:196,1,68,2|0,0:2|0:2,0:0:0:0:
260,131,225072,6,0,L|122:140,2,136,2|0|8,0:2|0:0|0:0,0:0:0:0:
370,8,226226,1,0,0:0:0:0:
290,47,226457,2,0,P|249:57|208:56,1,68,2|0,0:2|0:0,0:0:0:0:
10,36,226918,6,0,P|41:20|160:44,1,136,6|0,0:2|0:0,0:0:0:0:
72,183,227610,1,2,0:2:0:0:
55,261,227841,2,0,P|49:320|49:357,1,68,8|0,0:0|0:0,0:0:0:0:
243,298,228303,2,0,P|241:250|237:225,1,68,2|0,0:2|0:0,0:0:0:0:
192,71,228764,5,10,0:2:0:0:
152,210,228995,1,8,0:0:0:0:
298,170,229226,1,0,0:0:0:0:
298,170,229457,1,2,0:2:0:0:
122,101,229687,1,8,0:3:0:0:
263,37,229918,1,8,0:3:0:0:
152,210,230149,1,4,0:3:0:0:
33,163,230380,1,4,0:3:0:0:
222,164,230610,6,0,B|260:261|171:250|227:391,2,204,6|2|0,0:2|0:0|0:0,0:0:0:0:
56,43,232457,2,0,L|72:253,2,204,6|2|0,0:0|0:0|0:0,0:0:0:0:
244,2,234303,6,0,L|238:167,1,136,6|0,0:2|0:2,0:0:0:0:
279,289,234995,1,0,0:0:0:0:
429,205,235226,2,0,B|379:181|349:232|277:190,1,136,10|2,0:2|0:2,0:0:0:0:
345,97,235918,1,0,0:0:0:0:
397,277,236149,5,10,0:2:0:0:
218,221,236380,2,0,P|218:175|216:136,1,68,4|0,0:3|0:2,0:0:0:0:
141,293,236841,1,8,0:3:0:0:
114,56,237072,2,0,P|118:115|112:179,1,102,8|0,0:2|0:0,0:0:0:0:
85,183,237534,2,0,L|34:182,1,34,8|8,0:0|0:0,0:0:0:0:
290,41,237995,6,0,P|343:33|379:38,1,68,6|0,0:2|0:0,0:0:0:0:
439,208,238457,2,0,P|400:211|353:201,1,76.4999976654053,10|0,0:2|0:0,0:0:0:0:
451,44,238918,2,0,L|459:142,1,85,2|0,0:2|0:0,0:0:0:0:
203,104,239380,1,10,0:2:0:0:
322,119,239610,1,0,0:0:0:0:
190,188,239841,1,10,0:2:0:0:
229,29,240072,1,0,0:0:0:0:
341,226,240303,1,10,0:2:0:0:
329,10,240534,1,0,0:0:0:0:
251,284,240764,1,10,0:0:0:0:
251,284,241687,6,0,P|293:276|362:311,1,101.999996887207,2|0,0:0|0:0,0:0:0:0:
441,333,242380,2,0,L|442:227,1,101.999996887207,2|0,0:0|0:0,0:0:0:0:
360,167,243072,2,0,L|350:219,1,50.9999984436036,0|0,0:0|0:0,0:0:0:0:
272,148,243534,6,0,P|274:112|250:35,1,101.999996887207,2|0,0:0|0:0,0:0:0:0:
160,30,244226,2,0,B|148:80|179:78|159:145,1,101.999996887207,2|0,0:0|0:0,0:0:0:0:
109,217,244918,1,0,0:0:0:0:
109,217,245380,6,0,P|52:209|7:242,1,101.999996887207,2|0,0:0|0:0,0:0:0:0:
78,307,246072,2,0,L|179:299,1,101.999996887207,2|0,0:0|0:0,0:0:0:0:
261,260,246764,2,0,P|264:232|260:202,1,50.9999984436036,0|0,0:0|0:0,0:0:0:0:
298,334,247226,5,2,0:0:0:0:
394,318,247457,1,0,0:0:0:0:
394,216,247687,2,0,L|394:330,1,101.999996887207,2|0,0:0|0:0,0:0:0:0:
497,134,248610,1,0,0:0:0:0:
497,134,248841,1,0,0:0:0:0:
497,134,249072,6,0,P|478:88|419:65,1,101.999996887207,2|0,0:0|0:0,0:0:0:0:
331,64,249764,2,0,P|290:82|220:82,1,101.999996887207,2|0,0:0|0:0,0:0:0:0:
114,61,250457,2,0,P|113:32|129:-2,1,50.9999984436036,0|0,0:0|0:0,0:0:0:0:
28,71,250918,6,0,L|34:181,1,101.999996887207,2|0,0:0|0:0,0:0:0:0:
90,272,251610,2,0,P|125:241|188:235,1,101.999996887207,2|0,0:0|0:0,0:0:0:0:
272,284,252303,2,0,L|277:351,1,50.9999984436036,2|0,0:0|0:0,0:0:0:0:
262,200,252764,6,0,B|318:188|313:214|383:194,1,101.999996887207,2|0,0:0|0:0,0:0:0:0:
437,121,253457,2,0,P|435:68|427:9,1,101.999996887207,0|2,0:0|0:0,0:0:0:0:
331,77,254149,2,0,L|334:143,1,50.9999984436036,2|0,0:0|0:0,0:0:0:0:
244,50,254610,6,0,P|205:43|175:45,1,50.9999984436036,2|0,0:0|0:0,0:0:0:0:
109,60,255072,2,0,L|112:123,2,50.9999984436036,2|0|0,0:0|0:0|0:0,0:0:0:0:
486,82,255995,5,0,0:0:0:0:
378,180,256226,1,2,0:0:0:0:
259,40,256457,6,0,P|217:8|106:68,1,187.000005706787,4|0,0:2|0:0,0:0:0:0:
124,211,257149,1,2,2:3:0:0:
311,155,257380,1,10,0:2:0:0:
162,322,257610,1,2,2:3:0:0:
207,147,257841,1,0,0:3:0:0:
315,287,258072,1,0,0:3:0:0:
102,185,258303,6,0,P|55:171|11:180,1,93.5000028533936,2|2,0:2|0:3,0:0:0:0:
217,256,258764,2,0,P|232:199|219:143,1,93.5000028533936,2|2,0:3|0:2,0:0:0:0:
36,30,259226,2,0,B|71:68|71:68|120:83,1,93.5000028533936,10|0,0:2|0:0,0:0:0:0:
381,74,259687,2,0,B|346:36|346:36|297:21,1,93.5000028533936,2|0,0:2|0:0,0:0:0:0:
257,31,260034,1,0,0:0:0:0:
257,31,260149,6,0,B|288:136|212:101|250:227,1,187.000005706787,2|0,0:2|0:0,0:0:0:0:
428,261,260841,1,2,0:2:0:0:
428,261,261072,2,0,P|420:212|386:168,1,93.5000028533936,8|0,0:0|0:0,0:0:0:0:
155,198,261534,2,0,P|206:214|248:211,1,93.5000028533936,2|0,0:2|0:0,0:0:0:0:
114,40,261995,5,2,0:2:0:0:
60,207,262226,1,2,0:3:0:0:
266,95,262457,1,2,0:3:0:0:
85,114,262687,1,2,0:3:0:0:
299,10,262918,2,0,B|337:35|337:35|368:104,1,93.5000028533936,10|0,0:2|0:0,0:0:0:0:
199,238,263380,1,2,0:2:0:0:
266,95,263610,1,0,0:2:0:0:
303,287,263841,6,0,P|271:335|118:322,1,187.000005706787,6|0,0:2|0:0,0:0:0:0:
271,191,264534,1,2,2:3:0:0:
394,340,264764,1,10,0:2:0:0:
455,121,264995,1,2,2:3:0:0:
349,241,265226,1,0,0:0:0:0:
320,87,265457,1,0,0:0:0:0:
461,308,265687,6,0,L|455:108,1,187.000005706787,2|2,0:2|0:3,0:0:0:0:
316,10,266380,1,2,0:2:0:0:
316,10,266610,2,0,P|313:68|326:109,1,93.5000028533936,10|0,0:2|0:0,0:0:0:0:
238,257,267072,2,0,P|230:211|194:168,1,93.5000028533936,2|0,0:2|0:0,0:0:0:0:
153,155,267418,1,0,0:0:0:0:
153,155,267534,6,0,B|159:226|159:226|126:267|126:267|133:341,1,187.000005706787,2|0,0:2|0:0,0:0:0:0:
63,172,268226,1,2,0:3:0:0:
238,257,268457,2,0,P|295:261|337:137,1,187.000005706787,10|2,0:2|0:2,0:0:0:0:
358,315,269149,1,2,0:3:0:0:
252,164,269380,5,8,0:0:0:0:
440,166,269610,1,4,0:3:0:0:
305,0,269841,1,8,0:0:0:0:
305,0,269957,2,0,L|312:100,1,93.5000028533936,4|4,0:3|0:3,0:0:0:0:
359,111,270303,2,0,P|412:95|462:101,1,93.5000028533936,8|0,0:0|0:0,0:0:0:0:
342,255,270764,1,2,0:2:0:0:
219,112,270995,1,2,0:2:0:0:
219,112,271110,1,2,0:2:0:0:
219,112,271226,6,0,B|252:216|168:188|212:320,1,195.500003728867,4|8,0:2|0:0,0:0:0:0:
133,142,271918,1,2,2:3:0:0:
133,142,272034,1,0,0:0:0:0:
133,142,272149,1,2,0:2:0:0:
306,191,272380,1,2,2:3:0:0:
338,0,272610,1,8,0:2:0:0:
157,63,272841,1,0,0:3:0:0:
370,93,273072,6,0,P|408:127|421:179,1,97.7500018644333,2|2,0:2|0:3,0:0:0:0:
289,298,273534,2,0,P|290:234|316:196,1,97.7500018644333,8|2,0:2|0:2,0:0:0:0:
151,116,273995,2,0,P|192:162|206:203,1,97.7500018644333,2|0,1:3|0:0,0:0:0:0:
17,269,274457,2,0,P|5:221|10:173,1,97.7500018644333,10|0,0:2|0:0,0:0:0:0:
38,25,274918,6,0,B|103:90|30:137|123:210,1,195.500003728867,2|8,0:2|0:0,0:0:0:0:
243,66,275610,1,2,0:2:0:0:
243,66,275726,1,0,0:0:0:0:
243,66,275841,2,0,P|204:29|151:23,1,97.7500018644333,2|0,0:3|0:0,0:0:0:0:
278,200,276303,2,0,L|404:189,1,97.7500018644333,10|0,0:2|0:0,0:0:0:0:
149,141,276764,5,2,0:2:0:0:
271,273,276995,1,2,0:3:0:0:
398,88,277226,2,0,B|342:92|342:92|315:82|315:82|223:94,1,146.62500279665,10|0,0:2|0:0,0:0:0:0:
214,108,277687,2,0,P|218:169|213:220,1,97.7500018644333,2|0,0:2|0:0,0:0:0:0:
69,50,278149,1,10,0:2:0:0:
274,1,278380,1,0,0:2:0:0:
274,1,278495,1,0,0:0:0:0:
274,1,278610,6,0,B|305:47|304:101|272:82|281:158|335:207,1,195.500003728867,6|8,0:2|0:0,0:0:0:0:
502,223,279303,2,0,P|491:161|351:127,1,195.500003728867,2|2,1:2|2:3,0:0:0:0:
467,292,279995,1,8,0:0:0:0:
303,284,280226,1,0,0:0:0:0:
378,114,280457,6,0,B|400:204|400:204|369:323,1,195.500003728867,2|10,0:2|0:2,0:0:0:0:
188,118,281149,2,0,B|303:82|263:160|396:108,1,195.500003728867,2|0,0:2|0:0,0:0:0:0:
180,22,281841,2,0,P|191:68|186:124,1,97.7500018644333,10|0,0:2|0:0,0:0:0:0:
30,264,282303,6,0,P|26:199|151:186,1,195.500003728867,2|8,0:2|0:0,0:0:0:0:
109,319,282995,1,0,0:0:0:0:
279,142,283226,2,0,P|259:57|142:35,1,195.500003728867,0|8,0:0|0:0,0:0:0:0:
209,228,283918,1,0,0:0:0:0:
330,17,284149,5,8,0:0:0:0:
421,146,284380,1,4,0:3:0:0:
212,37,284610,1,8,0:0:0:0:
212,37,284726,2,0,P|146:27|97:40,1,97.7500018644333,4|4,0:3|0:3,0:0:0:0:
79,71,285072,2,0,L|84:187,1,97.7500018644333,8|8,0:0|0:3,0:0:0:0:
296,301,285534,2,0,L|302:185,1,97.7500018644333,4|0,0:3|0:0,0:0:0:0:
339,166,285880,1,0,0:0:0:0:
339,166,285995,1,6,0:2:0:0:
256,192,286110,12,2,289687,2:0:0:0:
