osu file format v14

[General]
AudioFilename: 01-01- Resuscitated Hope.mp3
AudioLeadIn: 0
PreviewTime: 134035
Countdown: 0
SampleSet: Normal
StackLeniency: 0.7
Mode: 0
LetterboxInBreaks: 0
WidescreenStoryboard: 0

[Editor]
Bookmarks: 1677,9061,16446,23830,38600,45996,53381,82919,90304,105073,119842,127227,134612,137842,164150,171535,178919,193689,208458,223227,237996,241689,256458,285996,289689,293381
DistanceSpacing: 1.9
BeatDivisor: 4
GridSize: 4
TimelineZoom: 0.5999996

[Metadata]
Title:Resuscitated Hope
TitleUnicode:Resuscitated Hope
Artist:Komine Lisa
ArtistUnicode:コミネリサ
Creator:Okorin
Version:Advanced
Source:GOSICK
Tags:ゴシック Ending Full Version Size Smokeman Okoratu
BeatmapID:867559
BeatmapSetID:347023

[Difficulty]
HPDrainRate:5
CircleSize:3.8
OverallDifficulty:5
ApproachRate:6.7
SliderMultiplier:1.5
SliderTickRate:1

[Events]
//Background and Video events
0,0,"goshikku.jpg",0,0
//Break Periods
2,164349,169682
//Storyboard Layer 0 (Background)
//Storyboard Layer 1 (Fail)
//Storyboard Layer 2 (Pass)
//Storyboard Layer 3 (Foreground)
//Storyboard Sound Samples

[TimingPoints]
1689,461.538461538462,4,1,1,50,1,0
9073,-125,4,2,1,50,0,0
16458,-111.111111111111,4,1,1,50,0,0
23842,-100,4,2,1,40,0,0
38612,-133.333333333333,4,2,1,40,0,0
45996,-114.942528735632,4,1,1,40,0,0
49689,-100,4,1,1,45,0,0
51535,-100,4,1,1,50,0,0
51765,-100,4,1,1,55,0,0
51996,-100,4,1,1,60,0,0
52227,-100,4,1,1,65,0,0
52458,-100,4,1,1,70,0,0
52919,-100,4,2,1,45,0,0
53381,-100,4,1,1,45,0,1
67227,-100,4,1,1,40,0,0
67458,-100,4,1,1,40,0,0
68150,-100,4,1,1,45,0,1
82919,-100,4,1,1,50,0,0
83150,-100,4,1,1,40,0,0
90304,-133.333333333333,4,2,1,30,0,0
105073,-100,4,2,1,50,0,0
119842,-133.333333333333,4,2,1,40,0,0
127227,-114.942528735632,4,1,1,40,0,0
130919,-100,4,1,1,45,0,0
132765,-100,4,1,1,50,0,0
132996,-100,4,1,1,55,0,0
133227,-100,4,1,1,60,0,0
133458,-100,4,1,1,65,0,0
133689,-100,4,1,1,70,0,0
134150,-100,4,2,1,45,0,0
134612,-100,4,1,1,45,0,1
147535,480,4,1,1,45,1,1
148458,461.538461538462,4,1,1,45,1,0
149381,461.538461538462,4,1,1,50,1,1
164150,-100,4,1,1,45,0,0
170627,451.127819548872,4,1,1,45,1,0
171534,461.538461538462,4,1,1,50,1,0
171534,-125,4,1,1,50,0,0
178918,-100,4,1,1,50,0,0
195995,-100,4,1,1,40,0,0
207995,-100,4,1,1,30,0,0
208457,-125,4,1,1,40,0,0
215380,-125,4,1,1,30,0,0
215841,-125,4,1,1,40,0,0
230610,-125,4,2,1,30,0,0
234303,-125,4,1,1,40,0,0
237995,-125,4,1,1,40,0,0
238457,-111.111111111111,4,1,1,40,0,0
238918,-100,4,1,1,45,0,0
240764,-100,4,1,1,35,0,0
241687,-166.666666666667,4,2,1,30,0,0
255995,-100,4,2,1,50,0,0
256457,-100,4,1,1,45,0,1
270303,-100,4,1,1,45,0,0
271226,-100,4,1,1,45,0,1
285995,-100,4,1,1,35,0,0

[Colours]
Combo1 : 111,157,227
Combo2 : 218,231,124
Combo3 : 194,135,110
Combo4 : 255,215,135

[HitObjects]
182,113,1689,6,0,L|184:197,1,75,4|4,0:2|0:2,0:0:0:0:
320,327,3535,6,0,L|318:225,1,75,4|4,0:2|0:2,0:0:0:0:
182,113,5381,6,0,L|183:187,1,75,4|4,0:2|0:2,0:0:0:0:
320,302,7227,6,0,L|318:200,1,75,4|4,0:2|0:2,0:0:0:0:
182,101,9073,6,0,P|137:87|77:195,1,180,2|2,0:0|0:0,0:0:0:0:
131,233,9996,2,0,P|165:213|192:206,1,60,0|0,0:0|0:0,0:0:0:0:
259,245,10458,2,0,P|260:300|254:326,1,60,0|0,0:0|0:0,0:0:0:0:
189,340,10919,6,0,P|152:325|60:326,1,120,2|0,0:0|0:0,0:0:0:0:
0,345,11612,2,0,B|-13:285|26:290|10:207,1,120,2|0,0:0|0:0,0:0:0:0:
9,149,12304,1,2,0:0:0:0:
17,157,12765,6,0,B|136:104|126:193|270:143,1,240,2|2,3:2|3:2,0:0:0:0:
321,108,13919,1,0,0:0:0:0:
321,108,14150,2,0,L|329:187,1,60,2|0,0:0|0:0,0:0:0:0:
389,215,14612,6,0,B|480:200|498:115|464:58|439:30|439:30|372:59|302:22,1,360,0|2,0:0|0:0,0:0:0:0:
151,99,16458,5,4,0:2:0:0:
159,186,16689,2,0,L|165:261,2,67.4999979400635,0|0|0,0:0|2:0|0:0,0:0:0:0:
72,121,17381,2,0,P|16:163|33:239,1,134.999995880127,8|0,0:2|0:0,0:0:0:0:
79,287,18073,1,0,0:0:0:0:
159,250,18304,6,0,P|192:240|237:242,1,67.4999979400635,0|0,2:0|0:0,0:0:0:0:
322,288,18765,1,8,0:0:0:0:
325,272,19227,2,0,P|337:219|353:187,1,67.4999979400635,8|4,0:2|0:3,0:0:0:0:
431,156,19689,2,0,L|440:239,1,67.4999979400635,8|4,0:0|0:3,0:0:0:0:
348,125,20150,5,4,0:2:0:0:
300,51,20381,2,0,P|261:21|233:19,2,67.4999979400635,0|0|0,0:0|2:0|0:0,0:0:0:0:
220,124,21073,2,0,L|70:114,1,134.999995880127,8|0,0:0|0:0,0:0:0:0:
33,185,21765,1,0,0:0:0:0:
79,259,21996,6,0,P|95:301|95:344,1,67.4999979400635,0|0,0:0|0:0,0:0:0:0:
181,243,22458,1,8,0:0:0:0:
189,235,22919,2,0,P|246:223|270:229,1,67.4999979400635,8|4,0:0|0:3,0:0:0:0:
301,332,23381,2,0,P|263:329|227:302,1,67.4999979400635,8|4,0:0|0:3,0:0:0:0:
353,248,23842,6,0,P|409:248|508:204,1,150,6|8,0:0|0:0,0:0:0:0:
488,118,24535,1,2,0:0:0:0:
488,118,24765,2,0,L|394:126,1,75,0|0,3:0|0:0,0:0:0:0:
317,103,25227,2,0,P|320:62|336:7,1,75,10|0,0:0|0:0,0:0:0:0:
229,29,25689,5,0,3:3:0:0:
229,29,25919,2,0,P|240:97|242:203,1,150,2|0,0:0|0:0,0:0:0:0:
184,256,26612,1,0,3:0:0:0:
108,195,26842,1,0,0:0:0:0:
33,258,27073,2,0,P|27:295|32:336,1,75,8|4,0:0|0:3,0:0:0:0:
110,269,27535,6,0,L|106:104,1,150,2|8,3:2|0:0,0:0:0:0:
175,49,28227,1,2,0:0:0:0:
175,49,28458,2,0,L|181:149,1,75,0|0,3:0|0:0,0:0:0:0:
248,184,28919,2,0,P|270:133|300:87,1,75,10|0,0:0|0:0,0:0:0:0:
367,72,29381,5,0,3:0:0:0:
367,72,29612,2,0,P|376:146|363:249,1,150,0|0,0:0|0:0,0:0:0:0:
309,298,30304,2,0,P|261:292|213:292,1,75,2|0,3:2|0:0,0:0:0:0:
140,300,30765,2,0,L|140:374,1,75,8|4,0:0|0:3,0:0:0:0:
39,319,31227,6,0,B|20:248|71:248|43:149,1,150,2|8,3:2|0:0,0:0:0:0:
93,85,31919,1,2,0:0:0:0:
93,85,32150,2,0,P|146:99|191:96,1,75,0|0,3:0|0:0,0:0:0:0:
248,46,32612,2,0,P|294:42|347:58,1,75,10|0,0:0|0:0,0:0:0:0:
419,100,33073,6,0,P|397:138|395:246,1,150,0|8,3:0|0:0,0:0:0:0:
346,327,33765,1,0,0:0:0:0:
292,245,33996,2,0,P|276:193|247:163,1,75,0|0,3:0|0:0,0:0:0:0:
170,209,34458,2,0,P|168:246|180:281,1,75,8|4,0:0|0:3,0:0:0:0:
196,131,34919,6,0,P|122:126|58:197,1,150,2|8,0:0|0:0,0:0:0:0:
102,264,35612,2,0,B|182:241|178:270|262:253,1,150,2|0,0:0|0:0,0:0:0:0:
334,205,36304,2,0,P|338:262|347:301,1,75,10|0,0:0|0:0,0:0:0:0:
419,221,36765,6,0,P|414:172|325:121,1,150,2|8,0:0|0:0,0:0:0:0:
239,97,37458,1,0,0:0:0:0:
239,97,37689,2,0,L|242:187,1,75,2|0,0:0|0:0,0:0:0:0:
155,217,38150,1,8,0:0:0:0:
106,141,38381,1,8,0:0:0:0:
106,141,38612,6,0,P|71:130|-2:160,1,112.500004291535,2|0,0:0|0:0,0:0:0:0:
5,239,39304,2,0,P|16:285|18:349,1,112.500004291535,2|0,0:0|0:0,0:0:0:0:
98,375,39996,1,2,3:2:0:0:
198,238,40458,6,0,P|244:215|319:222,1,112.500004291535,2|0,0:0|0:0,0:0:0:0:
374,263,41150,2,0,P|372:211|387:126,1,112.500004291535,2|0,0:0|0:0,0:0:0:0:
428,86,41842,1,2,0:0:0:0:
428,86,42073,1,2,0:0:0:0:
428,86,42304,6,0,B|352:44|341:111|251:64,2,168.750006437302,2|2|2,3:2|0:0|0:0,0:0:0:0:
277,163,44150,6,0,P|230:181|120:148,1,168.750006437302,2|2,0:0|0:0,0:0:0:0:
166,77,45073,2,0,P|193:109|158:230,1,168.750006437302,2|2,0:0|0:0,0:0:0:0:
107,282,45996,6,0,P|57:284|6:363,1,130.5000010952,0|0,0:0|0:0,0:0:0:0:
90,361,46689,1,2,3:2:0:0:
90,361,46919,2,0,P|149:359|185:276,1,130.5000010952,8|2,0:0|0:2,0:0:0:0:
213,223,47612,1,0,3:0:0:0:
213,223,47842,6,0,P|263:229|363:209,1,130.5000010952,0|2,0:0|0:2,0:0:0:0:
399,154,48535,1,0,3:0:0:0:
399,154,48765,2,0,L|386:65,1,65.2500005475998,10|0,0:2|3:0,0:0:0:0:
311,17,49227,2,0,L|308:101,1,65.2500005475998,2|0,0:2|3:0,0:0:0:0:
224,147,49689,6,0,P|226:91|35:82,1,300,2|8,0:2|0:0,0:0:0:0:
67,164,50842,1,0,0:2:0:0:
67,164,51073,2,0,P|81:216|81:265,1,75,0|0,0:0|0:0,0:0:0:0:
130,322,51535,6,0,P|157:279|189:256,1,75,0|0,0:0|0:0,0:0:0:0:
272,250,51996,1,0,0:0:0:0:
233,339,52227,1,0,0:0:0:0:
352,266,52458,1,8,0:0:0:0:
352,266,52919,6,0,L|361:158,1,75,0|2,0:0|0:0,0:0:0:0:
336,95,53381,6,0,P|294:111|181:74,1,150,4|0,0:2|0:0,0:0:0:0:
100,62,54073,1,2,2:3:0:0:
100,62,54304,2,0,P|103:118|99:172,1,75,10|2,0:2|2:3,0:0:0:0:
98,234,54765,1,0,0:3:0:0:
98,234,54996,1,0,0:3:0:0:
205,172,55227,6,0,P|246:165|298:171,2,75,2|2|2,0:2|0:3|0:3,0:0:0:0:
178,284,55919,1,2,0:2:0:0:
178,284,56150,2,0,P|244:278|288:356,1,150,10|2,0:2|0:2,0:0:0:0:
93,328,57073,6,0,B|70:255|119:256|90:158,1,150,2|0,0:2|0:0,0:0:0:0:
74,85,57765,1,2,0:2:0:0:
74,85,57996,2,0,P|128:94|160:87,1,75,8|0,0:0|0:0,0:0:0:0:
223,29,58458,2,0,P|281:23|325:37,1,75,2|0,0:2|0:0,0:0:0:0:
336,142,58919,6,0,P|284:132|251:96,1,75,2|2,0:2|0:3,0:0:0:0:
390,70,59381,2,0,L|384:237,1,150,2|10,0:3|0:2,0:0:0:0:
223,329,60304,2,0,P|223:274|198:232,1,75,2|0,0:2|0:2,0:0:0:0:
153,181,60765,6,0,P|92:189|37:110,1,150,6|0,0:2|0:0,0:0:0:0:
89,44,61458,1,2,2:3:0:0:
89,44,61689,2,0,P|142:54|185:49,1,75,10|2,0:2|2:3,0:0:0:0:
257,29,62150,1,0,0:0:0:0:
257,29,62381,1,0,0:0:0:0:
249,149,62612,6,0,L|245:237,2,75,2|2|2,0:2|0:3|0:3,0:0:0:0:
337,107,63304,1,2,0:2:0:0:
337,107,63535,2,0,P|388:97|455:170,1,150,10|2,0:2|0:2,0:0:0:0:
310,292,64458,6,0,L|128:287,1,150,2|0,0:2|0:0,0:0:0:0:
108,204,65150,1,2,0:3:0:0:
108,204,65381,2,0,P|139:172|143:64,1,150,10|2,0:2|0:2,0:0:0:0:
228,17,66073,1,2,0:3:0:0:
228,17,66304,6,0,P|280:33|320:33,1,75,2|0,0:2|0:0,0:0:0:0:
352,116,66765,2,0,P|341:159|342:202,1,75,2|2,1:3|1:3,0:0:0:0:
471,247,67227,2,0,P|445:195|404:179,1,75,10|2,0:2|0:2,0:0:0:0:
312,271,67689,2,0,P|376:269|408:242,1,75,2|2,1:2|1:2,0:0:0:0:
260,196,68150,6,0,P|281:251|274:372,1,150,4|8,0:2|0:0,0:0:0:0:
185,355,68842,1,2,2:3:0:0:
185,355,69073,2,0,P|141:332|99:329,1,75,2|2,0:2|2:3,0:0:0:0:
19,340,69535,1,8,0:2:0:0:
19,340,69765,1,0,0:3:0:0:
62,216,69996,6,0,P|133:223|229:216,1,150,2|8,0:2|0:2,0:0:0:0:
280,149,70689,1,2,0:2:0:0:
280,149,70919,2,0,P|270:98|173:43,1,150,2|10,1:3|0:2,0:0:0:0:
216,237,71842,6,0,B|284:216|297:263|381:235|381:236,1,150,2|8,0:2|0:0,0:0:0:0:
460,218,72535,1,2,0:2:0:0:
460,218,72765,2,0,P|450:170|450:136,1,75,2|0,0:3|0:0,0:0:0:0:
388,67,73227,2,0,P|372:125|347:162,1,75,10|0,0:2|0:0,0:0:0:0:
275,176,73689,6,0,P|264:131|228:98,1,75,2|2,0:2|0:3,0:0:0:0:
134,49,74150,2,0,B|164:113|164:113|153:201,1,150,10|2,0:2|0:2,0:0:0:0:
277,343,75073,2,0,P|268:293|240:264,1,75,10|0,0:2|0:2,0:0:0:0:
157,289,75535,6,0,P|118:312|1:307,1,150,6|8,0:2|0:0,0:0:0:0:
12,216,76227,2,0,P|51:193|168:198,1,150,2|2,1:2|2:3,0:0:0:0:
247,217,76919,2,0,P|264:176|315:156,1,75,8|0,0:0|0:0,0:0:0:0:
378,121,77381,6,0,B|414:241|324:217|381:355,2,225,2|2|10,0:2|0:2|0:2,0:0:0:0:
308,51,78996,1,0,0:0:0:0:
308,51,79227,6,0,P|255:63|215:57,1,75,2|0,0:2|0:0,0:0:0:0:
137,48,79689,2,0,P|145:122|146:215,1,150,8|0,0:0|0:0,0:0:0:0:
159,294,80381,1,0,0:0:0:0:
159,294,80612,2,0,P|211:266|239:272,1,75,8|0,0:0|0:0,0:0:0:0:
316,300,81073,5,2,0:2:0:0:
313,202,81304,2,0,L|309:57,2,112.5,8|8|8,0:0|0:0|0:0,0:0:0:0:
390,260,82227,1,0,0:0:0:0:
439,176,82458,2,0,L|457:133,2,37.5,4|4|4,0:3|0:3|0:3,0:0:0:0:
488,260,82919,5,6,0:2:0:0:
390,260,83150,2,0,P|329:255|235:276,1,150,2|6,0:2|0:2,0:0:0:0:
150,305,83842,2,0,P|158:230|147:148,1,150,10|6,0:2|0:2,0:0:0:0:
54,131,84535,2,0,P|45:205|53:279,1,150,2|6,0:2|0:2,0:0:0:0:
150,305,85227,2,0,P|208:300|311:311,1,150,10|0,0:2|3:2,0:0:0:0:
487,358,86150,1,0,0:0:0:0:
491,162,86612,5,6,0:2:0:0:
416,99,86842,2,0,P|372:74|256:93,1,150,2|6,0:2|0:2,0:0:0:0:
210,154,87535,2,0,B|220:246|220:246|194:324,1,150,10|6,0:2|0:2,0:0:0:0:
104,297,88227,2,0,B|85:242|85:242|95:150,1,150,2|6,0:2|0:2,0:0:0:0:
105,53,88919,2,0,L|185:66,1,75,2|0,0:2|0:0,0:0:0:0:
243,138,89381,2,0,L|243:185,2,37.5,10|4|4,0:2|0:3|0:3,0:0:0:0:
310,67,89842,2,0,L|318:21,2,37.5,10|8|8,0:2|0:3|0:3,0:0:0:0:
338,158,90304,6,0,P|335:287|336:341,2,168.750006437302,2|2|2,0:0|0:0|0:0,0:0:0:0:
457,73,92150,2,0,B|474:148|474:148|461:253,1,168.750006437302,2|0,0:0|0:0,0:0:0:0:
406,286,93073,2,0,L|379:224,1,56.2500021457673,2|0,0:0|0:0,0:0:0:0:
310,228,93535,2,0,L|293:291,1,56.2500021457673,2|0,0:0|0:0,0:0:0:0:
228,313,93996,6,0,P|211:250|227:130,2,168.750006437302,2|2|2,3:2|0:0|0:0,0:0:0:0:
82,295,95842,1,2,0:0:0:0:
82,295,96073,2,0,P|66:236|70:184,1,112.500004291535,0|0,0:0|0:0,0:0:0:0:
81,112,96765,2,0,P|113:108|149:111,1,56.2500021457673,2|0,0:0|0:0,0:0:0:0:
167,42,97227,2,0,P|213:58|241:63,1,56.2500021457673,2|0,0:0|0:0,0:0:0:0:
292,46,97689,6,0,B|398:25|398:25|468:76,2,168.750006437302,2|2|2,0:0|0:0|0:0,0:0:0:0:
208,181,99535,2,0,P|229:269|217:365,1,168.750006437302,2|0,0:0|0:0,0:0:0:0:
150,361,100458,2,0,P|116:352|82:354,1,56.2500021457673,2|0,0:0|0:0,0:0:0:0:
49,294,100919,2,0,P|82:278|110:257,1,56.2500021457673,2|0,0:0|0:0,0:0:0:0:
76,196,101381,6,0,P|72:147|98:79,1,112.500004291535,2|0,0:0|0:0,0:0:0:0:
152,45,102073,2,0,P|186:56|267:55,1,112.500004291535,2|0,0:0|0:0,0:0:0:0:
335,54,102765,2,0,L|343:118,1,56.2500021457673,0|0,0:0|0:0,0:0:0:0:
407,143,103227,2,0,P|431:203|394:308,1,168.750006437302,2|0,0:0|0:0,0:0:0:0:
333,273,104150,2,0,P|296:264|160:283,1,168.750006437302,2|0,0:0|0:0,0:0:0:0:
75,309,105073,6,4,P|80:261|75:134,1,150,6|8,0:0|0:0,0:0:0:0:
125,74,105765,1,2,0:0:0:0:
125,74,105996,2,0,P|166:92|214:96,1,75,0|0,3:0|0:0,0:0:0:0:
319,18,106458,2,0,P|270:23|242:46,1,75,10|0,0:0|0:0,0:0:0:0:
273,131,106919,5,0,3:3:0:0:
273,131,107150,2,0,B|278:189|278:189|268:227|268:227|275:307,1,150,2|0,0:0|0:0,0:0:0:0:
193,336,107842,1,2,3:2:0:0:
132,259,108073,1,0,0:0:0:0:
41,294,108304,2,0,P|28:320|14:371,1,75,10|4,0:0|0:3,0:0:0:0:
118,337,108765,6,0,P|127:299|123:160,1,150,2|8,3:2|0:0,0:0:0:0:
112,91,109458,1,2,0:0:0:0:
112,91,109689,2,0,P|174:94|203:86,1,75,0|0,3:0|0:0,0:0:0:0:
282,77,110150,2,0,P|267:121|265:175,1,75,10|0,0:0|0:0,0:0:0:0:
361,136,110612,5,0,3:0:0:0:
361,136,110842,2,0,P|388:66|476:39,1,150,0|0,0:0|0:0,0:0:0:0:
453,135,111535,2,0,L|449:226,1,75,2|0,3:2|0:0,0:0:0:0:
359,247,111996,2,0,P|307:238|277:246,1,75,10|4,0:0|0:3,0:0:0:0:
358,344,112458,6,0,P|435:354|505:327,1,150,2|8,3:2|0:0,0:0:0:0:
472,236,113150,1,2,0:0:0:0:
472,236,113381,2,0,P|459:188|464:152,1,75,0|0,3:0|0:0,0:0:0:0:
388,97,113842,2,0,P|374:132|345:160,1,75,10|0,0:0|0:0,0:0:0:0:
290,78,114304,6,0,P|228:44|139:79,1,150,0|8,3:0|0:0,0:0:0:0:
78,124,114996,1,0,0:0:0:0:
78,124,115227,2,0,P|126:146|142:168,1,75,2|0,3:2|0:0,0:0:0:0:
138,260,115689,2,0,P|112:286|76:298,1,75,10|4,0:0|0:3,0:0:0:0:
206,210,116150,6,0,B|281:189|273:238|365:217,1,150,2|8,0:0|0:0,0:0:0:0:
439,174,116842,2,0,P|410:116|321:127,1,150,2|0,0:0|0:0,0:0:0:0:
235,125,117535,2,0,P|223:68|226:21,1,75,10|0,0:0|0:0,0:0:0:0:
127,28,117996,6,0,B|146:96|146:96|122:188,1,150,2|8,0:0|0:0,0:0:0:0:
164,262,118689,1,0,0:0:0:0:
164,262,118919,2,0,P|203:244|251:244,1,75,2|0,0:0|0:0,0:0:0:0:
328,269,119381,1,8,0:0:0:0:
313,172,119612,1,8,0:0:0:0:
313,172,119842,6,0,P|311:120|343:61,1,112.500004291535,2|0,0:0|0:0,0:0:0:0:
272,12,120535,2,0,P|244:20|148:19,1,112.500004291535,2|0,0:0|0:0,0:0:0:0:
76,15,121227,1,2,3:2:0:0:
123,177,121689,2,0,P|139:237|124:295,1,112.500004291535,2|0,0:0|0:0,0:0:0:0:
47,237,122381,2,0,L|47:117,1,112.500004291535,2|0,0:0|0:0,0:0:0:0:
89,51,123073,1,2,0:0:0:0:
89,51,123304,1,2,0:0:0:0:
89,51,123535,6,0,P|130:56|218:36,1,112.500004291535,2|0,3:2|0:0,0:0:0:0:
288,60,124227,2,0,B|298:145|252:138|275:241,1,168.750006437302,2|2,0:0|0:0,0:0:0:0:
425,296,125381,2,0,P|447:245|396:136,1,168.750006437302,2|2,0:0|0:0,0:0:0:0:
347,203,126304,2,0,B|332:286|369:280|342:378,1,168.750006437302,2|2,0:0|0:0,0:0:0:0:
271,326,127227,6,0,P|219:314|144:349,1,130.5000010952,0|0,0:0|0:0,0:0:0:0:
67,364,127919,1,2,3:2:0:0:
67,364,128150,2,0,P|75:310|54:213,1,130.5000010952,8|2,0:0|0:2,0:0:0:0:
39,154,128842,1,0,3:0:0:0:
39,154,129073,6,0,P|108:147|187:141,1,130.5000010952,0|2,0:0|0:2,0:0:0:0:
251,160,129765,1,0,3:0:0:0:
251,160,129996,2,0,P|260:195|265:232,1,65.2500005475998,10|0,0:2|3:0,0:0:0:0:
345,303,130458,2,0,P|351:258|362:227,1,65.2500005475998,2|0,0:2|3:0,0:0:0:0:
407,119,130919,6,0,B|257:167|256:37|97:121,1,300,2|8,0:2|0:0,0:0:0:0:
66,194,132073,1,0,0:2:0:0:
66,194,132304,2,0,P|83:244|84:284,1,75,0|0,0:0|0:0,0:0:0:0:
146,341,132765,6,0,P|170:306|226:285,1,75,0|0,0:0|0:0,0:0:0:0:
288,252,133227,1,0,0:0:0:0:
267,347,133458,1,0,0:0:0:0:
381,275,133689,1,8,0:0:0:0:
381,275,134150,6,0,L|378:194,1,75,0|2,0:0|0:0,0:0:0:0:
399,104,134612,6,0,P|334:112|235:99,1,150,4|0,0:2|0:0,0:0:0:0:
169,49,135304,1,2,2:3:0:0:
169,49,135535,2,0,P|200:23|249:9,1,75,10|2,0:2|2:3,0:0:0:0:
181,132,135996,1,0,0:3:0:0:
181,132,136227,1,0,0:3:0:0:
73,103,136458,6,0,L|-14:83,2,75,2|2|2,0:2|0:3|0:3,0:0:0:0:
181,132,137150,1,2,0:2:0:0:
131,219,137381,2,0,P|120:282|131:369,1,150,10|2,0:2|0:2,0:0:0:0:
227,189,138304,6,0,B|296:158|296:158|382:215,1,150,2|0,0:2|0:0,0:0:0:0:
453,220,138996,1,2,0:2:0:0:
453,220,139227,2,0,B|433:143|470:160|448:70,1,150,8|2,0:0|0:2,0:0:0:0:
360,29,139919,1,0,0:0:0:0:
360,29,140150,6,0,P|325:44|271:42,1,75,2|0,0:2|0:2,0:0:0:0:
240,165,140612,2,0,P|284:137|385:173,1,150,2|10,0:3|0:2,0:0:0:0:
179,66,141535,2,0,P|134:53|85:64,1,75,2|0,0:2|0:2,0:0:0:0:
34,146,141996,6,0,L|41:307,1,150,6|0,0:2|0:0,0:0:0:0:
124,345,142689,1,2,2:3:0:0:
124,345,142919,2,0,P|143:308|180:280,1,75,10|2,0:2|2:3,0:0:0:0:
265,281,143381,1,0,0:0:0:0:
265,281,143612,1,0,0:0:0:0:
196,183,143842,6,0,L|122:172,2,75,2|2|2,0:2|0:3|0:3,0:0:0:0:
270,118,144535,1,2,0:2:0:0:
270,118,144765,2,0,P|315:79|412:90,1,150,10|2,0:2|0:2,0:0:0:0:
400,278,145689,6,0,B|314:282|330:238|227:261,1,150,2|0,0:2|0:0,0:0:0:0:
157,273,146381,1,2,0:3:0:0:
157,273,146612,2,0,L|160:366,1,75,10|0,0:2|1:2,0:0:0:0:
69,310,147073,2,0,P|77:264|77:222,1,75,2|2,0:2|0:3,0:0:0:0:
62,142,147535,6,0,L|13:147,2,37.5,8|8|4,0:0|0:3|0:3,0:0:0:0:
112,48,148015,2,0,L|166:40,1,37.5,4|8,0:3|0:3,0:0:0:0:
284,159,148458,2,0,P|275:203|276:255,1,75,10|2,0:2|0:2,0:0:0:0:
223,100,148919,2,0,P|269:77|321:84,1,75,2|2,1:2|1:2,0:0:0:0:
430,114,149381,6,0,B|413:190|413:190|428:284,1,150,4|8,0:2|0:0,0:0:0:0:
347,321,150073,1,2,2:3:0:0:
347,321,150304,2,0,P|298:302|243:303,1,75,2|2,0:2|2:3,0:0:0:0:
182,326,150765,1,8,0:2:0:0:
208,232,150996,1,0,0:3:0:0:
122,133,151227,6,0,P|111:186|124:292,1,150,2|8,0:2|0:2,0:0:0:0:
208,232,151919,1,2,0:2:0:0:
208,232,152150,2,0,P|215:160|193:67,1,150,2|10,1:3|0:2,0:0:0:0:
9,43,153073,6,0,B|25:124|25:124|16:210,1,150,2|8,0:2|0:0,0:0:0:0:
35,287,153765,1,2,0:2:0:0:
35,287,153996,2,0,P|76:275|114:275,1,75,2|0,0:3|0:0,0:0:0:0:
194,229,154457,2,0,P|245:239|281:238,1,75,10|0,0:2|0:0,0:0:0:0:
351,143,154919,6,0,P|302:145|254:179,1,75,2|2,0:2|0:3,0:0:0:0:
387,230,155381,2,0,P|386:154|394:50,1,150,10|2,0:2|0:2,0:0:0:0:
195,73,156304,2,0,P|226:113|229:142,1,75,10|0,0:2|0:2,0:0:0:0:
77,174,156765,6,0,P|71:96|128:53,1,150,6|8,0:2|0:0,0:0:0:0:
155,147,157457,2,0,P|142:237|114:308,1,150,2|2,1:2|2:3,0:0:0:0:
206,342,158150,2,0,P|245:350|283:348,1,75,8|0,0:0|0:0,0:0:0:0:
366,302,158611,6,0,B|309:183|431:204|350:56,2,225,2|2|10,0:2|0:2|0:2,0:0:0:0:
277,258,160227,1,0,0:0:0:0:
277,258,160457,6,0,P|264:209|225:179,1,75,2|0,0:2|0:0,0:0:0:0:
150,183,160919,2,0,B|78:195|78:195|-1:167,1,150,8|0,0:0|0:0,0:0:0:0:
62,78,161611,1,0,0:0:0:0:
62,78,161842,2,0,P|112:57|151:57,1,75,8|0,0:0|0:0,0:0:0:0:
230,55,162304,6,0,L|216:116,2,50,8|4|4,0:3|0:3|0:3,0:0:0:0:
271,30,162765,2,0,B|337:-9|414:39|414:39|422:116|385:157|385:157|430:230|398:324,1,450,12|6,0:3|0:2,0:0:0:0:
323,106,170627,6,0,B|337:160|337:160|337:222,2,112.5,8|0|0,0:0|0:0|0:0,0:0:0:0:
258,62,171534,6,0,P|199:77|126:66,1,120,6|2,0:2|0:2,0:0:0:0:
64,55,172226,1,2,0:2:0:0:
64,55,172457,2,0,L|71:197,1,120
196,266,173380,6,0,P|208:219|289:191,1,120,6|0,1:2|0:0,0:0:0:0:
344,203,174072,1,0,0:0:0:0:
344,203,174303,2,0,L|352:271,1,60,2|0,0:2|0:0,0:0:0:0:
423,292,174764,2,0,L|433:228,1,60,2|0,0:2|0:0,0:0:0:0:
453,157,175226,6,0,P|411:125|331:121,1,120,6|2,0:2|0:2,0:0:0:0:
272,144,175918,1,2,0:2:0:0:
272,144,176149,2,0,P|224:161|151:153,1,120,0|0,0:0|0:0,0:0:0:0:
240,23,177072,6,0,P|289:12|307:12,1,60,8|0,1:0|1:0,0:0:0:0:
330,83,177534,2,0,P|376:79|404:85,1,60,8|0,1:0|1:0,0:0:0:0:
365,157,177995,1,8,1:0:0:0:
365,157,178226,1,8,1:0:0:0:
266,153,178457,1,8,1:0:0:0:
266,153,178687,1,8,1:0:0:0:
183,70,178918,6,2,P|141:50|63:228,1,300,2|8,0:0|0:0,0:0:0:0:
186,355,180303,2,2,P|194:309|213:276,1,75,2|0,0:0|0:2,0:0:0:0:
296,245,180764,5,2,0:0:0:0:
296,245,180995,2,0,P|350:260|456:258,1,150
506,185,181687,2,2,B|481:131|481:131|490:38,1,150,8|2,0:0|0:0,0:0:0:0:
391,40,182380,1,0,0:0:0:0:
391,40,182610,6,2,B|242:93|242:-12|93:47,2,300,2|8|8,0:0|0:0|0:0,0:0:0:0:
424,131,184687,6,0,L|429:214,2,75,4|0|0,0:3|0:0|0:0,0:0:0:0:
330,161,185380,2,2,P|277:184|173:176,1,150,10|2,0:2|0:0,0:0:0:0:
46,44,186303,6,0,P|128:14|346:30,1,300,6|8,0:2|0:0,0:0:0:0:
409,92,187457,1,0,0:0:0:0:
409,92,187687,2,0,L|406:173,1,75,0|0,0:0|0:0,0:0:0:0:
323,220,188149,6,0,L|312:133,2,75,8|4|0,0:1|0:3|0:0,0:0:0:0:
256,291,188841,1,2,0:2:0:0:
256,291,189072,2,0,P|204:264|97:260,1,150,10|2,0:0|0:0,0:0:0:0:
177,71,189995,6,0,B|200:220|200:220|150:377,1,300,2|10,0:2|0:0,0:0:0:0:
75,183,191380,2,0,P|80:122|82:76,1,75,2|0,0:0|0:2,0:0:0:0:
109,14,191841,5,2,0:0:0:0:
109,14,192072,2,0,B|180:31|266:22,1,150,0|0,0:0|0:0,0:0:0:0:
355,11,192764,2,0,P|346:63|352:135,1,112.5,8|4,0:0|0:3,0:0:0:0:
381,159,193226,2,0,L|466:149,1,75,12|2,0:1|0:0,0:0:0:0:
412,251,193687,6,2,B|353:235|257:235,1,150,2|8,0:0|0:0,0:0:0:0:
168,211,194380,1,2,0:0:0:0:
168,211,194610,2,0,L|162:306,1,75,0|0,0:0|0:0,0:0:0:0:
70,317,195072,2,2,L|63:226,1,75,10|0,0:0|0:0,0:0:0:0:
69,144,195534,6,0,P|123:156|226:130,1,150,2|10,0:0|0:0,0:0:0:0:
288,73,196226,1,0,0:2:0:0:
288,73,196457,2,0,P|346:74|385:98,1,75,0|2,0:0|0:0,0:0:0:0:
412,163,196918,2,0,P|412:217|393:269,1,75,8|0,0:0|0:0,0:0:0:0:
336,331,197380,6,2,B|312:280|312:280|256:291|256:291|224:234|149:249,1,225,2|0,0:0|0:0,0:0:0:0:
67,271,198303,2,0,P|74:215|50:114,1,150,2|10,0:0|0:0,0:0:0:0:
120,52,198995,1,0,0:0:0:0:
120,52,199226,6,0,P|193:64|274:59,1,150,2|8,0:0|0:0,0:0:0:0:
364,39,199918,1,0,0:0:0:0:
364,39,200149,2,0,L|371:132,1,75,0|0,0:0|0:0,0:0:0:0:
370,211,200610,2,0,L|264:179,1,75,8|0,0:0|0:0,0:0:0:0:
183,181,201072,6,2,B|218:194|259:237|223:306|223:306|179:283|117:301,1,225,2|0,0:0|0:0,0:0:0:0:
56,319,201995,1,2,0:0:0:0:
48,311,202457,2,2,L|40:217,1,75,10|0,0:0|0:0,0:0:0:0:
33,139,202918,6,2,B|85:143|85:143|117:108|117:108|180:86|243:105,1,225
324,154,203841,2,0,L|320:326,1,150,2|10,0:0|0:0,0:0:0:0:
415,329,204534,1,0,0:0:0:0:
415,329,204764,6,2,B|392:196|462:270|428:88,1,225,2|0,0:0|0:0,0:0:0:0:
356,46,205687,2,0,P|302:66|204:66,1,150,2|14,0:0|0:0,0:0:0:0:
112,59,206380,1,0,0:0:0:0:
112,59,206610,6,0,L|126:148,1,75,8|8,0:0|0:0,0:0:0:0:
60,207,207072,2,0,P|50:148|14:90,2,112.5,4|4|8,0:3|0:3|0:0,0:0:0:0:
140,261,207995,1,4,0:3:0:0:
212,195,208226,1,4,0:3:0:0:
212,195,208457,6,0,L|332:200,2,120,6|0|8,0:2|0:0|0:0,0:0:0:0:
331,95,209841,2,0,P|374:80|409:74,1,60,2|0,0:2|0:0,0:0:0:0:
465,89,210303,6,0,P|460:144|462:212,1,120,2|0,0:2|0:0,0:0:0:0:
429,279,210995,1,0,0:0:0:0:
429,279,211226,2,0,B|369:270|369:270|286:295,1,120,8|2,0:0|0:2,0:0:0:0:
190,189,212149,6,0,B|177:126|216:130|191:47,1,120,2|0,0:2|0:0,0:0:0:0:
127,34,212841,1,2,0:2:0:0:
127,34,213072,2,0,P|72:31|22:82,1,120,8|2,0:2|0:2,0:0:0:0:
31,150,213764,1,0,0:0:0:0:
75,214,213995,6,0,P|91:262|94:296,2,60,2|0|0,0:2|0:0|0:0,0:0:0:0:
125,154,214687,1,0,0:0:0:0:
125,154,214918,2,0,P|156:133|205:132,1,60,8|0,0:0|0:0,0:0:0:0:
243,170,215380,2,0,L|245:252,1,60,6|0,0:2|0:0,0:0:0:0:
320,143,215841,6,0,P|361:117|444:122,2,120,6|0|8,0:2|0:0|0:0,0:0:0:0:
279,209,216995,1,0,0:0:0:0:
279,209,217226,2,0,P|289:253|290:283,1,60,2|0,0:2|0:0,0:0:0:0:
242,330,217687,6,0,L|166:319,2,60,2|0|0,0:2|0:0|0:0,0:0:0:0:
317,352,218380,1,2,0:2:0:0:
317,352,218610,2,0,P|338:317|434:301,1,120,8|2,0:0|0:2,0:0:0:0:
488,302,219303,1,0,0:0:0:0:
470,225,219534,6,0,B|453:158|493:171|473:86,1,120,6|0,0:2|0:0,0:0:0:0:
416,58,220226,1,0,0:0:0:0:
416,58,220457,2,0,B|351:66|336:63,1,60,8|0,0:0|0:0,0:0:0:0:
279,47,220918,1,2,0:2:0:0:
271,55,221380,6,0,L|275:137,1,60,8|8,0:0|0:0,0:0:0:0:
248,188,221841,2,0,L|322:185,1,60,12|12,0:3|0:3,0:0:0:0:
186,126,222303,2,0,L|112:129,1,60,8|8,0:3|0:3,0:0:0:0:
160,199,222764,2,0,L|163:259,1,60,4|4,0:3|0:3,0:0:0:0:
215,356,223226,6,0,P|256:320|328:306,2,120,6|0|8,0:2|0:0|0:2,0:0:0:0:
150,311,224380,1,2,0:2:0:0:
150,311,224610,2,0,P|96:324|75:337,1,60,2|0,0:2|0:2,0:0:0:0:
16,344,225072,6,0,B|0:268|0:268|11:204,2,120,2|0|8,0:2|0:0|0:0,0:0:0:0:
109,219,226457,2,0,P|107:172|106:145,1,60,2|0,0:2|0:0,0:0:0:0:
161,103,226918,6,0,P|193:116|278:108,1,120,6|0,0:2|0:0,0:0:0:0:
327,49,227610,2,0,L|339:181,1,120,2|0,0:2|0:0,0:0:0:0:
284,226,228303,2,0,P|290:263|292:288,1,60,2|0,0:2|0:0,0:0:0:0:
228,330,228764,5,10,0:2:0:0:
228,330,228995,2,0,P|204:294|112:281,1,120,8|2,0:0|0:2,0:0:0:0:
55,279,229687,2,0,L|51:194,1,60,8|8,0:3|0:3,0:0:0:0:
135,133,230149,2,0,L|124:209,1,60,4|4,0:3|0:3,0:0:0:0:
79,58,230610,6,0,B|172:25|174:81|266:64,2,180,6|2|0,0:2|0:0|0:0,0:0:0:0:
27,205,232457,2,0,P|17:273|18:385,2,180,6|2|0,0:0|0:0|0:0,0:0:0:0:
176,159,234303,6,0,P|247:147|313:162,1,120,6|0,0:2|0:2,0:0:0:0:
368,176,234995,1,0,0:0:0:0:
368,176,235226,2,0,L|379:38,1,120,10|2,0:2|0:2,0:0:0:0:
223,30,236149,5,10,0:2:0:0:
223,30,236380,2,0,B|174:39|174:39|153:34|153:34|96:44,1,120,4|8,0:3|0:3,0:0:0:0:
46,93,237072,2,0,L|52:228,1,120,8|8,0:2|0:0,0:0:0:0:
183,295,237995,6,0,P|183:248|200:211,1,60,6|0,0:2|0:0,0:0:0:0:
256,181,238457,2,0,P|261:237|271:272,1,67.4999979400635,10|0,0:2|0:0,0:0:0:0:
343,303,238918,2,0,P|346:254|357:223,1,75,2|0,0:2|0:0,0:0:0:0:
399,125,239380,2,0,P|355:137|307:137,1,75,10|0,0:2|0:0,0:0:0:0:
216,47,239841,2,0,P|264:52|297:71,1,75,10|0,0:2|0:0,0:0:0:0:
176,141,240303,1,10,0:2:0:0:
95,86,240534,1,0,0:0:0:0:
131,218,240764,1,10,0:0:0:0:
131,218,241687,6,0,L|270:213,2,134.999995880127,2|2|0,0:0|0:0|0:0,0:0:0:0:
133,82,243534,2,0,P|152:52|219:40,1,89.9999972534181,2|0,0:0|0:0,0:0:0:0:
276,78,244226,2,0,P|310:86|379:77,1,89.9999972534181,2|0,0:0|0:0,0:0:0:0:
430,27,244918,1,0,0:0:0:0:
430,27,245380,6,0,P|427:110|434:173,2,134.999995880127,2|2|0,0:0|0:0|0:0,0:0:0:0:
345,132,247226,2,0,P|346:167|350:197,1,44.999998626709,2|0,0:0|0:0,0:0:0:0:
307,252,247687,2,0,P|267:238|202:241,1,89.9999972534181,2|0,0:0|0:0,0:0:0:0:
91,278,248610,2,0,L|88:333,1,44.999998626709
9,357,249072,6,0,P|9:290|15:249,1,89.9999972534181,2|0,0:0|0:0,0:0:0:0:
62,198,249764,2,0,P|63:156|58:101,1,89.9999972534181,2|0,0:0|0:0,0:0:0:0:
49,22,250457,2,0,L|107:19,1,44.999998626709
173,50,250918,6,0,P|181:111|173:192,2,134.999995880127,2|2|2,0:0|0:0|0:0,0:0:0:0:
305,25,252764,2,0,P|352:21|402:226,1,314.999990386963,2|0,0:0|0:0,0:0:0:0:
321,235,254610,6,0,B|217:210|250:252|142:231,1,179.999994506836,2|0,0:0|0:0,0:0:0:0:
169,40,255995,6,0,L|184:139,1,75,0|2,0:0|0:0,0:0:0:0:
270,37,256457,6,0,P|319:30|391:109,1,150,4|0,0:2|0:0,0:0:0:0:
384,190,257149,1,2,2:3:0:0:
384,190,257380,2,0,L|297:187,1,75,10|2,0:2|2:3,0:0:0:0:
233,249,257841,1,0,0:3:0:0:
233,249,258072,1,0,0:3:0:0:
187,138,258303,6,0,P|186:102|183:60,2,75,2|2|2,0:2|0:3|0:3,0:0:0:0:
128,216,258995,1,2,0:2:0:0:
128,216,259226,2,0,P|73:205|16:277,1,150,10|2,0:2|0:2,0:0:0:0:
192,354,260149,6,0,B|175:280|224:285|200:196,1,150,2|0,0:2|0:0,0:0:0:0:
193,109,260841,1,2,0:2:0:0:
275,56,261072,2,0,P|325:45|413:100,1,150,8|2,0:0|0:2,0:0:0:0:
432,185,261764,1,0,0:0:0:0:
432,185,261995,6,0,P|426:230|428:274,1,75,2|2,0:2|0:3,0:0:0:0:
331,337,262457,2,0,P|333:233|320:164,1,150,2|10,0:3|0:2,0:0:0:0:
167,73,263380,2,0,L|86:85,1,75,2|0,0:2|0:2,0:0:0:0:
82,181,263841,6,0,P|91:239|95:351,1,150,6|0,0:2|0:0,0:0:0:0:
173,271,264534,1,2,2:3:0:0:
173,271,264764,2,0,P|218:260|247:267,1,75,10|2,0:2|2:3,0:0:0:0:
330,314,265226,1,0,0:0:0:0:
330,314,265457,1,0,0:0:0:0:
316,184,265687,6,0,P|313:128|314:99,2,75,2|2|2,0:2|0:3|0:3,0:0:0:0:
228,138,266380,1,2,0:2:0:0:
228,138,266610,2,0,P|161:129|74:145,1,150,10|2,0:2|0:2,0:0:0:0:
218,285,267534,6,0,P|212:225|228:135,1,150,2|0,0:2|0:0,0:0:0:0:
283,57,268226,1,2,0:3:0:0:
283,57,268457,2,0,B|343:57|343:57|369:71|369:71|437:70,1,150,10|2,0:2|0:2,0:0:0:0:
472,157,269149,1,2,0:3:0:0:
472,157,269380,6,0,P|451:202|448:250,1,75,8|4,0:0|0:3,0:0:0:0:
365,280,269841,2,0,P|368:228|345:180,1,75,8|0,0:0|0:0,0:0:0:0:
227,160,270303,2,0,P|275:167|301:159,1,75,8|0,0:0|0:0,0:0:0:0:
261,32,270764,2,0,P|213:25|187:33,1,75,2|2,0:2|0:2,0:0:0:0:
85,103,271226,6,0,B|109:175|109:175|93:256,1,150,4|8,0:2|0:0,0:0:0:0:
152,326,271918,1,2,2:3:0:0:
152,326,272149,2,0,P|201:317|241:326,1,75,2|2,0:2|2:3,0:0:0:0:
321,336,272610,1,8,0:2:0:0:
321,336,272841,1,0,0:3:0:0:
284,215,273072,6,0,B|264:148|308:147|274:47,1,150,2|8,0:2|0:2,0:0:0:0:
193,22,273764,1,2,0:2:0:0:
193,22,273995,2,0,P|140:50|143:151,1,150,2|10,1:3|0:2,0:0:0:0:
232,299,274918,6,0,P|280:292|405:307,1,150,2|8,0:2|0:0,0:0:0:0:
469,339,275610,1,2,0:2:0:0:
469,339,275841,2,0,P|462:284|465:241,1,75,2|0,0:3|0:0,0:0:0:0:
495,172,276303,2,0,P|450:178|413:173,1,75,10|0,0:2|0:0,0:0:0:0:
338,122,276764,6,0,P|341:72|360:22,1,75,2|2,0:2|0:3,0:0:0:0:
217,24,277226,2,0,B|240:91|240:91|234:182,1,150,10|2,0:2|0:2,0:0:0:0:
176,356,278149,2,0,P|134:339|82:338,1,75,10|0,0:2|0:2,0:0:0:0:
49,254,278610,6,0,L|210:248,1,150,6|8,0:2|0:0,0:0:0:0:
287,290,279303,2,0,P|283:230|384:214,1,150,2|2,1:2|2:3,0:0:0:0:
437,250,279995,2,0,P|444:195|457:162,1,75,8|0,0:0|0:0,0:0:0:0:
416,84,280457,6,0,B|289:123|308:49|172:94,2,225,2|2|10,0:2|0:2|0:2,0:0:0:0:
346,15,282072,1,0,0:0:0:0:
346,15,282303,6,0,P|300:3|261:-2,1,75,2|0,0:2|0:0,0:0:0:0:
183,37,282764,2,0,L|196:192,1,150,8|0,0:0|0:0,0:0:0:0:
168,280,283457,1,0,0:0:0:0:
168,280,283687,2,0,L|90:280,1,75,8|0,0:0|0:0,0:0:0:0:
142,364,284149,6,0,L|235:358,1,75,8|4,0:0|0:3,0:0:0:0:
313,343,284610,2,0,P|293:289|305:210,1,112.5,8|4,0:0|0:3,0:0:0:0:
328,198,285072,2,0,L|411:200,1,75,8|8,0:0|0:3,0:0:0:0:
423,103,285534,2,0,L|326:105,1,75,4|0,0:3|0:0,0:0:0:0:
250,104,285995,1,6,0:2:0:0:
256,192,286110,12,2,289687,2:0:0:0:
