osu file format v14

[General]
AudioFilename: audio.mp3
AudioLeadIn: 0
PreviewTime: 71551
Countdown: 0
SampleSet: Normal
StackLeniency: 0.7
Mode: 1
LetterboxInBreaks: 0
WidescreenStoryboard: 0

[Editor]
Bookmarks: 23302,33968,44635,55301,65968,125968,136635,147301,157968,282050
DistanceSpacing: 1.3
BeatDivisor: 4
GridSize: 32
TimelineZoom: 1.9

[Metadata]
Title:Koiiro Iris
TitleUnicode:こいいろアイリス
Artist:Komichi Aya (CV: Taneda Risa)
ArtistUnicode:小路 綾 (CV: 種田 梨沙)
Creator:Tyistiana
Version:Color of love
Source:ハロー!!きんいろモザイク
Tags:hello!! kiniro mosaic kinmoza character song music palette 2 きんモザ
BeatmapID:1807280
BeatmapSetID:864078

[Difficulty]
HPDrainRate:5
CircleSize:5
OverallDifficulty:5
ApproachRate:5
SliderMultiplier:1.4
SliderTickRate:1

[Events]
//Background and Video events
0,0,"31598v.png",0,-30
//Break Periods
//Storyboard Layer 0 (Background)
//Storyboard Layer 1 (Fail)
//Storyboard Layer 2 (Pass)
//Storyboard Layer 3 (Foreground)
//Storyboard Sound Samples

[TimingPoints]
1969,666.666666666667,4,1,0,45,1,0
1969,-66.6666666666667,4,1,0,45,0,0
22802,-57.1428571428571,4,1,0,45,0,0
22969,-57.1428571428571,4,1,0,80,0,0
23302,333.333333333333,4,1,0,75,1,0
23302,-100,4,1,0,75,0,0
33968,-100,4,1,0,70,0,0
55468,-125,4,1,0,50,0,0
63301,-121.212121212121,4,1,0,60,0,0
63468,-117.647058823529,4,1,0,60,0,0
63635,-114.285714285714,4,1,0,60,0,0
63801,-111.111111111111,4,1,0,60,0,0
63968,-108.108108108108,4,1,0,60,0,0
64135,-105.263157894737,4,1,0,60,0,0
64301,-102.564102564103,4,1,0,60,0,0
64468,-100,4,1,0,60,0,0
65885,-100,4,1,0,70,0,0
71635,-98.0392156862745,4,1,0,70,0,0
71968,-92.5925925925926,4,1,0,70,0,0
72301,-89.2857142857143,4,1,0,70,0,0
72635,333.333333333333,4,1,0,80,1,0
72635,-83.3333333333333,4,1,0,80,0,1
92634,-83.3333333333333,4,1,0,80,0,0
93968,-83.3333333333333,4,1,0,80,0,1
115301,-83.3333333333333,4,1,0,80,0,0
115468,-100,4,1,0,75,0,0
125968,-100,4,1,0,70,0,0
147468,-125,4,1,0,50,0,0
155301,-121.212121212121,4,1,0,60,0,0
155468,-117.647058823529,4,1,0,60,0,0
155634,-114.285714285714,4,1,0,60,0,0
155801,-111.111111111111,4,1,0,60,0,0
155968,-108.108108108108,4,1,0,60,0,0
156134,-105.263157894737,4,1,0,60,0,0
156301,-102.564102564103,4,1,0,60,0,0
156468,-100,4,1,0,60,0,0
157884,-100,4,1,0,70,0,0
163634,-98.0392156862745,4,1,0,70,0,0
163718,-96.1538461538461,4,1,0,70,0,0
163801,-94.3396226415094,4,1,0,70,0,0
163884,-92.5925925925926,4,1,0,70,0,0
163968,-90.9090909090909,4,1,0,70,0,0
164134,-89.2857142857143,4,1,0,70,0,0
164301,-87.719298245614,4,1,0,70,0,0
164384,-86.2068965517241,4,1,0,70,0,0
164468,-84.7457627118644,4,1,0,70,0,0
164634,333.333333333333,4,1,0,80,1,0
164634,-83.3333333333333,4,1,0,80,0,1
184633,-83.3333333333333,4,1,0,80,0,0
185967,-83.3333333333333,4,1,0,80,0,1
207300,-83.3333333333333,4,1,0,80,0,0
212800,-80,4,1,0,80,0,0
216883,-79.3650793650794,4,1,0,80,0,0
216967,-78.7401574803149,4,1,0,80,0,0
217050,-78.125,4,1,0,80,0,0
217133,-77.5193798449612,4,1,0,80,0,0
217217,-76.9230769230769,4,1,0,80,0,0
217300,-76.3358778625954,4,1,0,80,0,0
217383,-75.7575757575758,4,1,0,80,0,0
217467,-75.187969924812,4,1,0,80,0,0
217550,-74.6268656716418,4,1,0,80,0,0
217633,-74.0740740740741,4,1,0,80,0,0
217800,-72.992700729927,4,1,0,80,0,0
217967,-71.9424460431655,4,1,0,80,0,0
218300,-71.9424460431655,4,1,0,70,0,0
218467,-71.9424460431655,4,1,0,65,0,0
218633,-71.9424460431655,4,1,0,60,0,0
218800,-71.9424460431655,4,1,0,55,0,0
218967,-71.9424460431655,4,1,0,50,0,0
219133,-71.9424460431655,4,1,0,45,0,0
219300,666.666666666667,4,1,0,45,1,0
219300,-66.6666666666667,4,1,0,45,0,0
226633,-57.1428571428571,4,1,0,45,0,0
226800,-57.1428571428571,4,1,0,80,0,0
227133,-50,4,1,0,80,0,0
227300,333.333333333333,4,1,0,80,1,8
227300,-100,4,1,0,80,0,0
229300,-98.0392156862745,4,1,0,80,0,0
229383,-96.1538461538461,4,1,0,80,0,0
229466,-94.3396226415094,4,1,0,80,0,0
229550,-92.5925925925926,4,1,0,80,0,0
229633,-90.9090909090909,4,1,0,80,0,0
229800,-86.9565217391304,4,1,0,80,0,0
229966,-83.3333333333333,4,1,0,90,0,1
239300,-83.3333333333333,4,1,0,90,0,0
240633,-83.3333333333333,4,1,0,90,0,1
261966,-83.3333333333333,4,1,0,90,0,0
262133,-100,4,1,0,80,0,0
272633,333.333333333333,4,1,0,80,1,8
272716,333.333333333333,4,1,0,80,1,0
273299,-100,4,1,0,75,0,0
273966,-100,4,1,0,70,0,0
274632,-100,4,1,0,65,0,0
275299,-100,4,1,0,60,0,0
275966,-100,4,1,0,55,0,0
276633,-100,4,1,0,50,0,0
277299,-100,4,1,0,45,0,0
277966,-100,4,1,0,40,0,0
278632,-100,4,1,0,35,0,0
279299,-100,4,1,0,30,0,0
279966,-100,4,1,0,25,0,0
280633,-100,4,1,0,20,0,0
281299,-100,4,1,0,15,0,0
281966,-100,4,1,0,10,0,0

[HitObjects]
256,192,1969,5,0,0:0:0:0:
256,192,3302,1,8,0:0:0:0:
256,192,4635,1,0,0:0:0:0:
256,192,5302,1,8,0:0:0:0:
256,192,5969,1,0,0:0:0:0:
256,192,7302,1,0,0:0:0:0:
256,192,7969,1,0,0:0:0:0:
256,192,8302,1,0,0:0:0:0:
256,192,8635,1,8,0:0:0:0:
256,192,9302,1,8,0:0:0:0:
256,192,9969,1,0,0:0:0:0:
256,192,10635,1,8,0:0:0:0:
256,192,11302,1,0,0:0:0:0:
256,192,11969,1,0,0:0:0:0:
256,192,12302,1,8,0:0:0:0:
256,192,12635,1,0,0:0:0:0:
256,192,13302,1,8,0:0:0:0:
256,192,13969,1,0,0:0:0:0:
256,192,14635,1,8,0:0:0:0:
256,192,14969,1,8,0:0:0:0:
256,192,15302,1,0,0:0:0:0:
256,192,15969,1,8,0:0:0:0:
256,192,16635,1,0,0:0:0:0:
256,192,17302,1,8,0:0:0:0:
256,192,17635,1,0,0:0:0:0:
256,192,17969,1,8,0:0:0:0:
256,192,18635,1,8,0:0:0:0:
256,192,19302,1,0,0:0:0:0:
256,192,19969,1,8,0:0:0:0:
256,192,20635,1,0,0:0:0:0:
256,192,20969,12,0,22635,0:0:0:0:
256,192,22802,5,0,0:0:0:0:
256,192,22969,1,8,0:0:0:0:
256,192,23302,5,4,0:0:0:0:
256,192,23635,1,8,0:0:0:0:
256,192,23802,1,0,0:0:0:0:
256,192,23968,1,0,0:0:0:0:
256,192,24135,1,0,0:0:0:0:
256,192,24302,1,8,0:0:0:0:
256,192,24468,1,0,0:0:0:0:
256,192,24802,1,0,0:0:0:0:
256,192,24968,1,8,0:0:0:0:
256,192,25135,1,0,0:0:0:0:
256,192,25301,1,8,0:0:0:0:
256,192,25468,1,0,0:0:0:0:
256,192,25635,1,8,0:0:0:0:
256,192,25718,1,8,0:0:0:0:
256,192,25801,1,8,0:0:0:0:
256,192,25968,1,0,0:0:0:0:
256,192,26135,1,0,0:0:0:0:
256,192,26301,1,8,0:0:0:0:
256,192,26635,1,8,0:0:0:0:
256,192,26801,1,0,0:0:0:0:
256,192,26968,1,8,0:0:0:0:
256,192,27135,1,0,0:0:0:0:
256,192,27468,1,0,0:0:0:0:
256,192,27635,1,8,0:0:0:0:
256,192,27801,1,8,0:0:0:0:
256,192,27968,1,0,0:0:0:0:
256,192,28135,1,0,0:0:0:0:
256,192,28301,1,8,0:0:0:0:
256,192,28385,1,8,0:0:0:0:
256,192,28468,1,8,0:0:0:0:
256,192,28635,1,0,0:0:0:0:
256,192,28801,1,0,0:0:0:0:
256,192,28968,1,8,0:0:0:0:
256,192,29301,1,0,0:0:0:0:
256,192,29468,1,0,0:0:0:0:
256,192,29635,1,8,0:0:0:0:
256,192,29801,1,0,0:0:0:0:
256,192,30135,1,0,0:0:0:0:
256,192,30301,1,8,0:0:0:0:
256,192,30468,1,0,0:0:0:0:
256,192,30551,1,0,0:0:0:0:
256,192,30635,1,8,0:0:0:0:
256,192,30801,1,0,0:0:0:0:
256,192,30968,1,8,0:0:0:0:
256,192,31051,1,8,0:0:0:0:
256,192,31135,1,0,0:0:0:0:
256,192,31301,1,12,0:0:0:0:
256,192,31635,1,8,0:0:0:0:
256,192,31801,1,4,0:0:0:0:
256,192,32135,1,0,0:0:0:0:
256,192,32301,1,12,0:0:0:0:
256,192,33468,1,0,0:0:0:0:
256,192,33635,1,8,0:0:0:0:
256,192,33968,5,4,0:0:0:0:
416,192,34301,1,8,0:0:0:0:
256,192,34468,1,0,0:0:0:0:
256,192,34801,1,0,0:0:0:0:
416,192,34968,1,8,0:0:0:0:
256,192,35135,1,0,0:0:0:0:
256,192,35468,1,0,0:0:0:0:
416,192,35635,1,8,0:0:0:0:
256,192,35801,1,0,0:0:0:0:
256,192,35968,1,0,0:0:0:0:
256,192,36135,1,0,0:0:0:0:
416,192,36301,1,8,0:0:0:0:
256,192,36635,1,0,0:0:0:0:
416,192,36968,1,8,0:0:0:0:
256,192,37135,1,0,0:0:0:0:
256,192,37468,1,8,0:0:0:0:
416,192,37635,1,8,0:0:0:0:
256,192,37801,1,0,0:0:0:0:
256,192,38135,1,0,0:0:0:0:
416,192,38301,1,8,0:0:0:0:
256,192,38468,1,8,0:0:0:0:
256,192,38635,1,0,0:0:0:0:
256,192,38801,1,0,0:0:0:0:
416,192,38968,1,8,0:0:0:0:
256,192,39301,1,0,0:0:0:0:
416,192,39635,1,8,0:0:0:0:
256,192,39968,1,0,0:0:0:0:
256,192,40135,1,0,0:0:0:0:
416,192,40301,1,8,0:0:0:0:
256,192,40635,1,0,0:0:0:0:
416,192,40968,1,8,0:0:0:0:
256,192,41135,1,8,0:0:0:0:
256,192,41301,1,0,0:0:0:0:
256,192,41468,1,0,0:0:0:0:
416,192,41635,1,8,0:0:0:0:
256,192,41968,1,0,0:0:0:0:
416,192,42301,1,8,0:0:0:0:
256,192,42468,1,8,0:0:0:0:
256,192,42635,1,0,0:0:0:0:
416,192,42968,1,8,0:0:0:0:
256,192,43301,1,4,0:0:0:0:
416,192,43635,1,8,0:0:0:0:
256,192,43801,1,8,0:0:0:0:
256,192,43968,1,0,0:0:0:0:
256,192,44135,1,0,0:0:0:0:
416,192,44301,1,8,0:0:0:0:
256,192,44385,1,8,0:0:0:0:
256,192,44468,1,0,0:0:0:0:
256,192,44635,1,4,0:0:0:0:
256,192,44968,1,8,0:0:0:0:
256,192,45135,1,0,0:0:0:0:
256,192,45301,1,0,0:0:0:0:
256,192,45468,1,8,0:0:0:0:
256,192,45635,1,0,0:0:0:0:
256,192,45801,1,8,0:0:0:0:
256,192,46135,1,8,0:0:0:0:
256,192,46301,1,8,0:0:0:0:
256,192,46468,1,0,0:0:0:0:
256,192,46635,1,0,0:0:0:0:
256,192,46801,1,8,0:0:0:0:
256,192,46968,1,0,0:0:0:0:
256,192,47135,1,8,0:0:0:0:
256,192,47301,1,4,0:0:0:0:
256,192,47635,1,8,0:0:0:0:
256,192,47801,1,8,0:0:0:0:
256,192,47968,1,0,0:0:0:0:
256,192,48135,1,8,0:0:0:0:
256,192,48301,1,0,0:0:0:0:
256,192,48468,1,4,0:0:0:0:
256,192,48801,1,0,0:0:0:0:
256,192,48968,1,8,0:0:0:0:
256,192,49135,1,0,0:0:0:0:
256,192,49301,1,0,0:0:0:0:
256,192,49468,1,8,0:0:0:0:
256,192,49635,1,8,0:0:0:0:
256,192,49718,1,8,0:0:0:0:
256,192,49801,1,8,0:0:0:0:
256,192,49968,1,4,0:0:0:0:
416,192,50301,1,8,0:0:0:0:
256,192,50468,1,0,0:0:0:0:
256,192,50635,1,0,0:0:0:0:
256,192,50801,1,0,0:0:0:0:
416,192,50968,1,8,0:0:0:0:
256,192,51301,1,0,0:0:0:0:
416,192,51635,1,8,0:0:0:0:
256,192,51968,1,0,0:0:0:0:
256,192,52135,1,0,0:0:0:0:
416,192,52301,1,8,0:0:0:0:
256,192,52468,1,8,0:0:0:0:
256,192,52635,1,4,0:0:0:0:
416,192,52968,1,8,0:0:0:0:
256,192,53135,1,8,0:0:0:0:
256,192,53301,1,0,0:0:0:0:
416,192,53635,1,8,0:0:0:0:
256,192,53968,1,4,0:0:0:0:
416,192,54301,1,8,0:0:0:0:
256,192,54468,1,8,0:0:0:0:
256,192,54635,1,0,0:0:0:0:
256,192,54801,1,0,0:0:0:0:
416,192,54968,1,8,0:0:0:0:
256,192,55051,1,8,0:0:0:0:
256,192,55135,1,0,0:0:0:0:
256,192,55301,5,4,0:0:0:0:
256,192,55635,1,8,0:0:0:0:
256,192,56301,1,8,0:0:0:0:
256,192,56968,1,8,0:0:0:0:
256,192,57635,1,8,0:0:0:0:
256,192,57801,1,0,0:0:0:0:
256,192,57968,1,0,0:0:0:0:
256,192,58301,1,8,0:0:0:0:
256,192,58968,1,8,0:0:0:0:
256,192,59301,1,0,0:0:0:0:
256,192,59635,1,8,0:0:0:0:
256,192,59801,1,0,0:0:0:0:
256,192,60135,1,0,0:0:0:0:
256,192,60301,1,8,0:0:0:0:
256,192,60468,1,0,0:0:0:0:
256,192,60635,1,4,0:0:0:0:
256,192,60968,1,8,0:0:0:0:
256,192,61635,1,8,0:0:0:0:
256,192,62301,1,8,0:0:0:0:
256,192,62968,1,0,0:0:0:0:
256,192,63301,1,8,0:0:0:0:
256,192,63468,1,0,0:0:0:0:
256,192,63635,1,0,0:0:0:0:
256,192,63801,1,8,0:0:0:0:
256,192,63968,1,0,0:0:0:0:
256,192,64135,1,0,0:0:0:0:
256,192,64301,1,8,0:0:0:0:
256,192,64468,1,4,0:0:0:0:
256,192,64801,1,0,0:0:0:0:
256,192,64885,1,0,0:0:0:0:
256,192,64968,1,8,0:0:0:0:
256,192,65135,1,8,0:0:0:0:
256,192,65301,1,0,0:0:0:0:
256,192,65385,1,0,0:0:0:0:
256,192,65468,1,0,0:0:0:0:
256,192,65635,1,8,0:0:0:0:
256,192,65801,1,8,0:0:0:0:
256,192,65968,5,4,0:0:0:0:
256,192,66301,1,8,0:0:0:0:
256,192,66468,1,8,0:0:0:0:
256,192,66551,1,8,0:0:0:0:
256,192,66635,1,0,0:0:0:0:
256,192,66801,1,0,0:0:0:0:
256,192,66968,1,8,0:0:0:0:
256,192,67135,1,4,0:0:0:0:
256,192,67468,1,0,0:0:0:0:
256,192,67635,1,8,0:0:0:0:
256,192,67801,1,8,0:0:0:0:
256,192,67968,1,0,0:0:0:0:
256,192,68135,1,0,0:0:0:0:
256,192,68301,1,8,0:0:0:0:
256,192,68385,1,8,0:0:0:0:
256,192,68468,1,8,0:0:0:0:
256,192,68635,1,4,0:0:0:0:
256,192,68968,1,8,0:0:0:0:
256,192,69135,1,4,0:0:0:0:
256,192,69468,1,0,0:0:0:0:
256,192,69635,1,8,0:0:0:0:
256,192,69801,1,4,0:0:0:0:
256,192,70135,1,0,0:0:0:0:
256,192,70301,1,8,0:0:0:0:
256,192,70468,1,0,0:0:0:0:
256,192,70635,1,8,0:0:0:0:
256,192,70718,1,0,0:0:0:0:
256,192,70801,1,0,0:0:0:0:
256,192,70885,1,0,0:0:0:0:
256,192,70968,1,8,0:0:0:0:
256,192,71135,1,0,0:0:0:0:
256,192,71301,1,4,0:0:0:0:
256,192,71635,1,8,0:0:0:0:
256,192,71968,1,0,0:0:0:0:
256,192,72301,1,8,0:0:0:0:
256,192,72635,5,12,0:0:0:0:
416,192,72968,1,8,0:0:0:0:
256,192,73135,1,0,0:0:0:0:
256,192,73301,1,8,0:0:0:0:
256,192,73468,1,0,0:0:0:0:
256,192,73551,1,0,0:0:0:0:
416,192,73635,1,8,0:0:0:0:
256,192,73801,1,8,0:0:0:0:
256,192,73968,1,0,0:0:0:0:
256,192,74135,1,0,0:0:0:0:
256,192,74218,1,0,0:0:0:0:
416,192,74301,1,8,0:0:0:0:
256,192,74468,1,8,0:0:0:0:
256,192,74635,1,0,0:0:0:0:
256,192,74801,1,0,0:0:0:0:
416,192,74968,1,8,0:0:0:0:
256,192,75135,1,8,0:0:0:0:
256,192,75301,1,0,0:0:0:0:
256,192,75385,1,0,0:0:0:0:
256,192,75468,1,0,0:0:0:0:
256,192,75551,1,0,0:0:0:0:
416,192,75635,1,8,0:0:0:0:
256,192,75801,1,8,0:0:0:0:
256,192,75968,1,0,0:0:0:0:
256,192,76051,1,0,0:0:0:0:
256,192,76135,1,0,0:0:0:0:
416,192,76301,1,8,0:0:0:0:
256,192,76468,1,8,0:0:0:0:
256,192,76635,1,0,0:0:0:0:
416,192,76968,1,8,0:0:0:0:
256,192,77301,1,0,0:0:0:0:
256,192,77468,1,0,0:0:0:0:
416,192,77635,1,8,0:0:0:0:
256,192,77801,1,8,0:0:0:0:
256,192,77968,1,4,0:0:0:0:
416,192,78301,1,8,0:0:0:0:
256,192,78468,1,8,0:0:0:0:
256,192,78635,1,0,0:0:0:0:
256,192,78801,1,0,0:0:0:0:
256,192,78885,1,0,0:0:0:0:
416,192,78968,1,8,0:0:0:0:
256,192,79135,1,8,0:0:0:0:
256,192,79301,1,0,0:0:0:0:
256,192,79468,1,0,0:0:0:0:
416,192,79634,1,8,0:0:0:0:
256,192,79801,1,8,0:0:0:0:
256,192,79968,1,0,0:0:0:0:
256,192,80051,1,0,0:0:0:0:
256,192,80134,1,0,0:0:0:0:
416,192,80301,1,8,0:0:0:0:
256,192,80468,1,8,0:0:0:0:
256,192,80634,1,0,0:0:0:0:
416,192,80968,1,8,0:0:0:0:
256,192,81134,1,8,0:0:0:0:
256,192,81301,1,0,0:0:0:0:
256,192,81384,1,0,0:0:0:0:
256,192,81468,1,0,0:0:0:0:
256,192,81551,1,0,0:0:0:0:
416,192,81634,1,8,0:0:0:0:
256,192,81801,1,8,0:0:0:0:
256,192,81968,1,0,0:0:0:0:
256,192,82051,1,0,0:0:0:0:
256,192,82134,1,0,0:0:0:0:
416,192,82301,1,8,0:0:0:0:
256,192,82634,1,8,0:0:0:0:
256,192,82801,1,0,0:0:0:0:
416,192,82968,1,8,0:0:0:0:
256,192,83134,1,8,0:0:0:0:
256,192,83301,5,4,0:0:0:0:
416,192,83634,1,8,0:0:0:0:
256,192,83801,1,0,0:0:0:0:
256,192,83884,1,0,0:0:0:0:
256,192,83968,1,0,0:0:0:0:
256,192,84134,1,0,0:0:0:0:
416,192,84301,1,8,0:0:0:0:
256,192,84468,1,8,0:0:0:0:
256,192,84634,1,0,0:0:0:0:
256,192,84718,1,0,0:0:0:0:
256,192,84801,1,0,0:0:0:0:
416,192,84968,1,8,0:0:0:0:
256,192,85134,1,0,0:0:0:0:
256,192,85301,1,8,0:0:0:0:
416,192,85634,1,8,0:0:0:0:
256,192,85801,1,0,0:0:0:0:
256,192,85968,1,8,0:0:0:0:
416,192,86301,1,8,0:0:0:0:
256,192,86468,1,8,0:0:0:0:
256,192,86551,1,8,0:0:0:0:
256,192,86634,1,0,0:0:0:0:
256,192,86801,1,0,0:0:0:0:
416,192,86968,1,8,0:0:0:0:
256,192,87134,1,8,0:0:0:0:
256,192,87301,1,0,0:0:0:0:
256,192,87384,1,0,0:0:0:0:
256,192,87468,1,0,0:0:0:0:
416,192,87634,1,8,0:0:0:0:
256,192,87968,1,8,0:0:0:0:
256,192,88134,1,0,0:0:0:0:
416,192,88301,1,8,0:0:0:0:
256,192,88468,1,8,0:0:0:0:
256,192,88634,1,4,0:0:0:0:
416,192,88968,1,8,0:0:0:0:
256,192,89134,1,0,0:0:0:0:
256,192,89301,1,8,0:0:0:0:
256,192,89468,1,0,0:0:0:0:
256,192,89551,1,0,0:0:0:0:
416,192,89634,1,8,0:0:0:0:
256,192,89801,1,0,0:0:0:0:
256,192,89968,1,8,0:0:0:0:
256,192,90051,1,8,0:0:0:0:
256,192,90134,1,0,0:0:0:0:
256,192,90218,1,0,0:0:0:0:
416,192,90301,1,8,0:0:0:0:
256,192,90634,1,8,0:0:0:0:
256,192,90801,1,0,0:0:0:0:
256,192,90884,1,0,0:0:0:0:
416,192,90968,1,8,0:0:0:0:
256,192,91134,1,8,0:0:0:0:
256,192,91301,1,0,0:0:0:0:
256,192,91384,1,0,0:0:0:0:
256,192,91468,1,0,0:0:0:0:
256,192,91551,1,0,0:0:0:0:
416,192,91634,1,8,0:0:0:0:
256,192,91801,1,8,0:0:0:0:
256,192,91968,1,0,0:0:0:0:
256,192,92051,1,0,0:0:0:0:
256,192,92134,1,0,0:0:0:0:
416,192,92301,1,12,0:0:0:0:
256,192,92634,1,0,0:0:0:0:
256,192,92801,1,0,0:0:0:0:
416,192,92968,1,8,0:0:0:0:
256,192,93134,1,0,0:0:0:0:
256,192,93218,1,0,0:0:0:0:
256,192,93301,1,0,0:0:0:0:
256,192,93468,1,0,0:0:0:0:
416,192,93634,1,8,0:0:0:0:
256,192,93718,1,8,0:0:0:0:
256,192,93801,1,8,0:0:0:0:
256,192,93968,5,4,0:0:0:0:
416,192,94301,1,8,0:0:0:0:
256,192,94468,1,0,0:0:0:0:
256,192,94634,1,8,0:0:0:0:
256,192,94801,1,8,0:0:0:0:
256,192,94884,1,8,0:0:0:0:
416,192,94968,1,8,0:0:0:0:
256,192,95134,1,8,0:0:0:0:
256,192,95301,1,0,0:0:0:0:
256,192,95468,1,0,0:0:0:0:
256,192,95551,1,0,0:0:0:0:
416,192,95634,1,8,0:0:0:0:
256,192,95801,1,8,0:0:0:0:
256,192,95968,1,0,0:0:0:0:
256,192,96134,1,0,0:0:0:0:
416,192,96301,1,8,0:0:0:0:
256,192,96468,1,8,0:0:0:0:
256,192,96634,1,0,0:0:0:0:
256,192,96718,1,0,0:0:0:0:
256,192,96801,1,0,0:0:0:0:
256,192,96884,1,0,0:0:0:0:
416,192,96968,1,8,0:0:0:0:
256,192,97134,1,8,0:0:0:0:
256,192,97301,1,8,0:0:0:0:
256,192,97384,1,8,0:0:0:0:
256,192,97468,1,0,0:0:0:0:
416,192,97634,1,8,0:0:0:0:
256,192,97801,1,8,0:0:0:0:
256,192,97968,1,0,0:0:0:0:
416,192,98301,1,8,0:0:0:0:
256,192,98634,1,0,0:0:0:0:
256,192,98801,1,0,0:0:0:0:
416,192,98968,1,8,0:0:0:0:
256,192,99134,1,8,0:0:0:0:
256,192,99301,1,4,0:0:0:0:
416,192,99634,1,8,0:0:0:0:
256,192,99801,1,8,0:0:0:0:
256,192,99968,1,0,0:0:0:0:
256,192,100134,1,0,0:0:0:0:
256,192,100218,1,0,0:0:0:0:
416,192,100301,1,8,0:0:0:0:
256,192,100468,1,8,0:0:0:0:
256,192,100634,1,0,0:0:0:0:
256,192,100801,1,0,0:0:0:0:
416,192,100968,1,8,0:0:0:0:
256,192,101134,1,8,0:0:0:0:
256,192,101301,1,0,0:0:0:0:
256,192,101384,1,0,0:0:0:0:
256,192,101468,1,0,0:0:0:0:
416,192,101634,1,8,0:0:0:0:
256,192,101801,1,8,0:0:0:0:
256,192,101968,1,0,0:0:0:0:
416,192,102301,1,8,0:0:0:0:
256,192,102468,1,0,0:0:0:0:
256,192,102634,1,8,0:0:0:0:
256,192,102718,1,0,0:0:0:0:
256,192,102801,1,0,0:0:0:0:
256,192,102884,1,0,0:0:0:0:
416,192,102968,1,8,0:0:0:0:
256,192,103134,1,0,0:0:0:0:
256,192,103301,1,8,0:0:0:0:
256,192,103384,1,8,0:0:0:0:
256,192,103468,1,0,0:0:0:0:
416,192,103634,1,8,0:0:0:0:
256,192,103968,1,8,0:0:0:0:
256,192,104134,1,0,0:0:0:0:
416,192,104301,1,8,0:0:0:0:
256,192,104468,1,8,0:0:0:0:
256,192,104634,5,4,0:0:0:0:
416,192,104968,1,8,0:0:0:0:
256,192,105134,1,0,0:0:0:0:
256,192,105218,1,0,0:0:0:0:
256,192,105301,1,0,0:0:0:0:
256,192,105468,1,0,0:0:0:0:
416,192,105634,1,8,0:0:0:0:
256,192,105801,1,8,0:0:0:0:
256,192,105968,1,0,0:0:0:0:
256,192,106051,1,0,0:0:0:0:
256,192,106134,1,0,0:0:0:0:
416,192,106301,1,8,0:0:0:0:
256,192,106468,1,0,0:0:0:0:
256,192,106634,1,8,0:0:0:0:
416,192,106968,1,8,0:0:0:0:
256,192,107134,1,0,0:0:0:0:
256,192,107301,1,8,0:0:0:0:
416,192,107634,1,8,0:0:0:0:
256,192,107801,1,8,0:0:0:0:
256,192,107884,1,8,0:0:0:0:
256,192,107968,1,0,0:0:0:0:
256,192,108134,1,0,0:0:0:0:
416,192,108301,1,8,0:0:0:0:
256,192,108468,1,8,0:0:0:0:
256,192,108634,1,0,0:0:0:0:
256,192,108718,1,0,0:0:0:0:
256,192,108801,1,0,0:0:0:0:
416,192,108968,1,8,0:0:0:0:
256,192,109134,1,0,0:0:0:0:
256,192,109301,1,8,0:0:0:0:
416,192,109634,1,8,0:0:0:0:
256,192,109801,1,0,0:0:0:0:
256,192,109968,1,4,0:0:0:0:
416,192,110301,1,8,0:0:0:0:
256,192,110468,1,0,0:0:0:0:
256,192,110634,1,8,0:0:0:0:
256,192,110801,1,0,0:0:0:0:
256,192,110884,1,0,0:0:0:0:
416,192,110968,1,8,0:0:0:0:
256,192,111134,1,8,0:0:0:0:
256,192,111301,1,0,0:0:0:0:
256,192,111384,1,0,0:0:0:0:
256,192,111468,1,0,0:0:0:0:
256,192,111551,1,0,0:0:0:0:
416,192,111634,1,8,0:0:0:0:
256,192,111968,1,8,0:0:0:0:
256,192,112134,1,0,0:0:0:0:
256,192,112218,1,0,0:0:0:0:
416,192,112301,1,8,0:0:0:0:
256,192,112468,1,0,0:0:0:0:
256,192,112634,1,12,0:0:0:0:
256,192,112968,1,0,0:0:0:0:
256,192,113134,1,12,0:0:0:0:
256,192,113468,1,8,0:0:0:0:
256,192,113634,1,0,0:0:0:0:
256,192,113801,1,12,0:0:0:0:
256,192,113968,1,8,0:0:0:0:
256,192,114051,1,0,0:0:0:0:
256,192,114134,1,0,0:0:0:0:
256,192,114301,1,8,0:0:0:0:
256,192,114384,1,0,0:0:0:0:
256,192,114468,1,0,0:0:0:0:
256,192,114634,1,8,0:0:0:0:
256,192,114718,1,0,0:0:0:0:
256,192,114801,1,0,0:0:0:0:
256,192,114884,1,0,0:0:0:0:
256,192,114968,1,8,0:0:0:0:
256,192,115301,5,4,0:0:0:0:
256,192,115634,1,8,0:0:0:0:
256,192,115801,1,0,0:0:0:0:
256,192,115968,1,0,0:0:0:0:
256,192,116134,1,0,0:0:0:0:
256,192,116301,1,8,0:0:0:0:
256,192,116468,1,0,0:0:0:0:
256,192,116801,1,0,0:0:0:0:
256,192,116968,1,8,0:0:0:0:
256,192,117134,1,0,0:0:0:0:
256,192,117301,1,8,0:0:0:0:
256,192,117468,1,0,0:0:0:0:
256,192,117634,1,8,0:0:0:0:
256,192,117718,1,8,0:0:0:0:
256,192,117801,1,8,0:0:0:0:
256,192,117968,1,0,0:0:0:0:
256,192,118134,1,0,0:0:0:0:
256,192,118301,1,8,0:0:0:0:
256,192,118634,1,8,0:0:0:0:
256,192,118801,1,0,0:0:0:0:
256,192,118968,1,8,0:0:0:0:
256,192,119134,1,0,0:0:0:0:
256,192,119468,1,0,0:0:0:0:
256,192,119634,1,8,0:0:0:0:
256,192,119801,1,8,0:0:0:0:
256,192,119968,1,0,0:0:0:0:
256,192,120134,1,0,0:0:0:0:
256,192,120301,1,8,0:0:0:0:
256,192,120384,1,8,0:0:0:0:
256,192,120468,1,8,0:0:0:0:
256,192,120634,1,0,0:0:0:0:
256,192,120801,1,0,0:0:0:0:
256,192,120968,1,8,0:0:0:0:
256,192,121301,1,0,0:0:0:0:
256,192,121468,1,0,0:0:0:0:
256,192,121634,1,8,0:0:0:0:
256,192,121801,1,0,0:0:0:0:
256,192,122134,1,0,0:0:0:0:
256,192,122301,1,8,0:0:0:0:
256,192,122468,1,0,0:0:0:0:
256,192,122551,1,0,0:0:0:0:
256,192,122634,1,8,0:0:0:0:
256,192,122801,1,0,0:0:0:0:
256,192,122968,1,8,0:0:0:0:
256,192,123051,1,8,0:0:0:0:
256,192,123134,1,0,0:0:0:0:
256,192,123301,1,12,0:0:0:0:
256,192,123634,1,8,0:0:0:0:
256,192,123801,1,4,0:0:0:0:
256,192,124134,1,0,0:0:0:0:
256,192,124301,1,12,0:0:0:0:
256,192,125468,1,8,0:0:0:0:
256,192,125634,1,8,0:0:0:0:
256,192,125968,5,4,0:0:0:0:
416,192,126301,1,8,0:0:0:0:
256,192,126468,1,0,0:0:0:0:
256,192,126801,1,0,0:0:0:0:
416,192,126968,1,8,0:0:0:0:
256,192,127134,1,0,0:0:0:0:
256,192,127468,1,0,0:0:0:0:
416,192,127634,1,8,0:0:0:0:
256,192,127801,1,0,0:0:0:0:
256,192,127968,1,0,0:0:0:0:
256,192,128134,1,0,0:0:0:0:
416,192,128301,1,8,0:0:0:0:
256,192,128634,1,0,0:0:0:0:
416,192,128968,1,8,0:0:0:0:
256,192,129134,1,0,0:0:0:0:
256,192,129468,1,8,0:0:0:0:
416,192,129634,1,8,0:0:0:0:
256,192,129801,1,0,0:0:0:0:
256,192,130134,1,0,0:0:0:0:
416,192,130301,1,8,0:0:0:0:
256,192,130468,1,8,0:0:0:0:
256,192,130634,1,0,0:0:0:0:
256,192,130801,1,0,0:0:0:0:
416,192,130968,1,8,0:0:0:0:
256,192,131301,1,0,0:0:0:0:
416,192,131634,1,8,0:0:0:0:
256,192,131968,1,0,0:0:0:0:
256,192,132134,1,0,0:0:0:0:
416,192,132301,1,8,0:0:0:0:
256,192,132634,1,0,0:0:0:0:
416,192,132968,1,8,0:0:0:0:
256,192,133134,1,8,0:0:0:0:
256,192,133301,1,0,0:0:0:0:
256,192,133468,1,0,0:0:0:0:
416,192,133634,1,8,0:0:0:0:
256,192,133968,1,0,0:0:0:0:
416,192,134301,1,8,0:0:0:0:
256,192,134468,1,8,0:0:0:0:
256,192,134634,1,0,0:0:0:0:
416,192,134968,1,8,0:0:0:0:
256,192,135301,1,4,0:0:0:0:
416,192,135634,1,8,0:0:0:0:
256,192,135801,1,8,0:0:0:0:
256,192,135968,1,0,0:0:0:0:
256,192,136134,1,0,0:0:0:0:
416,192,136301,1,8,0:0:0:0:
256,192,136384,1,8,0:0:0:0:
256,192,136468,1,0,0:0:0:0:
256,192,136634,1,4,0:0:0:0:
256,192,136968,1,8,0:0:0:0:
256,192,137134,1,0,0:0:0:0:
256,192,137301,1,0,0:0:0:0:
256,192,137468,1,8,0:0:0:0:
256,192,137634,1,0,0:0:0:0:
256,192,137801,1,8,0:0:0:0:
256,192,138134,1,8,0:0:0:0:
256,192,138301,1,8,0:0:0:0:
256,192,138468,1,0,0:0:0:0:
256,192,138634,1,0,0:0:0:0:
256,192,138801,1,8,0:0:0:0:
256,192,138968,1,0,0:0:0:0:
256,192,139134,1,8,0:0:0:0:
256,192,139301,1,4,0:0:0:0:
256,192,139634,1,8,0:0:0:0:
256,192,139801,1,8,0:0:0:0:
256,192,139968,1,0,0:0:0:0:
256,192,140134,1,8,0:0:0:0:
256,192,140301,1,0,0:0:0:0:
256,192,140468,1,12,0:0:0:0:
256,192,140801,1,8,0:0:0:0:
256,192,140968,1,8,0:0:0:0:
256,192,141134,1,0,0:0:0:0:
256,192,141301,1,0,0:0:0:0:
256,192,141468,1,8,0:0:0:0:
256,192,141551,1,8,0:0:0:0:
256,192,141634,1,8,0:0:0:0:
256,192,141801,1,8,0:0:0:0:
256,192,141968,1,4,0:0:0:0:
416,192,142301,1,8,0:0:0:0:
256,192,142468,1,0,0:0:0:0:
256,192,142634,1,0,0:0:0:0:
256,192,142801,1,0,0:0:0:0:
416,192,142968,1,8,0:0:0:0:
256,192,143301,1,0,0:0:0:0:
256,192,143468,1,8,0:0:0:0:
416,192,143634,1,0,0:0:0:0:
256,192,143801,1,0,0:0:0:0:
256,192,143968,1,8,0:0:0:0:
416,192,144301,1,8,0:0:0:0:
256,192,144468,1,0,0:0:0:0:
256,192,144634,1,4,0:0:0:0:
416,192,144968,1,8,0:0:0:0:
256,192,145134,1,8,0:0:0:0:
256,192,145301,1,0,0:0:0:0:
416,192,145634,1,8,0:0:0:0:
256,192,145801,1,0,0:0:0:0:
256,192,145968,1,12,0:0:0:0:
416,192,146301,1,8,0:0:0:0:
256,192,146468,1,8,0:0:0:0:
256,192,146634,1,0,0:0:0:0:
256,192,146801,1,0,0:0:0:0:
416,192,146968,1,8,0:0:0:0:
256,192,147051,1,8,0:0:0:0:
256,192,147134,1,0,0:0:0:0:
256,192,147301,5,4,0:0:0:0:
256,192,147634,1,8,0:0:0:0:
256,192,148301,1,8,0:0:0:0:
256,192,148968,1,8,0:0:0:0:
256,192,149634,1,8,0:0:0:0:
256,192,149801,1,0,0:0:0:0:
256,192,149968,1,0,0:0:0:0:
256,192,150301,1,8,0:0:0:0:
256,192,150968,1,8,0:0:0:0:
256,192,151134,1,0,0:0:0:0:
256,192,151468,1,0,0:0:0:0:
256,192,151634,1,8,0:0:0:0:
256,192,151801,1,0,0:0:0:0:
256,192,151968,1,0,0:0:0:0:
256,192,152134,1,0,0:0:0:0:
256,192,152301,1,8,0:0:0:0:
256,192,152384,1,8,0:0:0:0:
256,192,152468,1,0,0:0:0:0:
256,192,152634,1,4,0:0:0:0:
256,192,152968,1,8,0:0:0:0:
256,192,153634,1,8,0:0:0:0:
256,192,154301,1,8,0:0:0:0:
256,192,154468,1,0,0:0:0:0:
256,192,154634,1,8,0:0:0:0:
256,192,154968,1,0,0:0:0:0:
256,192,155301,1,8,0:0:0:0:
256,192,155468,1,0,0:0:0:0:
256,192,155634,1,0,0:0:0:0:
256,192,155801,1,8,0:0:0:0:
256,192,155968,1,0,0:0:0:0:
256,192,156134,1,0,0:0:0:0:
256,192,156301,1,8,0:0:0:0:
256,192,156468,1,4,0:0:0:0:
256,192,156801,1,0,0:0:0:0:
256,192,156884,1,0,0:0:0:0:
256,192,156968,1,8,0:0:0:0:
256,192,157134,1,8,0:0:0:0:
256,192,157301,1,0,0:0:0:0:
256,192,157384,1,0,0:0:0:0:
256,192,157468,1,0,0:0:0:0:
256,192,157634,1,8,0:0:0:0:
256,192,157801,1,8,0:0:0:0:
256,192,157968,5,4,0:0:0:0:
256,192,158301,1,8,0:0:0:0:
256,192,158468,1,8,0:0:0:0:
256,192,158551,1,8,0:0:0:0:
256,192,158634,1,0,0:0:0:0:
256,192,158801,1,0,0:0:0:0:
256,192,158968,1,8,0:0:0:0:
256,192,159134,1,4,0:0:0:0:
256,192,159468,1,0,0:0:0:0:
256,192,159634,1,8,0:0:0:0:
256,192,159801,1,8,0:0:0:0:
256,192,159968,1,0,0:0:0:0:
256,192,160134,1,0,0:0:0:0:
256,192,160301,1,8,0:0:0:0:
256,192,160384,1,8,0:0:0:0:
256,192,160468,1,8,0:0:0:0:
256,192,160634,1,4,0:0:0:0:
256,192,160968,1,8,0:0:0:0:
256,192,161134,1,4,0:0:0:0:
256,192,161468,1,0,0:0:0:0:
256,192,161634,1,8,0:0:0:0:
256,192,161801,1,4,0:0:0:0:
256,192,162134,1,0,0:0:0:0:
256,192,162301,1,8,0:0:0:0:
256,192,162468,1,0,0:0:0:0:
256,192,162634,1,8,0:0:0:0:
256,192,162718,1,0,0:0:0:0:
256,192,162801,1,0,0:0:0:0:
256,192,162884,1,0,0:0:0:0:
256,192,162968,1,8,0:0:0:0:
256,192,163134,1,0,0:0:0:0:
256,192,163301,1,4,0:0:0:0:
256,192,163634,1,8,0:0:0:0:
256,192,163718,1,8,0:0:0:0:
256,192,163801,1,0,0:0:0:0:
256,192,163884,1,0,0:0:0:0:
256,192,163968,1,8,0:0:0:0:
256,192,164134,1,8,0:0:0:0:
256,192,164301,1,0,0:0:0:0:
256,192,164384,1,0,0:0:0:0:
256,192,164468,1,0,0:0:0:0:
256,192,164634,5,12,0:0:0:0:
416,192,164967,1,8,0:0:0:0:
256,192,165134,1,0,0:0:0:0:
256,192,165300,1,8,0:0:0:0:
256,192,165467,1,0,0:0:0:0:
256,192,165550,1,0,0:0:0:0:
416,192,165634,1,8,0:0:0:0:
256,192,165800,1,8,0:0:0:0:
256,192,165967,1,0,0:0:0:0:
256,192,166134,1,0,0:0:0:0:
256,192,166217,1,0,0:0:0:0:
416,192,166300,1,8,0:0:0:0:
256,192,166467,1,8,0:0:0:0:
256,192,166634,1,0,0:0:0:0:
256,192,166800,1,0,0:0:0:0:
416,192,166967,1,8,0:0:0:0:
256,192,167134,1,8,0:0:0:0:
256,192,167300,1,0,0:0:0:0:
256,192,167384,1,0,0:0:0:0:
256,192,167467,1,0,0:0:0:0:
256,192,167550,1,0,0:0:0:0:
416,192,167634,1,8,0:0:0:0:
256,192,167800,1,8,0:0:0:0:
256,192,167967,1,0,0:0:0:0:
256,192,168050,1,0,0:0:0:0:
256,192,168134,1,0,0:0:0:0:
416,192,168300,1,8,0:0:0:0:
256,192,168467,1,8,0:0:0:0:
256,192,168634,1,0,0:0:0:0:
416,192,168967,1,8,0:0:0:0:
256,192,169300,1,0,0:0:0:0:
256,192,169467,1,0,0:0:0:0:
416,192,169634,1,8,0:0:0:0:
256,64,169717,1,8,0:0:0:0:
256,192,169800,1,8,0:0:0:0:
256,192,169967,1,4,0:0:0:0:
256,64,170134,1,0,0:0:0:0:
416,192,170300,1,8,0:0:0:0:
256,192,170467,1,8,0:0:0:0:
256,192,170634,1,0,0:0:0:0:
256,192,170800,1,0,0:0:0:0:
256,192,170884,1,0,0:0:0:0:
416,192,170967,1,8,0:0:0:0:
256,192,171134,1,8,0:0:0:0:
256,192,171300,1,0,0:0:0:0:
256,192,171467,1,0,0:0:0:0:
416,192,171634,1,8,0:0:0:0:
256,192,171800,1,8,0:0:0:0:
256,192,171967,1,0,0:0:0:0:
256,192,172050,1,0,0:0:0:0:
256,192,172134,1,0,0:0:0:0:
416,192,172300,1,8,0:0:0:0:
256,192,172467,1,8,0:0:0:0:
256,192,172634,1,0,0:0:0:0:
416,192,172967,1,8,0:0:0:0:
256,192,173134,1,8,0:0:0:0:
256,192,173300,1,0,0:0:0:0:
256,192,173384,1,0,0:0:0:0:
256,192,173467,1,0,0:0:0:0:
256,192,173550,1,0,0:0:0:0:
416,192,173634,1,8,0:0:0:0:
256,192,173800,1,8,0:0:0:0:
256,192,173967,1,0,0:0:0:0:
256,192,174050,1,0,0:0:0:0:
256,192,174134,1,0,0:0:0:0:
416,192,174300,1,8,0:0:0:0:
256,192,174634,1,8,0:0:0:0:
256,192,174800,1,0,0:0:0:0:
416,192,174967,1,8,0:0:0:0:
256,64,175050,1,8,0:0:0:0:
256,192,175134,1,8,0:0:0:0:
256,192,175300,5,4,0:0:0:0:
416,192,175634,1,8,0:0:0:0:
256,192,175800,1,0,0:0:0:0:
256,192,175884,1,0,0:0:0:0:
256,192,175967,1,0,0:0:0:0:
256,192,176134,1,0,0:0:0:0:
416,192,176300,1,8,0:0:0:0:
256,192,176467,1,8,0:0:0:0:
256,192,176634,1,0,0:0:0:0:
256,192,176717,1,0,0:0:0:0:
256,192,176800,1,0,0:0:0:0:
416,192,176967,1,8,0:0:0:0:
256,192,177134,1,0,0:0:0:0:
256,192,177300,1,8,0:0:0:0:
416,192,177634,1,8,0:0:0:0:
256,192,177800,1,0,0:0:0:0:
256,64,177884,1,0,0:0:0:0:
256,192,177967,1,8,0:0:0:0:
256,64,178134,1,0,0:0:0:0:
416,192,178300,1,8,0:0:0:0:
256,192,178467,1,8,0:0:0:0:
256,192,178550,1,8,0:0:0:0:
256,192,178633,1,0,0:0:0:0:
256,192,178800,1,0,0:0:0:0:
416,192,178967,1,8,0:0:0:0:
256,192,179133,1,8,0:0:0:0:
256,192,179300,1,0,0:0:0:0:
256,192,179383,1,0,0:0:0:0:
256,192,179467,1,0,0:0:0:0:
416,192,179633,1,8,0:0:0:0:
256,192,179967,1,8,0:0:0:0:
256,192,180133,1,0,0:0:0:0:
416,192,180300,1,8,0:0:0:0:
256,64,180383,1,8,0:0:0:0:
256,192,180467,1,8,0:0:0:0:
256,192,180633,1,4,0:0:0:0:
256,64,180800,1,0,0:0:0:0:
416,192,180967,1,8,0:0:0:0:
256,192,181133,1,8,0:0:0:0:
256,192,181300,1,0,0:0:0:0:
256,192,181467,1,0,0:0:0:0:
256,192,181550,1,0,0:0:0:0:
416,192,181633,1,8,0:0:0:0:
256,192,181800,1,0,0:0:0:0:
256,192,181967,1,8,0:0:0:0:
256,192,182050,1,8,0:0:0:0:
256,192,182133,1,0,0:0:0:0:
256,192,182217,1,0,0:0:0:0:
416,192,182300,1,8,0:0:0:0:
256,192,182633,1,8,0:0:0:0:
256,192,182800,1,0,0:0:0:0:
256,192,182883,1,0,0:0:0:0:
416,192,182967,1,8,0:0:0:0:
256,192,183133,1,8,0:0:0:0:
256,192,183300,1,0,0:0:0:0:
256,192,183383,1,0,0:0:0:0:
256,192,183467,1,0,0:0:0:0:
256,192,183550,1,0,0:0:0:0:
416,192,183633,1,8,0:0:0:0:
256,192,183800,1,8,0:0:0:0:
256,192,183967,1,0,0:0:0:0:
256,192,184050,1,0,0:0:0:0:
256,192,184133,1,0,0:0:0:0:
416,192,184300,1,12,0:0:0:0:
256,192,184633,1,0,0:0:0:0:
256,192,184800,1,0,0:0:0:0:
416,192,184967,1,8,0:0:0:0:
256,192,185133,1,0,0:0:0:0:
256,192,185217,1,0,0:0:0:0:
256,192,185300,1,0,0:0:0:0:
256,192,185467,1,0,0:0:0:0:
416,192,185633,1,8,0:0:0:0:
256,192,185717,1,8,0:0:0:0:
256,192,185800,1,8,0:0:0:0:
256,192,185967,5,4,0:0:0:0:
416,192,186300,1,8,0:0:0:0:
256,192,186467,1,0,0:0:0:0:
256,192,186633,1,8,0:0:0:0:
256,192,186800,1,0,0:0:0:0:
256,192,186883,1,0,0:0:0:0:
416,192,186967,1,8,0:0:0:0:
256,192,187133,1,8,0:0:0:0:
256,192,187300,1,0,0:0:0:0:
256,192,187467,1,0,0:0:0:0:
256,192,187550,1,0,0:0:0:0:
416,192,187633,1,8,0:0:0:0:
256,192,187800,1,8,0:0:0:0:
256,192,187967,1,0,0:0:0:0:
256,192,188133,1,0,0:0:0:0:
416,192,188300,1,8,0:0:0:0:
256,192,188467,1,8,0:0:0:0:
256,192,188633,1,0,0:0:0:0:
256,192,188717,1,0,0:0:0:0:
256,192,188800,1,0,0:0:0:0:
256,192,188883,1,0,0:0:0:0:
416,192,188967,1,8,0:0:0:0:
256,192,189133,1,8,0:0:0:0:
256,192,189300,1,8,0:0:0:0:
256,192,189383,1,8,0:0:0:0:
256,192,189467,1,8,0:0:0:0:
416,192,189633,1,8,0:0:0:0:
256,192,189800,1,8,0:0:0:0:
256,192,189967,1,0,0:0:0:0:
416,192,190300,1,8,0:0:0:0:
256,192,190633,1,0,0:0:0:0:
256,192,190800,1,0,0:0:0:0:
416,192,190967,1,8,0:0:0:0:
256,64,191050,1,8,0:0:0:0:
256,192,191133,1,8,0:0:0:0:
256,192,191300,1,4,0:0:0:0:
256,64,191467,1,0,0:0:0:0:
416,192,191633,1,8,0:0:0:0:
256,192,191800,1,8,0:0:0:0:
256,192,191967,1,0,0:0:0:0:
256,192,192133,1,0,0:0:0:0:
256,192,192217,1,0,0:0:0:0:
416,192,192300,1,8,0:0:0:0:
256,192,192467,1,8,0:0:0:0:
256,192,192633,1,0,0:0:0:0:
256,192,192800,1,0,0:0:0:0:
416,192,192967,1,8,0:0:0:0:
256,192,193133,1,8,0:0:0:0:
256,192,193300,1,0,0:0:0:0:
256,192,193383,1,0,0:0:0:0:
256,192,193467,1,0,0:0:0:0:
416,192,193633,1,8,0:0:0:0:
256,192,193800,1,8,0:0:0:0:
256,192,193967,1,0,0:0:0:0:
416,192,194300,1,8,0:0:0:0:
256,192,194467,1,0,0:0:0:0:
256,192,194633,1,8,0:0:0:0:
256,192,194717,1,8,0:0:0:0:
256,192,194800,1,0,0:0:0:0:
256,192,194883,1,0,0:0:0:0:
416,192,194967,1,8,0:0:0:0:
256,192,195133,1,0,0:0:0:0:
256,192,195300,1,8,0:0:0:0:
256,192,195383,1,8,0:0:0:0:
256,192,195467,1,0,0:0:0:0:
416,192,195633,1,8,0:0:0:0:
256,192,195967,1,8,0:0:0:0:
256,192,196133,1,0,0:0:0:0:
416,192,196300,1,8,0:0:0:0:
256,192,196467,1,8,0:0:0:0:
256,192,196633,5,4,0:0:0:0:
416,192,196967,1,8,0:0:0:0:
256,192,197133,1,0,0:0:0:0:
256,192,197217,1,0,0:0:0:0:
256,192,197300,1,0,0:0:0:0:
256,192,197467,1,0,0:0:0:0:
416,192,197633,1,8,0:0:0:0:
256,192,197800,1,8,0:0:0:0:
256,192,197967,1,0,0:0:0:0:
256,192,198050,1,0,0:0:0:0:
256,192,198133,1,0,0:0:0:0:
416,192,198300,1,8,0:0:0:0:
256,192,198467,1,0,0:0:0:0:
256,192,198633,1,8,0:0:0:0:
416,192,198967,1,8,0:0:0:0:
256,192,199133,1,0,0:0:0:0:
256,192,199300,1,8,0:0:0:0:
416,192,199633,1,8,0:0:0:0:
256,192,199800,1,8,0:0:0:0:
256,192,199883,1,8,0:0:0:0:
256,192,199967,1,0,0:0:0:0:
256,192,200133,1,0,0:0:0:0:
416,192,200300,1,8,0:0:0:0:
256,192,200467,1,8,0:0:0:0:
256,192,200633,1,0,0:0:0:0:
256,192,200717,1,0,0:0:0:0:
256,192,200800,1,0,0:0:0:0:
416,192,200967,1,8,0:0:0:0:
256,192,201133,1,0,0:0:0:0:
256,192,201300,1,8,0:0:0:0:
416,192,201633,1,8,0:0:0:0:
256,192,201800,1,8,0:0:0:0:
256,192,201967,1,4,0:0:0:0:
256,64,202133,1,0,0:0:0:0:
416,192,202300,1,8,0:0:0:0:
256,192,202467,1,8,0:0:0:0:
256,192,202633,1,0,0:0:0:0:
256,192,202800,1,0,0:0:0:0:
256,192,202883,1,0,0:0:0:0:
416,192,202967,1,8,0:0:0:0:
256,192,203133,1,8,0:0:0:0:
256,192,203300,1,0,0:0:0:0:
256,192,203383,1,0,0:0:0:0:
256,192,203467,1,0,0:0:0:0:
256,192,203550,1,0,0:0:0:0:
416,192,203633,1,8,0:0:0:0:
256,192,203967,1,8,0:0:0:0:
256,192,204133,1,0,0:0:0:0:
256,192,204217,1,0,0:0:0:0:
416,192,204300,1,8,0:0:0:0:
256,192,204467,1,0,0:0:0:0:
256,192,204633,1,12,0:0:0:0:
256,192,204967,1,0,0:0:0:0:
256,192,205133,1,12,0:0:0:0:
256,192,205467,1,8,0:0:0:0:
256,192,205633,1,0,0:0:0:0:
256,192,205800,1,12,0:0:0:0:
256,192,205967,1,8,0:0:0:0:
256,192,206050,1,0,0:0:0:0:
256,192,206133,1,0,0:0:0:0:
256,192,206300,1,8,0:0:0:0:
256,192,206383,1,0,0:0:0:0:
256,192,206467,1,0,0:0:0:0:
256,192,206633,1,8,0:0:0:0:
256,192,206717,1,0,0:0:0:0:
256,192,206800,1,0,0:0:0:0:
256,192,206883,1,0,0:0:0:0:
256,192,206967,1,8,0:0:0:0:
256,192,207133,1,0,0:0:0:0:
256,192,207300,5,12,0:0:0:0:
256,192,207467,1,12,0:0:0:0:
256,192,207633,1,12,0:0:0:0:
256,192,207967,1,8,0:0:0:0:
256,192,208133,1,0,0:0:0:0:
256,192,208300,1,0,0:0:0:0:
256,192,208467,1,12,0:0:0:0:
256,192,208800,1,0,0:0:0:0:
256,192,208883,1,0,0:0:0:0:
256,192,208967,1,8,0:0:0:0:
256,192,209133,1,8,0:0:0:0:
256,192,209300,1,0,0:0:0:0:
256,192,209467,1,0,0:0:0:0:
256,192,209550,1,0,0:0:0:0:
256,192,209633,1,8,0:0:0:0:
256,192,209717,1,8,0:0:0:0:
256,192,209800,1,0,0:0:0:0:
256,192,209967,1,4,0:0:0:0:
256,192,210133,1,4,0:0:0:0:
256,192,210300,1,4,0:0:0:0:
256,192,210800,1,0,0:0:0:0:
256,192,210967,1,8,0:0:0:0:
256,192,211133,1,4,0:0:0:0:
256,192,211467,1,0,0:0:0:0:
256,192,211550,1,0,0:0:0:0:
256,192,211633,1,8,0:0:0:0:
256,192,211800,1,8,0:0:0:0:
256,192,211967,1,0,0:0:0:0:
256,192,212133,1,0,0:0:0:0:
256,192,212300,1,8,0:0:0:0:
256,192,212383,1,8,0:0:0:0:
256,192,212467,1,0,0:0:0:0:
256,192,212633,1,4,0:0:0:0:
416,192,212967,1,8,0:0:0:0:
256,192,213133,1,8,0:0:0:0:
256,192,213217,1,8,0:0:0:0:
256,192,213300,1,8,0:0:0:0:
256,192,213467,1,0,0:0:0:0:
416,192,213633,1,8,0:0:0:0:
256,192,213800,1,0,0:0:0:0:
256,192,213967,1,8,0:0:0:0:
256,192,214050,1,0,0:0:0:0:
256,192,214133,1,0,0:0:0:0:
256,192,214217,1,0,0:0:0:0:
416,192,214300,1,8,0:0:0:0:
256,192,214467,1,8,0:0:0:0:
256,192,214633,1,0,0:0:0:0:
256,192,214800,1,8,0:0:0:0:
256,192,214883,1,8,0:0:0:0:
416,192,214967,1,0,0:0:0:0:
256,192,215133,1,0,0:0:0:0:
256,192,215300,1,12,0:0:0:0:
416,192,215633,1,8,0:0:0:0:
256,192,215800,1,0,0:0:0:0:
256,192,215883,1,0,0:0:0:0:
256,192,215967,1,8,0:0:0:0:
256,192,216133,1,0,0:0:0:0:
416,192,216300,1,8,0:0:0:0:
256,192,216467,1,8,0:0:0:0:
256,192,216633,1,4,0:0:0:0:
256,192,216800,1,0,0:0:0:0:
256,192,216883,1,0,0:0:0:0:
416,192,216967,1,8,0:0:0:0:
256,192,217133,1,0,0:0:0:0:
256,192,217217,1,0,0:0:0:0:
256,192,217300,1,8,0:0:0:0:
256,192,217383,1,8,0:0:0:0:
256,192,217467,1,0,0:0:0:0:
256,192,217550,1,0,0:0:0:0:
416,192,217633,1,8,0:0:0:0:
256,192,217800,1,0,0:0:0:0:
256,192,217967,1,12,0:0:0:0:
256,192,218133,12,0,219133,0:0:0:0:
256,192,219300,5,4,0:0:0:0:
256,192,220633,1,8,0:0:0:0:
256,192,221966,1,0,0:0:0:0:
256,192,222633,1,8,0:0:0:0:
256,192,223300,1,0,0:0:0:0:
256,192,224633,1,0,0:0:0:0:
256,192,225300,1,0,0:0:0:0:
256,192,225633,1,0,0:0:0:0:
256,192,225966,1,8,0:0:0:0:
256,192,226633,1,0,0:0:0:0:
256,192,226800,1,12,0:0:0:0:
256,192,227300,1,4,0:0:0:0:
256,192,227633,1,8,0:0:0:0:
256,192,227800,1,0,0:0:0:0:
256,192,227966,1,4,0:0:0:0:
256,192,228133,1,0,0:0:0:0:
256,192,228216,1,0,0:0:0:0:
256,192,228300,1,8,0:0:0:0:
256,192,228466,1,8,0:0:0:0:
256,192,228633,1,4,0:0:0:0:
256,192,228800,1,0,0:0:0:0:
256,192,228966,1,12,0:0:0:0:
256,192,229133,1,0,0:0:0:0:
256,192,229300,1,8,0:0:0:0:
256,192,229383,1,8,0:0:0:0:
256,192,229466,1,0,0:0:0:0:
256,192,229550,1,0,0:0:0:0:
256,192,229633,1,8,0:0:0:0:
256,192,229800,1,0,0:0:0:0:
256,192,229966,5,12,0:0:0:0:
416,192,230300,1,8,0:0:0:0:
256,192,230466,1,0,0:0:0:0:
256,192,230550,1,0,0:0:0:0:
256,192,230633,1,0,0:0:0:0:
256,192,230800,1,0,0:0:0:0:
416,192,230966,1,8,0:0:0:0:
256,192,231133,1,8,0:0:0:0:
256,192,231300,1,0,0:0:0:0:
256,192,231383,1,0,0:0:0:0:
256,192,231466,1,0,0:0:0:0:
256,64,231550,1,0,0:0:0:0:
416,192,231633,1,8,0:0:0:0:
256,192,231800,1,0,0:0:0:0:
256,192,231966,1,8,0:0:0:0:
416,192,232300,1,8,0:0:0:0:
256,192,232466,1,0,0:0:0:0:
256,64,232550,1,0,0:0:0:0:
256,192,232633,1,8,0:0:0:0:
256,64,232800,1,0,0:0:0:0:
416,192,232966,1,8,0:0:0:0:
256,192,233133,1,8,0:0:0:0:
256,192,233216,1,8,0:0:0:0:
256,192,233300,1,0,0:0:0:0:
256,192,233466,1,0,0:0:0:0:
416,192,233633,1,8,0:0:0:0:
256,192,233800,1,8,0:0:0:0:
256,192,233966,1,0,0:0:0:0:
256,192,234050,1,0,0:0:0:0:
256,192,234133,1,0,0:0:0:0:
256,64,234216,1,0,0:0:0:0:
416,192,234300,1,8,0:0:0:0:
256,192,234633,1,8,0:0:0:0:
256,192,234800,1,0,0:0:0:0:
416,192,234966,1,8,0:0:0:0:
256,64,235050,1,8,0:0:0:0:
256,192,235133,1,8,0:0:0:0:
256,192,235300,1,4,0:0:0:0:
256,64,235466,1,0,0:0:0:0:
416,192,235633,1,8,0:0:0:0:
256,192,235800,1,8,0:0:0:0:
256,192,235966,1,0,0:0:0:0:
256,192,236133,1,0,0:0:0:0:
256,192,236216,1,0,0:0:0:0:
416,192,236300,1,8,0:0:0:0:
256,192,236466,1,0,0:0:0:0:
256,192,236633,1,8,0:0:0:0:
256,192,236716,1,8,0:0:0:0:
256,192,236800,1,0,0:0:0:0:
256,192,236883,1,0,0:0:0:0:
416,192,236966,1,8,0:0:0:0:
256,64,237133,1,0,0:0:0:0:
256,192,237300,1,8,0:0:0:0:
256,192,237466,1,0,0:0:0:0:
256,192,237550,1,0,0:0:0:0:
416,192,237633,1,8,0:0:0:0:
256,192,237800,1,8,0:0:0:0:
256,192,237966,1,0,0:0:0:0:
256,192,238050,1,0,0:0:0:0:
256,192,238133,1,0,0:0:0:0:
256,192,238216,1,0,0:0:0:0:
416,192,238300,1,8,0:0:0:0:
256,192,238466,1,8,0:0:0:0:
256,192,238633,1,0,0:0:0:0:
256,192,238716,1,0,0:0:0:0:
256,192,238800,1,0,0:0:0:0:
416,192,238966,1,12,0:0:0:0:
256,192,239300,1,0,0:0:0:0:
256,192,239466,1,0,0:0:0:0:
416,192,239633,1,8,0:0:0:0:
256,192,239800,1,0,0:0:0:0:
256,192,239883,1,0,0:0:0:0:
256,192,239966,1,0,0:0:0:0:
256,192,240133,1,0,0:0:0:0:
416,192,240300,1,8,0:0:0:0:
256,192,240383,1,8,0:0:0:0:
256,192,240466,1,8,0:0:0:0:
256,192,240633,5,4,0:0:0:0:
416,192,240966,1,8,0:0:0:0:
256,192,241133,1,0,0:0:0:0:
256,64,241216,1,0,0:0:0:0:
256,192,241299,1,8,0:0:0:0:
256,192,241466,1,8,0:0:0:0:
256,192,241549,1,8,0:0:0:0:
416,192,241633,1,8,0:0:0:0:
256,192,241799,1,8,0:0:0:0:
256,192,241966,1,0,0:0:0:0:
256,192,242133,1,0,0:0:0:0:
256,192,242216,1,0,0:0:0:0:
416,192,242299,1,8,0:0:0:0:
256,192,242466,1,8,0:0:0:0:
256,192,242633,1,0,0:0:0:0:
256,192,242799,1,0,0:0:0:0:
256,64,242883,1,0,0:0:0:0:
416,192,242966,1,8,0:0:0:0:
256,192,243133,1,8,0:0:0:0:
256,192,243299,1,0,0:0:0:0:
256,192,243383,1,0,0:0:0:0:
256,192,243466,1,0,0:0:0:0:
256,192,243549,1,0,0:0:0:0:
416,192,243633,1,8,0:0:0:0:
256,192,243799,1,8,0:0:0:0:
256,192,243966,1,8,0:0:0:0:
256,192,244049,1,8,0:0:0:0:
256,192,244133,1,0,0:0:0:0:
416,192,244299,1,8,0:0:0:0:
256,192,244466,1,8,0:0:0:0:
256,192,244633,1,0,0:0:0:0:
256,64,244716,1,0,0:0:0:0:
256,64,244799,1,0,0:0:0:0:
416,192,244966,1,8,0:0:0:0:
256,192,245299,1,8,0:0:0:0:
256,192,245466,1,0,0:0:0:0:
416,192,245633,1,8,0:0:0:0:
256,64,245716,1,8,0:0:0:0:
256,192,245799,1,8,0:0:0:0:
256,192,245966,1,4,0:0:0:0:
256,64,246133,1,0,0:0:0:0:
416,192,246299,1,8,0:0:0:0:
256,192,246466,1,8,0:0:0:0:
256,192,246633,1,0,0:0:0:0:
256,192,246799,1,0,0:0:0:0:
256,192,246883,1,0,0:0:0:0:
416,192,246966,1,8,0:0:0:0:
256,64,247049,1,8,0:0:0:0:
256,192,247133,1,0,0:0:0:0:
256,192,247299,1,0,0:0:0:0:
256,192,247466,1,0,0:0:0:0:
256,64,247549,1,0,0:0:0:0:
416,192,247633,1,8,0:0:0:0:
256,192,247799,1,8,0:0:0:0:
256,192,247966,1,0,0:0:0:0:
256,192,248049,1,0,0:0:0:0:
256,192,248133,1,0,0:0:0:0:
416,192,248299,1,8,0:0:0:0:
256,192,248466,1,8,0:0:0:0:
256,192,248633,1,0,0:0:0:0:
256,64,248799,1,0,0:0:0:0:
416,192,248966,1,8,0:0:0:0:
256,192,249133,1,0,0:0:0:0:
256,192,249299,1,8,0:0:0:0:
256,192,249383,1,0,0:0:0:0:
256,192,249466,1,0,0:0:0:0:
256,192,249549,1,0,0:0:0:0:
416,192,249633,1,8,0:0:0:0:
256,192,249799,1,0,0:0:0:0:
256,192,249966,1,8,0:0:0:0:
256,192,250049,1,8,0:0:0:0:
256,192,250133,1,0,0:0:0:0:
416,192,250299,1,8,0:0:0:0:
256,192,250633,1,8,0:0:0:0:
256,192,250799,1,0,0:0:0:0:
256,64,250883,1,0,0:0:0:0:
416,192,250966,1,8,0:0:0:0:
256,192,251133,1,8,0:0:0:0:
256,192,251299,5,4,0:0:0:0:
256,64,251466,1,0,0:0:0:0:
416,192,251633,1,8,0:0:0:0:
256,192,251799,1,0,0:0:0:0:
256,192,251883,1,0,0:0:0:0:
256,192,251966,1,0,0:0:0:0:
256,192,252133,1,0,0:0:0:0:
416,192,252299,1,8,0:0:0:0:
256,192,252466,1,8,0:0:0:0:
256,192,252633,1,0,0:0:0:0:
256,192,252716,1,0,0:0:0:0:
256,192,252799,1,0,0:0:0:0:
256,64,252883,1,0,0:0:0:0:
416,192,252966,1,8,0:0:0:0:
256,192,253133,1,0,0:0:0:0:
256,192,253299,1,8,0:0:0:0:
416,192,253633,1,8,0:0:0:0:
256,192,253799,1,0,0:0:0:0:
256,64,253883,1,0,0:0:0:0:
256,192,253966,1,8,0:0:0:0:
256,64,254133,1,0,0:0:0:0:
416,192,254299,1,8,0:0:0:0:
256,192,254466,1,8,0:0:0:0:
256,192,254549,1,8,0:0:0:0:
256,192,254633,1,0,0:0:0:0:
256,192,254799,1,0,0:0:0:0:
416,192,254966,1,8,0:0:0:0:
256,192,255133,1,8,0:0:0:0:
256,192,255299,1,0,0:0:0:0:
256,192,255383,1,0,0:0:0:0:
256,192,255466,1,0,0:0:0:0:
256,64,255549,1,0,0:0:0:0:
416,192,255633,1,8,0:0:0:0:
256,192,255799,1,0,0:0:0:0:
256,192,255966,1,8,0:0:0:0:
416,192,256299,1,8,0:0:0:0:
256,192,256466,1,8,0:0:0:0:
256,192,256633,1,4,0:0:0:0:
256,64,256799,1,0,0:0:0:0:
256,64,256883,1,0,0:0:0:0:
416,192,256966,1,8,0:0:0:0:
256,192,257133,1,8,0:0:0:0:
256,192,257299,1,0,0:0:0:0:
256,192,257466,1,0,0:0:0:0:
256,192,257549,1,0,0:0:0:0:
416,192,257633,1,8,0:0:0:0:
256,192,257799,1,8,0:0:0:0:
256,192,257966,1,0,0:0:0:0:
256,192,258049,1,0,0:0:0:0:
256,192,258133,1,0,0:0:0:0:
256,192,258216,1,0,0:0:0:0:
416,192,258299,1,8,0:0:0:0:
256,64,258466,1,8,0:0:0:0:
256,192,258633,1,0,0:0:0:0:
256,192,258799,1,0,0:0:0:0:
256,192,258883,1,0,0:0:0:0:
416,192,258966,1,8,0:0:0:0:
256,192,259133,1,0,0:0:0:0:
256,192,259299,1,12,0:0:0:0:
256,192,259633,1,0,0:0:0:0:
256,192,259799,1,12,0:0:0:0:
256,192,260133,1,8,0:0:0:0:
256,192,260299,1,0,0:0:0:0:
256,192,260466,1,12,0:0:0:0:
256,192,260633,1,8,0:0:0:0:
256,192,260716,1,0,0:0:0:0:
256,192,260799,1,0,0:0:0:0:
256,192,260966,1,8,0:0:0:0:
256,192,261049,1,0,0:0:0:0:
256,192,261133,1,0,0:0:0:0:
256,192,261299,1,8,0:0:0:0:
256,192,261383,1,0,0:0:0:0:
256,192,261466,1,0,0:0:0:0:
256,192,261549,1,0,0:0:0:0:
256,192,261633,1,8,0:0:0:0:
256,192,261966,5,4,0:0:0:0:
256,192,262299,1,8,0:0:0:0:
256,192,262466,1,0,0:0:0:0:
256,64,262549,1,0,0:0:0:0:
256,192,262633,1,0,0:0:0:0:
256,192,262799,1,0,0:0:0:0:
256,192,262966,1,8,0:0:0:0:
256,192,263133,1,0,0:0:0:0:
256,64,263299,1,0,0:0:0:0:
256,192,263466,1,0,0:0:0:0:
256,64,263549,1,0,0:0:0:0:
256,192,263633,1,8,0:0:0:0:
256,192,263799,1,0,0:0:0:0:
256,192,263966,1,8,0:0:0:0:
256,192,264133,1,0,0:0:0:0:
256,192,264299,1,8,0:0:0:0:
256,192,264383,1,8,0:0:0:0:
256,192,264466,1,8,0:0:0:0:
256,192,264633,1,0,0:0:0:0:
256,192,264799,1,0,0:0:0:0:
256,192,264966,1,8,0:0:0:0:
256,192,265299,1,8,0:0:0:0:
256,192,265466,1,0,0:0:0:0:
256,64,265549,1,0,0:0:0:0:
256,192,265633,1,8,0:0:0:0:
256,192,265799,1,8,0:0:0:0:
256,64,265966,1,0,0:0:0:0:
256,192,266133,1,0,0:0:0:0:
256,192,266299,1,8,0:0:0:0:
256,192,266466,1,8,0:0:0:0:
256,64,266549,1,8,0:0:0:0:
256,192,266633,1,0,0:0:0:0:
256,192,266799,1,0,0:0:0:0:
256,192,266966,1,8,0:0:0:0:
256,192,267049,1,8,0:0:0:0:
256,192,267133,1,8,0:0:0:0:
256,192,267299,1,0,0:0:0:0:
256,192,267466,1,0,0:0:0:0:
256,192,267633,1,8,0:0:0:0:
256,192,267966,1,0,0:0:0:0:
256,192,268133,1,0,0:0:0:0:
256,64,268216,1,0,0:0:0:0:
256,192,268299,1,8,0:0:0:0:
256,192,268466,1,0,0:0:0:0:
256,192,268799,1,0,0:0:0:0:
256,192,268966,1,8,0:0:0:0:
256,192,269133,1,0,0:0:0:0:
256,192,269216,1,0,0:0:0:0:
256,192,269299,1,8,0:0:0:0:
256,192,269466,1,0,0:0:0:0:
256,192,269633,1,8,0:0:0:0:
256,192,269716,1,8,0:0:0:0:
256,192,269799,1,0,0:0:0:0:
256,192,269966,1,12,0:0:0:0:
256,192,270299,1,8,0:0:0:0:
256,192,270466,1,4,0:0:0:0:
256,192,270799,1,0,0:0:0:0:
256,192,270966,1,12,0:0:0:0:
256,192,272133,1,0,0:0:0:0:
256,192,272299,1,8,0:0:0:0:
256,192,272716,1,4,0:0:0:0:
256,192,272882,12,0,282049,0:0:0:0:
