osu file format v14

[General]
AudioFilename: audio.mp3
AudioLeadIn: 0
PreviewTime:71582
Countdown: 0
SampleSet: Soft
StackLeniency: 0.7
Mode: 0
LetterboxInBreaks: 1
WidescreenStoryboard: 0

[Editor]
Bookmarks: 33996,48162,197496
DistanceSpacing: 1.4
BeatDivisor: 4
GridSize: 4
TimelineZoom: 2.1

[Metadata]
Title:Koiiro Iris
TitleUnicode:こいいろアイリス
Artist:Komichi Aya (CV: Taneda Risa)
ArtistUnicode:小路 綾 (CV: 種田 梨沙)
Creator:Sotarks
Version:r1ngochan's hAarD!!
Source:ハロー!!きんいろモザイク
Tags:hello!! kiniro mosaic kinmoza character song music palette 2 きんモザ kawaiwkyik rizia appleeaterx mint japanese female vocals vocalist jpop j-pop pop golden anime ayaya kowari kin-iro kinmosa season two
BeatmapID:3383145
BeatmapSetID:1657501

[Difficulty]
HPDrainRate:5
CircleSize:3.8
OverallDifficulty:6.5
ApproachRate:8
SliderMultiplier:0.999999999999999
SliderTickRate:1

[Events]
//Background and Video events
0,0,"bg.jpg",0,0
//Break Periods
2,115529,122129
2,219529,225462
//Storyboard Layer 0 (Background)
//Storyboard Layer 1 (Fail)
//Storyboard Layer 2 (Pass)
//Storyboard Layer 3 (Foreground)
//Storyboard Layer 4 (Overlay)
//Storyboard Sound Samples

[TimingPoints]
663,333.333333333333,4,2,0,100,1,0
1996,-100,4,2,0,50,0,0
22996,-76.9230769230769,4,2,0,50,0,0
23329,-76.9230769230769,4,2,0,70,0,0
32329,-76.9230769230769,4,2,0,70,0,0
33996,-76.9230769230769,4,2,0,60,0,0
44662,-83.3333333333333,4,2,0,60,0,0
49746,-83.3333333333333,4,2,0,40,0,0
49996,-76.9230769230769,4,2,0,60,0,0
54662,-76.9230769230769,4,2,0,40,0,0
55329,-90.9090909090909,4,2,0,40,0,0
63329,-76.9230769230769,4,2,0,60,0,0
65996,-76.9230769230769,4,2,0,60,0,0
70746,-76.9230769230769,4,2,0,55,0,0
70829,-76.9230769230769,4,2,0,50,0,0
70912,-76.9230769230769,4,2,0,45,0,0
70996,-76.9230769230769,4,2,0,40,0,0
71079,-76.9230769230769,4,2,0,35,0,0
71162,-76.9230769230769,4,2,0,30,0,0
71329,-76.9230769230769,4,2,0,60,0,0
72662,-72.992700729927,4,2,0,80,0,1
72746,-72.992700729927,4,2,0,80,0,1
93912,-76.9230769230769,4,2,0,80,0,0
93996,-72.992700729927,4,2,0,80,0,1
113996,-72.992700729927,4,2,0,60,0,1
115329,-76.9230769230769,4,2,0,60,0,0
124329,-76.9230769230769,4,2,0,60,0,0
125496,-76.9230769230769,4,2,0,60,0,0
125996,-76.9230769230769,4,2,0,60,0,0
136662,-83.3333333333333,4,2,0,60,0,0
141996,-76.9230769230769,4,2,0,60,0,0
146662,-76.9230769230769,4,2,0,40,0,0
147329,-90.9090909090909,4,2,0,40,0,0
154496,-90.9090909090909,4,2,0,60,0,0
155329,-76.9230769230769,4,2,0,60,0,0
156496,-76.9230769230769,4,2,0,60,0,0
157996,-76.9230769230769,4,2,0,60,0,0
162746,-76.9230769230769,4,2,0,55,0,0
162829,-76.9230769230769,4,2,0,50,0,0
162912,-76.9230769230769,4,2,0,45,0,0
162996,-76.9230769230769,4,2,0,40,0,0
163079,-76.9230769230769,4,2,0,35,0,0
163162,-76.9230769230769,4,2,0,30,0,0
163329,-76.9230769230769,4,2,0,60,0,0
163829,-76.9230769230769,4,2,0,30,0,0
163996,-76.9230769230769,4,2,0,40,0,0
164162,-76.9230769230769,4,2,0,50,0,0
164329,-76.9230769230769,4,2,0,60,0,0
164496,-76.9230769230769,4,2,0,70,0,0
164662,-72.992700729927,4,2,0,80,0,1
164746,-72.992700729927,4,2,0,80,0,1
185912,-72.992700729927,4,2,0,80,0,0
185996,-72.992700729927,4,2,0,80,0,1
207329,-76.9230769230769,4,2,0,80,0,0
217996,-83.3333333333333,4,2,0,80,0,0
219329,-76.9230769230769,4,2,0,60,0,0
224662,-76.9230769230769,4,2,0,40,0,0
226829,-90.9090909090909,4,2,0,60,0,0
227329,-90.9090909090909,4,2,0,60,0,0
228662,-80,4,2,0,60,0,0
229329,-90.9090909090909,4,2,0,60,0,0
229996,-72.992700729927,4,2,0,80,0,1
230079,-72.992700729927,4,2,0,80,0,1
261996,-76.9230769230769,4,2,0,80,0,0
270996,-133.333333333333,4,2,0,80,0,0
272723,333.333333333333,4,2,0,80,1,0
277056,-100,4,2,0,5,0,0
280662,-133.333333333333,4,2,0,5,0,0

[Colours]
Combo1 : 223,228,152
Combo2 : 201,33,46
Combo3 : 244,176,197
Combo4 : 215,223,47

[HitObjects]
95,352,1996,6,0,P|90:308|77:251,1,99.9999999999999,4|2,0:1|3:2,0:0:0:0:
142,206,2496,1,0,0:0:0:0:
142,206,2662,2,0,P|147:162|160:105,2,99.9999999999999,0|2|0,3:0|3:2|3:0,0:0:0:0:
279,123,3662,1,2,3:2:0:0:
204,265,3996,2,0,P|212:308|214:323,1,50,0|0,3:0|0:0,0:0:0:0:
293,312,4329,2,0,P|285:355|283:370,1,50,2|0,3:2|0:0,0:0:0:0:
363,352,4662,6,0,P|394:344|478:331,1,99.9999999999999,0|0,3:0|0:0,0:0:0:0:
432,257,5162,1,0,0:0:0:0:
432,257,5329,2,0,P|452:216|449:157,1,99.9999999999999,0|2,3:0|3:2,0:0:0:0:
309,87,5996,2,0,P|289:128|292:187,1,99.9999999999999,0|2,3:0|3:2,0:0:0:0:
251,251,6496,1,0,0:0:0:0:
187,203,6662,2,0,P|137:193|77:183,1,99.9999999999999,0|2,3:2|3:2,0:0:0:0:
23,38,7329,6,0,P|73:48|133:58,1,99.9999999999999,0|2,3:0|3:2,0:0:0:0:
190,97,7829,1,0,0:0:0:0:
190,97,7996,2,0,P|232:100|283:62,1,99.9999999999999,0|2,3:2|3:2,0:0:0:0:
349,106,8496,1,0,0:0:0:0:
349,106,8662,2,0,P|388:76|437:77,2,99.9999999999999,0|2|0,3:0|3:2|3:2,0:0:0:0:
255,236,9662,2,0,P|248:278|246:298,1,50,2|0,3:2|0:0,0:0:0:0:
185,337,9996,6,0,P|173:284|159:232,1,99.9999999999999,0|0,3:0|0:0,0:0:0:0:
66,111,10662,2,0,P|53:159|42:208,1,99.9999999999999,0|2,3:0|3:2,0:0:0:0:
88,273,11162,1,0,0:0:0:0:
161,239,11329,2,0,P|210:206|271:208,1,99.9999999999999,0|0,3:0|0:0,0:0:0:0:
320,240,11829,1,0,0:0:0:0:
320,240,11996,2,0,P|329:188|343:133,1,99.9999999999999,0|2,3:0|3:2,0:0:0:0:
496,107,12662,6,0,P|399:120|347:42,3,200,0|4|0|4,3:0|3:3|3:0|0:3,0:0:0:0:
187,26,14996,1,0,0:0:0:0:
59,122,15329,6,0,P|69:179|90:325,3,200,0|4|0|4,3:0|0:3|3:0|0:3,0:0:0:0:
242,368,17662,1,2,3:2:0:0:
391,308,17996,6,0,P|444:294|500:286,1,99.9999999999999,0|0,3:0|0:0,0:0:0:0:
335,241,18662,2,0,P|371:200|414:163,1,99.9999999999999,4|0,0:3|0:0,0:0:0:0:
249,205,19329,2,0,P|257:150|273:96,1,99.9999999999999,0|0,3:0|0:0,0:0:0:0:
171,234,19996,2,0,P|148:183|132:129,2,99.9999999999999,4|0|2,0:3|0:0|3:2,0:0:0:0:
256,192,20746,12,12,22996,1:2:0:0:
440,336,23329,6,0,P|392:300|324:300,1,129.999994049072,4|0,3:1|1:0,0:0:0:0:
256,360,23829,1,0,0:0:0:0:
168,332,23996,2,0,P|172:272|196:204,1,129.999994049072,4|0,0:3|1:0,0:0:0:0:
288,216,24496,6,0,P|324:200|360:188,1,64.9999970245362,0|4,3:0|0:3,0:0:0:0:
340,100,24829,1,0,0:0:0:0:
248,128,24996,2,0,P|192:108|116:96,1,129.999994049072,0|4,1:0|0:3,0:0:0:0:
52,36,25496,1,0,0:0:0:0:
24,120,25662,2,0,L|40:196,1,64.9999970245362,0|0,1:0|0:0,0:0:0:0:
160,208,25996,6,0,L|132:364,2,129.999994049072,4|0|4,0:3|1:0|0:3,0:0:0:0:
232,152,26829,1,8,0:3:0:0:
164,88,26996,1,0,1:0:0:0:
232,152,27162,6,0,P|288:164|344:112,1,129.999994049072,0|0,3:0|0:0,0:0:0:0:
432,132,27662,2,0,P|428:99|416:68,1,64.9999970245362,0|0,1:0|0:0,0:0:0:0:
340,120,27996,2,0,P|328:150|324:182,1,64.9999970245362,4|0,0:3|0:0,0:0:0:0:
408,220,28329,2,0,L|444:232,2,32.4999985122681,0|0|4,1:0|0:0|0:3,0:0:0:0:
332,268,28662,6,0,P|264:276|220:328,1,129.999994049072,4|0,0:3|1:0,0:0:0:0:
144,364,29162,2,0,P|99:318|35:313,1,129.999994049072,0|0,3:0|0:0,0:0:0:0:
44,224,29662,2,0,P|32:176|28:152,1,64.9999970245362,0|0,1:3|0:0,0:0:0:0:
90,60,29996,5,4,0:3:0:0:
90,60,30329,2,0,L|22:48,1,64.9999970245362,0|0,1:0|0:0,0:0:0:0:
118,148,30662,2,0,L|186:136,1,64.9999970245362,4|0,0:3|0:0,0:0:0:0:
246,74,30996,1,0,1:0:0:0:
256,72,31079,1,0,0:0:0:0:
267,70,31162,1,8,0:3:0:0:
351,103,31329,6,0,P|396:145|474:136,1,129.999994049072,4|0,1:2|1:3,0:0:0:0:
419,229,31829,2,0,P|404:274|401:299,1,64.9999970245362,4|0,1:0|0:0,0:0:0:0:
425,379,32162,1,0,1:0:0:0:
322,329,32329,5,4,1:2:0:0:
256,192,32412,12,0,33662,1:0:0:0:
267,77,33996,6,0,L|284:207,1,129.999994049072,4|0,3:1|1:0,0:0:0:0:
334,282,34496,2,0,P|294:295|264:292,1,64.9999970245362,0|4,0:3|0:3,0:0:0:0:
199,237,34829,1,4,0:3:0:0:
126,292,34996,1,0,1:0:0:0:
199,237,35162,6,0,P|146:200|80:212,1,129.999994049072,4|4,0:3|0:3,0:0:0:0:
97,95,35662,1,0,1:0:0:0:
18,146,35829,2,0,P|7:97|8:68,1,64.9999970245362,0|4,0:0|0:3,0:0:0:0:
58,7,36162,1,4,0:3:0:0:
97,95,36329,1,0,1:0:0:0:
276,68,36662,6,0,P|322:31|401:41,1,129.999994049072,4|0,0:3|1:0,0:0:0:0:
465,85,37162,2,0,P|450:131|444:157,1,64.9999970245362,0|4,0:0|0:3,0:0:0:0:
422,235,37496,1,4,0:3:0:0:
345,186,37662,1,0,1:0:0:0:
422,235,37829,6,0,P|434:297|442:367,1,129.999994049072,4|4,0:3|0:3,0:0:0:0:
352,318,38329,1,0,1:0:0:0:
352,318,38496,2,0,L|276:334,1,64.9999970245362,0|4,0:0|0:3,0:0:0:0:
203,364,38829,2,0,L|139:350,1,64.9999970245362,4|0,0:3|1:0,0:0:0:0:
48,192,39329,6,0,L|184:178,1,129.999994049072,4|0,0:3|1:0,0:0:0:0:
253,228,39829,1,0,0:0:0:0:
337,193,39996,2,0,P|351:145|350:118,1,64.9999970245362,4|4,0:3|0:3,0:0:0:0:
278,75,40329,2,0,P|264:123|265:150,1,64.9999970245362,0|0,1:0|0:0,0:0:0:0:
337,193,40662,6,0,P|402:162|469:157,2,129.999994049072,4|0|4,0:3|1:0|0:3,0:0:0:0:
253,228,41496,1,4,0:3:0:0:
326,280,41662,2,0,P|336:320|343:349,1,64.9999970245362,0|0,1:0|0:0,0:0:0:0:
253,228,41996,6,0,L|275:95,1,129.999994049072,4|0,0:3|1:0,0:0:0:0:
229,20,42496,1,0,0:0:0:0:
145,54,42662,2,0,P|165:88|198:105,1,64.9999970245362,4|4,0:3|0:3,0:0:0:0:
274,99,42996,1,0,1:0:0:0:
115,187,43329,6,0,P|104:256|62:304,1,129.999994049072,4|4,1:3|1:2,0:0:0:0:
30,217,43829,1,0,1:0:0:0:
46,127,43996,2,0,L|62:51,1,64.9999970245362,4|8,0:3|0:3,0:0:0:0:
145,54,44329,2,0,L|135:14,2,32.4999985122681,0|8|4,1:0|0:3|0:3,0:0:0:0:
206,142,44662,6,0,P|256:136|325:129,1,119.999996337891,4|4,3:1|3:3,0:0:0:0:
379,65,45162,2,0,P|416:74|445:80,1,59.9999981689453,0|4,0:0|0:3,0:0:0:0:
498,173,45496,2,0,P|461:164|432:158,1,59.9999981689453,0|8,1:0|0:3,0:0:0:0:
368,204,45829,6,0,P|353:266|339:329,1,119.999996337891,4|4,0:3|0:3,0:0:0:0:
270,366,46329,1,4,0:3:0:0:
270,366,46496,2,0,P|256:319|252:296,1,59.9999981689453,0|4,0:0|0:3,0:0:0:0:
272,226,46829,2,0,P|258:179|254:156,1,59.9999981689453,4|4,1:2|0:3,0:0:0:0:
258,84,47162,1,4,1:2:0:0:
175,141,47329,6,0,P|119:144|77:89,1,119.999996337891,4|4,3:1|0:3,0:0:0:0:
16,155,47829,2,0,P|28:200|32:228,1,59.9999981689453,0|4,0:0|0:3,0:0:0:0:
111,236,48162,2,0,P|99:281|95:309,1,59.9999981689453,0|8,1:0|0:3,0:0:0:0:
185,366,48496,6,0,P|219:330|287:332,1,119.999996337891,4|4,3:1|0:3,0:0:0:0:
361,368,48996,1,4,0:3:0:0:
432,324,49162,2,0,L|447:257,1,59.9999981689453,0|8,0:0|0:3,0:0:0:0:
408,189,49496,1,0,1:0:0:0:
462,125,49662,2,0,L|472:84,2,29.9999990844727,0|0|0,1:0|1:0|1:0,0:0:0:0:
339,145,49996,6,0,P|293:131|211:113,1,129.999994049072,4|0,3:1|1:0,0:0:0:0:
154,43,50496,1,0,0:0:0:0:
154,43,50662,2,0,P|129:81|123:114,1,64.9999970245362,4|4,0:3|0:3,0:0:0:0:
37,70,50996,2,0,P|34:115|45:146,1,64.9999970245362,0|0,1:0|0:0,0:0:0:0:
16,220,51329,6,0,P|76:232|128:288,1,129.999994049072,4|0,0:3|1:0,0:0:0:0:
284,364,51996,1,4,0:3:0:0:
368,328,52162,1,4,0:3:0:0:
284,364,52329,2,0,P|228:352|200:348,1,64.9999970245362,0|4,1:0|0:3,0:0:0:0:
296,276,52662,6,0,P|308:232|340:148,1,129.999994049072,4|0,0:3|1:0,0:0:0:0:
320,64,53162,1,0,0:0:0:0:
408,80,53329,2,0,P|428:120|440:152,1,64.9999970245362,4|4,0:3|0:3,0:0:0:0:
400,224,53662,1,0,1:0:0:0:
248,124,53996,6,0,P|184:140|96:156,1,129.999994049072,4|4,3:2|1:2,0:0:0:0:
40,116,54496,1,0,1:0:0:0:
12,204,54662,2,0,L|24:272,1,64.9999970245362,8|8,0:3|0:3,0:0:0:0:
112,248,54996,2,0,L|100:312,1,64.9999970245362,4|4,0:3|0:3,0:0:0:0:
176,360,55329,6,0,P|276:320|388:332,1,220.000006713867,4|0,1:2|0:0,0:0:0:0:
448,120,56662,2,0,P|456:160|468:240,2,110.000003356934,0|0|0,3:0|0:0|0:0,0:0:0:0:
372,40,57662,1,0,3:0:0:0:
276,92,57996,6,0,B|148:116|192:40|48:76,2,220.000006713867,4|0|8,0:3|0:0|0:3,0:0:0:0:
144,192,59829,2,0,P|156:244|164:308,1,110.000003356934,4|8,0:3|0:3,0:0:0:0:
106,349,60329,1,4,0:3:0:0:
106,349,60496,1,2,3:2:0:0:
163,300,60662,6,0,P|216:304|292:320,1,110.000003356934,4|0,3:1|0:0,0:0:0:0:
358,382,61329,2,0,P|373:346|367:271,1,110.000003356934,0|0,3:0|3:0,0:0:0:0:
438,235,61829,1,0,0:0:0:0:
438,235,61996,2,0,P|423:199|429:124,1,110.000003356934,0|0,3:0|0:0,0:0:0:0:
372,33,62662,1,0,3:0:0:0:
270,76,62996,1,0,0:0:0:0:
174,19,63329,6,0,P|117:35|88:41,1,64.9999970245362,0|4,1:0|0:3,0:0:0:0:
58,110,63662,1,4,0:3:0:0:
58,110,63829,2,0,P|115:126|144:132,1,64.9999970245362,0|4,1:0|0:3,0:0:0:0:
184,191,64162,1,4,0:3:0:0:
121,258,64329,1,0,1:0:0:0:
187,320,64496,6,0,P|249:333|306:301,1,129.999994049072,4|4,1:2|1:2,0:0:0:0:
366,234,64996,1,4,1:2:0:0:
427,300,65162,2,0,L|421:339,2,32.4999985122681,8|8|8,0:3|0:3|0:3,0:0:0:0:
366,234,65496,2,0,L|372:195,2,32.4999985122681,8|8|4,0:3|0:3|0:3,0:0:0:0:
454,210,65829,1,4,0:3:0:0:
454,210,65912,1,4,0:3:0:0:
454,210,65996,6,0,L|477:77,1,129.999994049072,4|0,3:1|1:0,0:0:0:0:
404,25,66496,1,0,0:0:0:0:
317,51,66662,2,0,P|273:71|237:65,1,64.9999970245362,4|4,0:3|0:3,0:0:0:0:
177,25,66996,1,0,1:0:0:0:
177,25,67162,6,0,P|143:82|145:147,1,129.999994049072,4|4,0:3|0:3,0:0:0:0:
202,214,67662,2,0,L|274:203,1,64.9999970245362,0|0,1:0|0:0,0:0:0:0:
324,133,67996,2,0,L|396:122,1,64.9999970245362,4|4,0:3|0:3,0:0:0:0:
462,70,68329,1,0,1:0:0:0:
387,17,68496,1,0,3:0:0:0:
462,70,68662,6,0,P|475:121|491:205,1,129.999994049072,4|0,1:2|1:0,0:0:0:0:
383,223,69162,2,0,P|370:274|354:358,1,129.999994049072,4|4,0:3|0:3,0:0:0:0:
443,327,69662,1,0,1:0:0:0:
331,367,69829,6,0,L|193:343,1,129.999994049072,4|4,1:2|0:3,0:0:0:0:
123,299,70329,2,0,P|94:316|38:321,1,64.9999970245362,0|4,1:0|0:3,0:0:0:0:
17,244,70662,2,0,L|26:199,3,32.4999985122681,0|0|8|8,1:0|1:0|3:3|3:3,0:0:0:0:
68,199,70996,2,0,L|77:154,3,32.4999985122681,4|4|4|4,3:3|3:3|0:3|0:3,0:0:0:0:
50,128,71329,5,4,1:3:0:0:
256,192,71412,12,10,72329,3:3:0:0:
50,193,72662,6,0,L|200:180,1,137.00000386734,4|0,1:1|1:0,0:0:0:0:
234,106,73162,1,0,0:0:0:0:
304,160,73329,2,0,L|292:240,1,68.50000193367,4|0,0:3|0:0,0:0:0:0:
389,124,73662,2,0,P|431:105|476:105,1,68.50000193367,0|2,1:0|0:0,0:0:0:0:
446,192,73996,6,0,L|426:327,1,137.00000386734,4|0,0:3|1:0,0:0:0:0:
345,364,74496,1,0,0:0:0:0:
345,364,74662,2,0,P|303:344|265:339,1,68.50000193367,4|0,0:3|0:0,0:0:0:0:
214,280,74996,2,0,P|167:286|133:302,1,68.50000193367,0|2,1:0|0:2,0:0:0:0:
95,366,75329,6,0,P|63:309|81:242,1,137.00000386734,4|0,2:3|1:0,0:0:0:0:
79,155,75829,1,0,0:0:0:0:
167,162,75996,2,0,P|183:97|149:40,1,137.00000386734,4|0,0:3|1:0,0:0:0:0:
61,21,76496,1,2,0:0:0:0:
138,64,76662,6,0,L|277:47,1,137.00000386734,4|0,0:3|1:0,0:0:0:0:
357,16,77162,1,0,3:0:0:0:
339,103,77329,2,0,P|327:151|327:182,1,68.50000193367,4|0,3:3|0:0,0:0:0:0:
413,151,77662,2,0,P|425:199|425:230,1,68.50000193367,0|2,1:0|0:3,0:0:0:0:
344,260,77996,6,0,P|272:243|204:239,1,137.00000386734,4|0,0:3|1:0,0:0:0:0:
145,301,78496,1,0,0:0:0:0:
63,266,78662,2,0,P|47:224|42:185,1,68.50000193367,4|0,0:3|0:0,0:0:0:0:
132,204,78996,2,0,P|138:170|152:138,1,68.50000193367,0|2,1:0|0:0,0:0:0:0:
234,104,79329,6,0,P|197:57|116:57,2,137.00000386734,4|0|4,0:3|1:0|0:3,0:0:0:0:
308,152,80162,1,0,0:0:0:0:
384,105,80329,2,0,P|392:57|396:24,1,68.50000193367,0|2,1:0|0:0,0:0:0:0:
308,152,80662,6,0,P|316:212|324:292,1,137.00000386734,4|0,0:3|1:0,0:0:0:0:
263,354,81162,1,0,0:0:0:0:
186,307,81329,2,0,P|130:291|50:278,1,137.00000386734,4|0,0:3|1:0,0:0:0:0:
64,366,81829,1,2,0:0:0:0:
20,288,81996,6,0,P|4:234|51:155,1,137.00000386734,4|0,0:3|1:0,0:0:0:0:
119,128,82496,1,0,0:0:0:0:
78,48,82662,2,0,L|-10:61,1,68.50000193367,4|0,0:3|0:0,0:0:0:0:
119,128,82996,2,0,L|207:115,1,68.50000193367,0|2,1:0|0:3,0:0:0:0:
242,48,83329,6,0,P|309:42|366:98,1,137.00000386734,4|0,1:1|1:0,0:0:0:0:
431,30,83829,2,0,P|447:72|451:118,1,68.50000193367,0|4,0:0|0:3,0:0:0:0:
392,162,84162,2,0,P|376:204|372:250,1,68.50000193367,2|0,0:0|1:0,0:0:0:0:
427,298,84496,1,2,0:0:0:0:
357,352,84662,6,0,L|213:320,1,137.00000386734,4|0,0:3|1:0,0:0:0:0:
157,262,85162,1,2,0:0:0:0:
76,300,85329,2,0,P|64:344|60:372,1,68.50000193367,4|2,0:3|0:0,0:0:0:0:
157,262,85662,2,0,P|151:228|141:195,1,68.50000193367,0|2,1:2|0:0,0:0:0:0:
56,164,85996,6,0,P|120:156|164:92,1,137.00000386734,4|0,0:3|1:0,0:0:0:0:
128,20,86496,1,0,0:0:0:0:
216,36,86662,2,0,P|264:28|300:24,1,68.50000193367,4|0,0:3|0:0,0:0:0:0:
332,100,86996,2,0,P|284:108|248:112,1,68.50000193367,0|2,1:0|0:0,0:0:0:0:
384,40,87329,6,0,P|368:116|356:200,1,137.00000386734,4|0,0:3|1:0,0:0:0:0:
298,240,87829,1,0,0:0:0:0:
327,324,87996,2,0,P|368:347|408:348,1,68.50000193367,4|2,0:3|0:0,0:0:0:0:
451,286,88329,2,0,P|410:263|370:262,1,68.50000193367,0|2,1:0|0:0,0:0:0:0:
242,307,88662,6,0,L|91:335,2,137.00000386734,4|0|4,1:1|1:3|0:3,0:0:0:0:
298,240,89496,1,0,0:0:0:0:
223,191,89662,2,0,P|232:144|244:119,1,68.50000193367,0|2,1:0|0:0,0:0:0:0:
278,44,89996,6,0,P|225:90|135:83,1,137.00000386734,4|0,0:3|1:0,0:0:0:0:
77,60,90496,1,0,0:0:0:0:
77,60,90662,2,0,L|91:7,2,34.250000966835,4|0|2,0:3|0:0|0:0,0:0:0:0:
85,149,90996,2,0,L|62:234,1,68.50000193367,0|2,1:0|0:0,0:0:0:0:
21,318,91329,6,0,P|53:278|138:268,1,137.00000386734,4|0,1:2|1:0,0:0:0:0:
134,266,91829,1,0,0:0:0:0:
154,353,91996,2,0,P|199:333|215:308,1,68.50000193367,4|0,0:3|0:0,0:0:0:0:
287,274,92329,2,0,L|377:292,1,68.50000193367,4|2,1:2|0:0,0:0:0:0:
213,220,92662,5,4,1:2:0:0:
293,180,92829,1,2,1:2:0:0:
213,220,92996,2,0,L|123:202,1,68.50000193367,0|4,1:0|0:3,0:0:0:0:
80,145,93329,2,0,L|69:100,3,34.250000966835,0|0|4|4,1:0|1:0|0:3|0:3,0:0:0:0:
115,103,93662,2,0,L|126:58,3,34.250000966835,0|0|2|0,1:0|1:0|1:2|1:0,0:0:0:0:
115,25,93996,6,0,P|161:66|249:56,1,137.00000386734,4|0,1:1|1:0,0:0:0:0:
233,64,94496,1,0,0:0:0:0:
300,122,94662,2,0,P|326:103|366:95,1,68.50000193367,4|0,0:3|0:0,0:0:0:0:
425,32,94996,2,0,P|447:67|453:101,1,68.50000193367,0|2,1:0|0:0,0:0:0:0:
497,170,95329,6,0,P|468:232|475:311,1,137.00000386734,4|0,0:3|1:0,0:0:0:0:
408,363,95829,1,0,0:0:0:0:
344,299,95996,2,0,L|262:319,1,68.50000193367,4|0,0:3|0:0,0:0:0:0:
205,262,96329,2,0,L|138:278,1,68.50000193367,0|2,1:0|0:0,0:0:0:0:
62,324,96662,6,0,P|52:259|97:203,1,137.00000386734,4|0,0:3|1:0,0:0:0:0:
27,145,97162,1,0,0:0:0:0:
67,65,97329,2,0,P|100:90|112:120,1,68.50000193367,4|2,0:3|0:0,0:0:0:0:
174,176,97662,2,0,L|255:157,1,68.50000193367,0|2,1:2|0:2,0:0:0:0:
312,106,97996,6,0,P|377:94|431:141,2,137.00000386734,4|0|4,0:3|1:0|0:3,0:0:0:0:
240,160,98829,1,0,0:0:0:0:
240,160,98996,2,0,P|220:108|224:77,1,68.50000193367,0|2,1:0|0:3,0:0:0:0:
330,193,99329,6,0,L|314:268,1,68.50000193367,4|0,0:3|0:0,0:0:0:0:
404,263,99662,2,0,L|389:329,1,68.50000193367,0|0,1:0|0:0,0:0:0:0:
307,364,99996,2,0,P|271:342|234:337,1,68.50000193367,4|0,0:3|0:0,0:0:0:0:
214,253,100329,2,0,P|180:261|152:280,1,68.50000193367,0|2,1:0|0:0,0:0:0:0:
81,226,100662,6,0,P|64:167|64:82,1,137.00000386734,4|0,0:3|1:0,0:0:0:0:
115,20,101162,1,0,0:0:0:0:
192,63,101329,2,0,P|236:48|285:38,1,68.50000193367,4|0,0:3|0:0,0:0:0:0:
244,131,101662,2,0,P|200:146|151:156,1,68.50000193367,0|2,1:0|0:0,0:0:0:0:
247,223,101996,6,0,P|294:209|395:183,1,137.00000386734,4|0,0:3|1:0,0:0:0:0:
468,181,102496,1,0,0:0:0:0:
383,152,102662,2,0,P|363:223|346:307,1,137.00000386734,4|0,0:3|1:0,0:0:0:0:
194,373,103329,6,0,P|179:306|160:240,1,137.00000386734,4|0,0:3|1:0,0:0:0:0:
76,210,103829,1,0,0:0:0:0:
19,279,103996,2,0,P|56:301|86:301,1,68.50000193367,4|0,0:3|0:0,0:0:0:0:
76,210,104329,2,0,L|63:138,1,68.50000193367,0|2,1:0|0:3,0:0:0:0:
132,52,104662,6,0,P|197:47|254:101,1,137.00000386734,4|0,1:0|1:1,0:0:0:0:
324,138,105162,2,0,P|336:93|333:64,1,68.50000193367,0|4,0:0|0:3,0:0:0:0:
424,78,105496,2,0,P|412:33|415:4,1,68.50000193367,0|0,0:0|1:0,0:0:0:0:
498,30,105829,1,2,0:0:0:0:
438,101,105996,6,0,L|408:253,1,137.00000386734,4|0,0:3|1:0,0:0:0:0:
339,288,106496,1,2,0:0:0:0:
408,343,106662,2,0,P|451:339|478:319,1,68.50000193367,4|2,0:3|0:0,0:0:0:0:
339,288,106996,2,0,P|296:292|269:312,1,68.50000193367,0|0,1:0|0:0,0:0:0:0:
210,366,107329,6,0,L|66:340,1,137.00000386734,4|0,0:3|1:0,0:0:0:0:
123,266,107829,2,0,L|48:255,1,68.50000193367,0|4,0:0|0:3,0:0:0:0:
100,179,108162,2,0,L|25:168,1,68.50000193367,0|0,0:0|1:0,0:0:0:0:
76,90,108496,1,2,0:0:0:0:
161,111,108662,6,0,P|212:113|268:37,2,137.00000386734,4|0|4,0:3|1:0|0:3,0:0:0:0:
76,90,109496,1,2,0:0:0:0:
100,179,109662,2,0,L|116:252,1,68.50000193367,0|8,1:0|0:3,0:0:0:0:
209,336,109996,6,0,L|231:193,2,137.00000386734,4|0|4,1:0|1:0|0:3,0:0:0:0:
288,377,110829,1,2,0:0:0:0:
369,281,110996,2,0,L|301:294,1,68.50000193367,0|2,1:0|0:0,0:0:0:0:
385,193,111329,6,0,L|452:179,1,68.50000193367,4|0,1:1|1:0,0:0:0:0:
323,127,111662,1,0,1:0:0:0:
352,44,111829,1,8,0:3:0:0:
323,127,111996,2,0,L|270:143,3,34.250000966835,4|4|0|0,0:3|0:3|1:0|1:0,0:0:0:0:
251,115,112329,2,0,L|198:131,3,34.250000966835,0|0|8|4,1:0|1:0|0:3|0:3,0:0:0:0:
177,107,112662,6,0,P|119:114|68:47,1,137.00000386734,4|4,1:2|0:3,0:0:0:0:
149,19,113162,1,4,1:2:0:0:
21,144,113496,2,0,P|36:185|45:219,1,68.50000193367,0|0,1:0|1:0,0:0:0:0:
152,276,113829,1,4,0:3:0:0:
69,289,113996,6,0,P|54:330|49:348,2,34.250000966835,0|0|8,1:0|1:0|0:3,0:0:0:0:
152,276,114329,2,0,P|163:318|169:335,2,34.250000966835,0|0|4,1:0|1:0|0:3,0:0:0:0:
229,253,114662,2,0,P|262:281|277:291,2,34.250000966835,0|0|0,1:0|1:0|1:0,0:0:0:0:
164,180,114996,1,8,0:0:0:0:
85,205,115162,1,4,0:3:0:0:
85,205,115246,1,4,0:3:0:0:
85,205,115329,5,4,1:2:0:0:
82,327,123329,6,0,L|218:309,1,129.999994049072,4|0,3:1|1:0,0:0:0:0:
345,290,123829,2,0,P|320:277|275:274,1,64.9999970245362,4|0,3:1|0:0,0:0:0:0:
210,309,124162,1,0,1:0:0:0:
256,192,124329,5,4,1:2:0:0:
256,192,124412,12,8,125662,0:2:0:0:
135,361,125996,6,0,P|127:297|109:229,1,129.999994049072,4|0,0:3|1:0,0:0:0:0:
39,177,126496,2,0,P|45:139|53:106,1,64.9999970245362,0|4,0:0|0:3,0:0:0:0:
129,67,126829,1,4,0:3:0:0:
52,17,126996,1,0,1:0:0:0:
129,67,127162,6,0,P|179:81|251:29,1,129.999994049072,4|4,0:3|0:3,0:0:0:0:
330,17,127662,1,0,1:0:0:0:
311,106,127829,2,0,P|324:157|330:182,1,64.9999970245362,0|4,0:0|0:3,0:0:0:0:
394,230,128162,1,4,0:3:0:0:
415,141,128329,1,0,1:0:0:0:
340,306,128662,6,0,P|295:266|220:263,1,129.999994049072,4|0,0:3|1:0,0:0:0:0:
150,211,129162,2,0,P|136:258|137:288,1,64.9999970245362,0|4,0:0|0:3,0:0:0:0:
231,173,129496,2,0,P|227:140|216:110,1,64.9999970245362,0|0,0:0|1:0,0:0:0:0:
148,49,129829,6,0,P|108:70|71:83,1,64.9999970245362,4|0,0:3|0:0,0:0:0:0:
229,89,130162,2,0,P|269:68|306:55,1,64.9999970245362,4|0,0:3|1:0,0:0:0:0:
370,98,130496,1,0,0:0:0:0:
459,81,130662,2,0,P|472:37|475:6,1,64.9999970245362,4|4,0:3|0:3,0:0:0:0:
370,98,130996,2,0,P|375:130|385:160,1,64.9999970245362,0|0,1:0|0:0,0:0:0:0:
467,201,131329,6,0,P|404:199|355:256,1,129.999994049072,4|0,0:3|1:0,0:0:0:0:
358,243,131829,1,0,0:0:0:0:
288,301,131996,2,0,P|236:288|204:282,1,64.9999970245362,4|4,0:3|0:3,0:0:0:0:
163,353,132329,2,0,P|111:340|79:334,1,64.9999970245362,0|0,1:0|0:0,0:0:0:0:
10,356,132662,6,0,P|22:291|45:227,1,129.999994049072,4|0,0:3|1:0,0:0:0:0:
128,198,133162,1,0,0:0:0:0:
128,198,133329,2,0,P|118:149|105:114,1,64.9999970245362,4|4,0:3|0:3,0:0:0:0:
204,131,133662,2,0,P|209:98|218:67,1,64.9999970245362,0|0,1:0|0:0,0:0:0:0:
297,20,133996,6,0,P|341:36|445:65,1,129.999994049072,4|0,0:3|1:0,0:0:0:0:
478,129,134496,1,0,0:0:0:0:
429,205,134662,2,0,P|403:176|393:145,1,64.9999970245362,4|4,0:3|0:3,0:0:0:0:
478,129,134996,1,0,1:0:0:0:
440,306,135329,6,0,L|308:279,1,129.999994049072,4|0,3:1|1:0,0:0:0:0:
224,257,135829,1,0,1:0:0:0:
171,331,135996,2,0,P|124:353|97:350,1,64.9999970245362,4|8,0:3|0:3,0:0:0:0:
42,294,136329,2,0,L|5:283,2,32.4999985122681,0|0|8,1:0|1:0|0:3,0:0:0:0:
75,184,136662,6,0,L|202:168,1,119.999996337891,4|4,1:2|0:3,0:0:0:0:
265,125,137162,2,0,P|273:88|275:61,1,59.9999981689453,0|4,0:0|0:3,0:0:0:0:
203,21,137496,2,0,P|195:58|193:85,1,59.9999981689453,0|4,1:0|0:3,0:0:0:0:
281,146,137829,6,0,P|331:114|394:120,1,119.999996337891,4|4,0:3|0:3,0:0:0:0:
451,61,138329,1,4,0:3:0:0:
451,61,138496,2,0,P|469:103|470:123,1,59.9999981689453,0|4,0:0|0:3,0:0:0:0:
404,212,138829,2,0,P|386:170|385:150,1,59.9999981689453,0|4,1:0|0:3,0:0:0:0:
492,206,139162,1,0,1:0:0:0:
460,283,139329,6,0,L|329:312,1,119.999996337891,4|4,1:2|0:3,0:0:0:0:
276,360,139829,2,0,L|207:343,1,59.9999981689453,0|4,0:0|0:3,0:0:0:0:
128,248,140162,2,0,L|69:233,1,59.9999981689453,0|4,1:0|0:3,0:0:0:0:
220,257,140496,6,0,L|251:139,1,119.999996337891,4|0,3:1|3:0,0:0:0:0:
256,129,140912,1,0,3:0:0:0:
261,118,140996,1,4,1:3:0:0:
329,69,141162,1,0,1:0:0:0:
251,35,141329,1,0,1:0:0:0:
181,82,141496,2,0,L|170:41,2,29.9999990844727,8|8|4,0:3|0:3|0:3,0:0:0:0:
96,84,141829,1,0,1:0:0:0:
58,159,141996,6,0,L|31:297,1,129.999994049072,4|0,3:1|1:0,0:0:0:0:
56,376,142496,1,0,0:0:0:0:
56,376,142662,2,0,P|96:356|112:332,1,64.9999970245362,4|4,0:3|0:3,0:0:0:0:
196,368,142996,2,0,P|198:323|185:297,1,64.9999970245362,0|0,1:0|0:0,0:0:0:0:
116,252,143329,5,4,0:3:0:0:
116,252,143496,2,0,L|40:232,2,64.9999970245362,0|0|0,0:0|1:0|0:0,0:0:0:0:
200,212,143996,2,0,L|276:232,1,64.9999970245362,4|4,0:3|0:3,0:0:0:0:
332,288,144329,1,0,1:0:0:0:
384,212,144496,1,4,0:3:0:0:
332,288,144662,6,0,P|396:304|452:272,1,129.999994049072,4|0,3:1|1:0,0:0:0:0:
449,274,145162,1,0,0:0:0:0:
496,196,145329,2,0,P|504:156|508:124,1,64.9999970245362,4|4,0:3|0:3,0:0:0:0:
416,76,145662,2,0,P|420:108|427:139,1,64.9999970245362,0|0,1:0|0:0,0:0:0:0:
464,0,145996,6,0,P|392:28|320:40,1,129.999994049072,4|0,1:2|1:0,0:0:0:0:
272,96,146496,1,0,1:0:0:0:
192,52,146662,2,0,P|152:40|116:36,1,64.9999970245362,0|0,3:0|3:0,0:0:0:0:
140,128,146996,2,0,P|107:133|77:143,1,64.9999970245362,8|4,0:3|0:3,0:0:0:0:
134,225,147329,6,0,P|224:284|349:251,1,220.000006713867,4|0,3:1|0:0,0:0:0:0:
419,64,148662,2,0,P|401:118|388:174,2,110.000003356934,2|0|0,3:2|0:0|3:0,0:0:0:0:
322,10,149662,1,0,3:0:0:0:
229,69,149996,6,0,P|140:132|31:113,1,220.000006713867,4|0,0:3|0:0,0:0:0:0:
12,279,151162,2,0,P|66:263|140:251,2,110.000003356934,12|8|4,0:3|0:3|0:3,0:0:0:0:
31,350,151996,2,0,P|71:338|97:333,1,55.0000016784668,8|8,0:3|0:3,0:0:0:0:
158,321,152329,2,0,P|198:309|224:304,1,55.0000016784668,4|4,0:3|0:3,0:0:0:0:
278,341,152662,6,0,P|362:274|476:280,1,220.000006713867,4|0,3:2|3:0,0:0:0:0:
409,65,153996,2,0,P|359:88|297:109,1,110.000003356934,0|0,3:0|0:0,0:0:0:0:
230,120,154496,1,0,1:0:0:0:
230,120,154662,2,0,P|235:83|242:59,2,55.0000016784668,0|12|8,1:0|0:3|0:3,0:0:0:0:
372,233,155329,6,0,P|382:291|382:308,1,64.9999970245362,0|4,1:0|0:3,0:0:0:0:
304,344,155662,1,4,0:3:0:0:
304,344,155829,2,0,P|294:286|294:269,1,64.9999970245362,0|4,1:0|0:3,0:0:0:0:
285,189,156162,1,4,0:3:0:0:
212,244,156329,1,0,1:0:0:0:
153,174,156496,6,0,P|94:191|19:213,1,129.999994049072,4|0,1:2|1:0,0:0:0:0:
37,119,156996,2,0,P|21:76|20:72,3,32.4999985122681,0|0|4|4,1:0|0:0|0:3|0:3,0:0:0:0:
27,57,157329,2,0,P|85:76|107:76,1,64.9999970245362,0|0,1:0|1:0,0:0:0:0:
159,18,157662,1,0,1:0:0:0:
159,18,157746,1,0,1:0:0:0:
159,18,157829,1,8,0:3:0:0:
229,75,157996,6,0,P|278:36|364:37,1,129.999994049072,4|0,3:1|1:0,0:0:0:0:
427,64,158496,2,0,P|439:114|441:134,1,64.9999970245362,0|4,0:0|0:3,0:0:0:0:
395,206,158829,1,4,0:3:0:0:
454,274,158996,1,0,1:0:0:0:
311,219,159162,6,0,P|258:231|176:254,1,129.999994049072,4|4,3:1|0:3,0:0:0:0:
98,221,159662,2,0,P|111:169|119:146,1,64.9999970245362,0|0,1:0|0:0,0:0:0:0:
206,155,159996,2,0,P|219:103|227:80,1,64.9999970245362,4|4,0:3|0:3,0:0:0:0:
310,66,160329,1,0,1:0:0:0:
240,6,160496,1,0,1:0:0:0:
293,143,160662,6,0,P|334:101|420:92,1,129.999994049072,4|0,3:1|1:0,0:0:0:0:
383,189,161162,2,0,P|342:231|256:240,1,129.999994049072,4|4,3:1|0:3,0:0:0:0:
206,155,161662,1,0,1:0:0:0:
208,305,161829,6,0,P|189:256|187:233,1,64.9999970245362,4|0,1:2|0:0,0:0:0:0:
206,155,162162,1,4,0:3:0:0:
115,147,162329,2,0,P|59:161|24:172,1,64.9999970245362,0|4,1:0|0:3,0:0:0:0:
206,155,162662,2,0,L|217:109,3,32.4999985122681,0|0|0|0,1:0|1:0|1:0|1:0,0:0:0:0:
259,118,162996,2,0,L|251:86,3,32.4999985122681,8|8|4|4,0:3|0:3|0:3|0:3,0:0:0:0:
230,45,163329,5,4,1:3:0:0:
256,192,163412,12,0,164329,1:0:0:0:
255,331,164662,6,0,P|219:290|133:289,1,137.00000386734,4|0,1:0|1:0,0:0:0:0:
80,351,165162,1,0,0:0:0:0:
4,303,165329,2,0,P|11:250|23:225,1,68.50000193367,4|0,0:3|0:0,0:0:0:0:
86,137,165662,2,0,P|96:169|98:203,1,68.50000193367,0|2,1:0|0:0,0:0:0:0:
0,128,165996,6,0,P|58:112|80:108,1,68.50000193367,4|0,0:3|0:0,0:0:0:0:
112,34,166329,2,0,P|170:18|192:14,1,68.50000193367,0|0,1:0|0:0,0:0:0:0:
256,59,166662,1,4,0:3:0:0:
256,59,166829,1,0,0:0:0:0:
317,124,166996,2,0,P|375:108|397:104,1,68.50000193367,0|2,1:0|0:0,0:0:0:0:
456,55,167329,6,0,P|426:108|438:190,1,137.00000386734,4|0,0:3|1:0,0:0:0:0:
506,232,167829,1,0,0:0:0:0:
423,270,167996,2,0,P|369:281|278:305,1,137.00000386734,4|0,0:3|1:0,0:0:0:0:
226,363,168496,1,2,0:0:0:0:
226,363,168579,1,0,0:0:0:0:
226,363,168662,6,0,P|174:351|138:345,1,68.50000193367,4|0,0:3|0:0,0:0:0:0:
71,368,168996,2,0,P|60:315|63:288,1,68.50000193367,0|0,1:0|3:0,0:0:0:0:
120,234,169329,2,0,P|119:199|109:167,1,68.50000193367,4|0,0:3|0:0,0:0:0:0:
37,115,169662,1,0,1:0:0:0:
37,115,169829,1,2,0:3:0:0:
92,44,169996,6,0,P|135:80|217:79,1,137.00000386734,4|0,0:3|1:0,0:0:0:0:
292,40,170496,1,0,0:0:0:0:
292,40,170662,2,0,P|326:17|371:13,1,68.50000193367,4|0,0:3|0:0,0:0:0:0:
292,127,170996,2,0,P|283:174|275:201,1,68.50000193367,0|2,1:0|0:0,0:0:0:0:
204,245,171329,6,0,P|195:211|189:178,2,68.50000193367,4|0|0,0:3|0:0|1:0,0:0:0:0:
266,308,171829,1,0,0:0:0:0:
266,308,171996,2,0,P|211:328|183:336,1,68.50000193367,4|0,0:3|0:0,0:0:0:0:
317,379,172329,2,0,P|372:359|400:351,1,68.50000193367,0|2,1:0|0:0,0:0:0:0:
468,372,172662,6,0,P|479:307|499:224,1,137.00000386734,4|0,0:3|1:0,0:0:0:0:
492,149,173162,1,0,0:0:0:0:
403,158,173329,2,0,P|418:224|430:292,2,137.00000386734,4|0|4,0:3|1:0|0:3,0:0:0:0:
337,96,174162,5,0,0:0:0:0:
337,96,174329,2,0,P|345:45|355:20,1,68.50000193367,0|0,1:0|0:0,0:0:0:0:
314,181,174662,2,0,P|268:192|240:200,1,68.50000193367,4|0,0:3|0:0,0:0:0:0:
185,127,174996,2,0,P|231:116|259:108,1,68.50000193367,0|2,1:0|0:3,0:0:0:0:
134,50,175329,6,0,P|94:106|100:177,1,137.00000386734,4|0,3:1|1:0,0:0:0:0:
27,227,175829,2,0,P|59:253|91:259,1,68.50000193367,0|4,0:0|0:3,0:0:0:0:
166,222,176162,1,0,0:0:0:0:
154,310,176329,1,0,1:0:0:0:
236,276,176496,6,0,P|285:267|331:259,1,68.50000193367,2|4,0:0|0:3,0:0:0:0:
383,303,176829,1,0,0:3:0:0:
308,185,176996,2,0,P|362:175|454:160,1,137.00000386734,0|4,1:0|0:3,0:0:0:0:
476,78,177496,1,2,0:0:0:0:
396,85,177662,2,0,P|350:93|317:100,1,68.50000193367,0|2,1:0|0:0,0:0:0:0:
241,119,177996,6,0,P|248:63|255:47,1,68.50000193367,4|0,0:3|0:0,0:0:0:0:
174,9,178329,2,0,P|132:20|102:26,1,68.50000193367,0|0,1:0|0:0,0:0:0:0:
33,75,178662,1,4,0:3:0:0:
33,75,178829,1,2,0:0:0:0:
79,150,178996,2,0,P|121:139|151:133,1,68.50000193367,0|2,1:0|0:0,0:0:0:0:
42,234,179329,6,0,P|108:248|180:273,1,137.00000386734,4|0,0:3|1:0,0:0:0:0:
176,360,179829,1,0,0:0:0:0:
252,308,179996,2,0,P|300:292|332:288,1,68.50000193367,4|0,0:3|0:0,0:0:0:0:
312,200,180329,2,0,P|278:206|246:218,1,68.50000193367,0|2,1:0|0:3,0:0:0:0:
400,264,180662,6,0,P|420:228|400:132,2,137.00000386734,4|0|4,1:2|1:0|0:3,0:0:0:0:
317,289,181496,1,2,0:0:0:0:
380,348,181662,2,0,P|420:368|448:368,1,68.50000193367,0|2,1:0|0:0,0:0:0:0:
317,289,181996,6,0,P|260:304|184:328,1,137.00000386734,4|0,0:3|1:0,0:0:0:0:
104,368,182496,1,0,0:0:0:0:
104,280,182662,2,0,P|76:228|72:140,1,137.00000386734,4|0,0:3|1:0,0:0:0:0:
69,151,183162,1,2,0:0:0:0:
136,92,183329,6,0,P|184:80|224:68,1,68.50000193367,4|0,0:3|0:0,0:0:0:0:
264,148,183662,2,0,P|216:160|176:172,1,68.50000193367,0|0,1:0|0:0,0:0:0:0:
288,60,183996,1,4,0:3:0:0:
288,60,184162,1,2,0:0:0:0:
372,92,184329,2,0,P|360:132|352:168,1,68.50000193367,4|0,1:2|0:0,0:0:0:0:
344,248,184662,5,4,1:2:0:0:
428,220,184829,1,0,1:0:0:0:
344,248,184996,2,0,L|264:232,1,68.50000193367,0|8,1:0|0:3,0:0:0:0:
188,252,185329,2,0,L|176:296,3,34.250000966835,0|0|0|0,1:0|1:0|1:0|1:0,0:0:0:0:
136,304,185662,2,0,L|124:348,3,34.250000966835,8|8|4|4,0:3|0:3|0:3|0:3,0:0:0:0:
100,372,185996,6,0,L|68:216,1,137.00000386734,4|0,1:1|1:0,0:0:0:0:
72,237,186496,1,0,0:0:0:0:
4,180,186662,2,0,P|40:152|80:148,1,68.50000193367,4|0,0:3|0:0,0:0:0:0:
144,188,186996,2,0,P|152:144|148:112,1,68.50000193367,0|2,1:0|0:0,0:0:0:0:
128,32,187329,6,0,P|192:84|256:68,1,137.00000386734,4|0,0:3|1:0,0:0:0:0:
241,76,187829,1,0,0:0:0:0:
316,128,187996,2,0,P|328:76|324:56,1,68.50000193367,4|0,0:3|0:0,0:0:0:0:
240,168,188329,2,0,P|238:202|249:234,1,68.50000193367,0|2,1:0|0:0,0:0:0:0:
228,320,188662,6,0,P|268:268|344:260,1,137.00000386734,4|0,0:3|1:0,0:0:0:0:
496,316,189162,1,0,0:0:0:0:
404,312,189329,2,0,P|420:272|420:244,1,68.50000193367,4|2,0:3|0:0,0:0:0:0:
351,192,189662,2,0,P|335:232|335:260,1,68.50000193367,0|2,1:0|0:0,0:0:0:0:
436,160,189996,6,0,L|408:16,1,137.00000386734,4|0,0:3|1:0,0:0:0:0:
324,56,190496,1,2,3:0:0:0:
324,56,190662,2,0,P|284:76|252:80,1,68.50000193367,4|0,0:3|0:0,0:0:0:0:
172,92,190996,2,0,P|184:40|208:8,1,68.50000193367,0|2,1:0|0:3,0:0:0:0:
224,160,191329,6,0,L|208:232,1,68.50000193367,4|0,0:3|0:0,0:0:0:0:
120,232,191662,2,0,L|134:298,1,68.50000193367,0|0,1:0|0:0,0:0:0:0:
194,365,191996,2,0,P|243:351|276:346,1,68.50000193367,4|0,0:3|0:0,0:0:0:0:
301,241,192329,2,0,P|252:255|219:260,1,68.50000193367,0|2,1:0|0:0,0:0:0:0:
369,327,192662,6,0,P|383:267|402:190,1,137.00000386734,4|0,0:3|1:0,0:0:0:0:
471,139,193162,1,0,0:0:0:0:
411,72,193329,2,0,P|366:83|337:89,1,68.50000193367,4|0,0:3|0:0,0:0:0:0:
299,164,193662,2,0,P|265:171|232:179,1,68.50000193367,0|2,1:0|0:0,0:0:0:0:
157,228,193996,6,0,P|146:166|185:102,1,137.00000386734,4|0,0:3|1:0,0:0:0:0:
232,179,194496,1,0,0:0:0:0:
208,296,194662,2,0,P|142:277|74:263,1,137.00000386734,4|0,0:3|1:0,0:0:0:0:
16,196,195162,1,2,0:0:0:0:
16,196,195246,1,0,0:0:0:0:
16,196,195329,6,0,P|2:137|2:119,1,68.50000193367,4|0,0:3|0:0,0:0:0:0:
71,37,195662,2,0,P|85:96|85:114,1,68.50000193367,0|0,1:0|0:0,0:0:0:0:
130,181,195996,2,0,P|188:167|217:161,1,68.50000193367,4|0,0:3|0:0,0:0:0:0:
232,83,196329,1,0,1:0:0:0:
293,147,196496,1,2,0:3:0:0:
293,147,196579,1,0,0:0:0:0:
293,147,196662,6,0,P|333:179|428:175,1,137.00000386734,4|0,1:0|1:0,0:0:0:0:
503,197,197162,2,0,P|493:133|484:120,1,68.50000193367,0|4,0:3|0:3,0:0:0:0:
411,212,197496,2,0,P|399:243|399:277,1,68.50000193367,0|0,0:0|1:0,0:0:0:0:
464,339,197829,1,2,0:0:0:0:
310,293,197996,6,0,P|236:310|166:331,1,137.00000386734,4|0,0:3|1:0,0:0:0:0:
94,360,198496,1,2,0:0:0:0:
29,299,198662,2,0,P|36:251|46:221,1,68.50000193367,4|2,0:3|0:0,0:0:0:0:
125,166,198996,2,0,P|133:199|137:233,1,68.50000193367,0|0,1:0|0:0,0:0:0:0:
47,121,199329,6,0,P|107:125|167:79,1,137.00000386734,4|0,0:3|1:0,0:0:0:0:
233,21,199829,2,0,P|253:62|257:89,1,68.50000193367,0|4,0:0|0:3,0:0:0:0:
353,73,200162,2,0,P|333:114|329:141,1,68.50000193367,0|0,0:0|1:0,0:0:0:0:
368,216,200496,1,2,0:0:0:0:
368,216,200579,1,0,0:0:0:0:
368,216,200662,6,0,P|429:182|507:184,2,137.00000386734,4|0|4,0:3|1:0|0:3,0:0:0:0:
301,276,201496,1,2,0:0:0:0:
218,244,201662,2,0,L|196:325,1,68.50000193367,0|2,1:0|3:0,0:0:0:0:
73,362,201996,6,0,L|53:219,1,137.00000386734,4|0,3:1|1:0,0:0:0:0:
26,141,202496,1,0,0:0:0:0:
112,159,202662,2,0,L|186:141,1,68.50000193367,4|2,0:3|0:0,0:0:0:0:
192,49,202996,2,0,L|118:67,1,68.50000193367,0|2,1:0|0:0,0:0:0:0:
259,108,203329,6,0,P|308:137|395:132,1,137.00000386734,4|0,0:3|1:0,0:0:0:0:
474,119,203829,1,0,3:0:0:0:
447,205,203996,2,0,P|462:251|466:283,1,68.50000193367,4|2,0:3|3:0,0:0:0:0:
455,293,204246,1,0,0:0:0:0:
455,293,204329,2,0,L|402:283,2,34.250000966835,0|0|8,1:0|1:0|0:3,0:0:0:0:
371,361,204662,6,0,L|301:348,1,68.50000193367,4|0,1:2|0:0,0:0:0:0:
272,216,204996,1,0,1:0:0:0:
231,291,205162,2,0,P|211:353|209:370,1,68.50000193367,4|0,0:3|1:0,0:0:0:0:
361,223,205496,2,0,P|353:189|340:157,1,68.50000193367,4|4,0:3|0:3,0:0:0:0:
254,17,205829,1,4,1:0:0:0:
329,74,205996,6,0,L|386:61,2,34.250000966835,0|0|4,1:0|1:0|0:3,0:0:0:0:
247,111,206329,1,0,1:0:0:0:
247,111,206412,1,0,1:0:0:0:
247,111,206496,1,4,0:3:0:0:
170,53,206662,2,0,L|156:7,2,34.250000966835,0|0|0,1:0|1:0|1:0,0:0:0:0:
247,111,206996,2,0,L|227:192,1,68.50000193367,8|4,0:3|0:3,0:0:0:0:
229,188,207246,1,4,0:3:0:0:
227,198,207329,5,4,1:3:0:0:
144,178,207496,1,4,1:3:0:0:
62,158,207662,1,4,1:3:0:0:
49,326,207996,2,0,L|34:261,2,64.9999970245362,12|8|4,0:3|0:3|0:3,0:0:0:0:
122,368,208496,6,0,P|183:322|254:331,1,129.999994049072,4|4,1:0|0:3,0:0:0:0:
299,268,208996,2,0,P|320:308|323:334,1,64.9999970245362,0|2,1:0|0:0,0:0:0:0:
218,238,209329,2,0,L|233:170,1,64.9999970245362,4|4,0:3|0:3,0:0:0:0:
316,174,209662,2,0,L|301:106,1,64.9999970245362,0|0,1:0|0:0,0:0:0:0:
299,97,209912,1,0,0:0:0:0:
296,86,209996,5,4,1:3:0:0:
376,61,210162,1,4,1:3:0:0:
457,36,210329,1,4,1:3:0:0:
447,289,210829,2,0,L|457:329,2,32.4999985122681,8|8|4,0:3|0:3|0:3,0:0:0:0:
373,247,211162,6,0,L|404:103,1,129.999994049072,4|4,1:2|0:3,0:0:0:0:
310,132,211662,2,0,L|294:206,1,64.9999970245362,0|2,1:0|0:0,0:0:0:0:
238,258,211996,2,0,P|205:281|177:285,1,64.9999970245362,4|4,0:3|0:3,0:0:0:0:
103,319,212329,2,0,L|86:366,2,32.4999985122681,0|0|4,1:0|1:0|0:3,0:0:0:0:
109,234,212662,6,0,L|89:90,1,129.999994049072,4|0,1:1|1:0,0:0:0:0:
130,30,213162,1,2,0:0:0:0:
203,71,213329,2,0,L|272:83,1,64.9999970245362,4|2,0:3|0:0,0:0:0:0:
337,179,213662,2,0,L|268:167,1,64.9999970245362,0|2,1:0|0:0,0:0:0:0:
406,125,213996,6,0,B|426:163|426:163|407:252,1,129.999994049072,4|0,0:3|1:0,0:0:0:0:
361,318,214496,2,0,L|296:335,1,64.9999970245362,0|4,0:0|0:3,0:0:0:0:
253,262,214829,2,0,L|188:279,1,64.9999970245362,2|0,0:0|1:0,0:0:0:0:
115,318,215162,1,4,0:3:0:0:
115,318,215246,1,0,0:0:0:0:
115,318,215329,6,0,P|108:258|151:200,1,129.999994049072,4|0,1:0|1:0,0:0:0:0:
201,138,215829,2,0,L|192:90,1,32.4999985122681,0|0,3:0|3:0,0:0:0:0:
180,66,215996,2,0,P|228:102|308:83,1,129.999994049072,4|0,0:3|1:0,0:0:0:0:
352,31,216496,1,2,3:0:0:0:
378,129,216662,6,0,L|368:172,2,32.4999985122681,0|0|0,3:0|3:0|1:0,0:0:0:0:
455,93,216996,2,0,L|443:17,1,64.9999970245362,8|4,3:3|3:0,0:0:0:0:
451,176,217329,2,0,L|459:233,2,32.4999985122681,8|0|8,1:3|1:0|0:3,0:0:0:0:
376,243,217662,1,4,1:3:0:0:
454,293,217829,1,4,0:3:0:0:
372,327,217996,6,0,L|255:300,1,119.999996337891,4|0,3:2|0:0,0:0:0:0:
181,270,218496,2,0,P|159:312|73:329,1,119.999996337891,8|4,0:3|0:3,0:0:0:0:
100,249,218996,1,4,0:3:0:0:
100,249,219329,5,4,0:1:0:0:
53,54,226662,5,4,0:3:0:0:
118,116,226829,2,0,L|236:99,1,110.000003356934,4|4,1:0|0:3,0:0:0:0:
341,31,227329,6,0,L|327:89,1,55.0000016784668,4|0,3:1|0:0,0:0:0:0:
420,80,227662,1,8,0:3:0:0:
420,80,227829,1,0,1:0:0:0:
375,157,227996,2,0,L|389:215,1,55.0000016784668,4|4,0:3|0:3,0:0:0:0:
345,281,228329,2,0,P|308:299|286:300,1,55.0000016784668,4|0,0:3|1:0,0:0:0:0:
219,240,228662,6,0,P|203:285|199:316,1,62.4999999999999,4|12,1:2|0:3,0:0:0:0:
129,354,228996,2,0,P|117:325|110:294,1,62.4999999999999,8|4,0:3|0:3,0:0:0:0:
78,211,229329,2,0,L|38:223,3,27.5000008392334,0|0|8|8,1:0|1:0|0:3|0:3,0:0:0:0:
96,169,229662,2,0,L|56:157,3,27.5000008392334,0|0|4|4,1:0|1:0|0:3|0:3,0:0:0:0:
110,136,229996,6,0,L|250:113,1,137.00000386734,4|0,1:0|1:0,0:0:0:0:
313,170,230496,2,0,P|331:125|331:99,1,68.50000193367,0|4,0:0|0:3,0:0:0:0:
420,102,230829,2,0,P|402:57|402:31,1,68.50000193367,2|0,0:0|1:0,0:0:0:0:
490,42,231162,1,2,0:0:0:0:
438,125,231329,6,0,L|404:269,1,137.00000386734,4|0,0:3|1:0,0:0:0:0:
365,337,231829,1,2,0:0:0:0:
292,284,231996,2,0,P|256:290|224:299,1,68.50000193367,4|2,0:3|0:0,0:0:0:0:
171,213,232329,2,0,P|207:207|239:198,1,68.50000193367,0|2,1:0|0:0,0:0:0:0:
105,158,232662,6,0,P|124:217|134:301,2,137.00000386734,4|0|4,0:3|1:0|0:3,0:0:0:0:
20,127,233496,1,2,0:0:0:0:
20,127,233662,2,0,P|34:62|41:49,1,68.50000193367,0|2,1:0|0:0,0:0:0:0:
132,20,233996,6,0,P|160:54|266:42,1,137.00000386734,4|0,0:3|1:0,0:0:0:0:
321,7,234496,1,0,0:0:0:0:
374,78,234662,2,0,P|389:124|394:146,1,68.50000193367,4|0,0:3|0:0,0:0:0:0:
460,203,234996,2,0,P|475:157|480:135,1,68.50000193367,0|2,1:0|0:3,0:0:0:0:
372,225,235329,6,0,P|333:205|238:182,1,137.00000386734,4|0,1:0|1:0,0:0:0:0:
159,150,235829,1,0,0:0:0:0:
159,150,235996,2,0,L|149:101,2,34.250000966835,4|0|0,0:3|0:0|0:0,0:0:0:0:
113,226,236329,2,0,L|97:301,1,68.50000193367,0|0,1:0|0:0,0:0:0:0:
50,367,236662,6,0,P|98:339|186:341,1,137.00000386734,4|0,0:3|1:0,0:0:0:0:
262,365,237162,1,0,0:0:0:0:
343,329,237329,2,0,P|357:290|361:262,1,68.50000193367,4|0,0:3|0:0,0:0:0:0:
289,204,237662,2,0,P|275:243|271:271,1,68.50000193367,0|2,1:0|0:0,0:0:0:0:
379,174,237996,6,0,P|365:97|348:34,1,137.00000386734,4|0,1:2|1:0,1:0:0:0:
265,12,238496,1,0,0:0:0:0:
189,58,238662,2,0,L|119:72,1,68.50000193367,4|0,0:3|0:0,0:0:0:0:
50,16,238996,2,0,P|31:60|30:83,1,68.50000193367,4|0,1:2|0:0,0:0:0:0:
85,149,239329,5,4,1:2:0:0:
15,204,239496,1,0,1:0:0:0:
85,149,239662,2,0,L|164:162,1,68.50000193367,0|8,1:0|0:3,0:0:0:0:
232,201,239996,2,0,L|217:258,3,34.250000966835,4|4|4|4,1:3|1:3|1:3|1:3,0:0:0:0:
271,176,240329,2,0,L|256:119,3,34.250000966835,8|8|8|8,1:3|1:3|1:3|1:3,0:0:0:0:
307,187,240662,6,0,P|350:219|439:210,2,137.00000386734,4|0|4,1:2|1:3|0:3,0:0:0:0:
379,133,241496,1,0,0:0:0:0:
303,87,241662,2,0,L|291:7,1,68.50000193367,0|2,1:0|0:0,0:0:0:0:
211,56,241996,6,0,L|200:123,1,68.50000193367,4|0,0:3|0:0,0:0:0:0:
130,179,242329,2,0,P|91:195|63:201,1,68.50000193367,0|0,1:0|0:0,0:0:0:0:
164,264,242662,2,0,P|203:248|231:242,1,68.50000193367,4|0,0:3|0:0,0:0:0:0:
296,301,242996,1,0,1:0:0:0:
315,214,243162,1,2,0:0:0:0:
380,274,243329,6,0,P|449:271|494:205,1,137.00000386734,4|0,0:3|1:0,0:0:0:0:
456,139,243829,1,0,0:0:0:0:
456,139,243996,2,0,L|476:53,1,68.50000193367,4|2,0:3|0:0,0:0:0:0:
382,82,244329,2,0,L|402:-4,1,68.50000193367,0|2,1:0|0:0,0:0:0:0:
300,45,244662,6,0,P|262:78|179:71,1,137.00000386734,4|0,0:3|1:0,0:0:0:0:
105,22,245162,1,0,3:0:0:0:
96,110,245329,2,0,P|113:151|119:181,1,68.50000193367,4|0,0:3|0:0,0:0:0:0:
205,190,245662,2,0,P|191:221|182:254,1,68.50000193367,0|2,1:0|0:3,0:0:0:0:
148,337,245996,6,0,P|195:291|285:295,1,137.00000386734,4|0,0:3|1:0,0:0:0:0:
318,215,246496,1,0,0:0:0:0:
352,296,246662,2,0,L|334:368,1,68.50000193367,4|0,0:3|0:0,0:0:0:0:
424,356,246996,2,0,L|442:284,1,68.50000193367,0|2,1:0|0:0,0:0:0:0:
384,199,247329,6,0,L|315:215,1,68.50000193367,4|0,0:3|0:0,0:0:0:0:
301,126,247662,2,0,L|232:142,1,68.50000193367,0|0,1:0|0:0,0:0:0:0:
226,230,247996,2,0,L|157:246,1,68.50000193367,4|0,0:3|0:0,0:0:0:0:
145,157,248329,2,0,L|76:173,1,68.50000193367,0|2,1:0|0:0,0:0:0:0:
26,81,248662,6,0,L|167:52,1,137.00000386734,4|0,0:3|1:0,0:0:0:0:
235,5,249162,1,0,0:0:0:0:
306,57,249329,2,0,P|338:93|433:94,1,137.00000386734,4|0,0:3|1:0,0:0:0:0:
479,167,249829,1,2,0:0:0:0:
479,167,249912,1,0,0:0:0:0:
479,167,249996,6,0,P|491:215|491:244,1,68.50000193367,4|0,0:3|0:0,0:0:0:0:
411,285,250329,2,0,P|399:237|399:208,1,68.50000193367,0|0,1:0|0:0,0:0:0:0:
492,342,250662,2,0,P|459:331|415:317,1,68.50000193367,4|0,0:3|0:0,0:0:0:0:
345,359,250996,2,0,P|312:348|268:334,1,68.50000193367,0|2,1:0|0:3,0:0:0:0:
190,245,251329,6,0,P|144:253|48:278,1,137.00000386734,4|0,1:0|1:0,0:0:0:0:
65,186,251829,2,0,P|46:141|41:117,1,68.50000193367,0|4,0:0|0:3,0:0:0:0:
153,55,252162,2,0,P|134:100|129:124,1,68.50000193367,0|0,0:0|1:0,0:0:0:0:
212,154,252496,1,2,0:0:0:0:
284,105,252662,6,0,P|337:70|413:78,1,137.00000386734,4|0,0:3|1:3,0:0:0:0:
479,128,253162,1,2,0:0:0:0:
479,128,253329,2,0,L|498:53,1,68.50000193367,4|2,0:3|0:0,0:0:0:0:
397,160,253662,2,0,L|413:226,1,68.50000193367,0|0,1:0|0:0,0:0:0:0:
449,352,253996,6,0,P|403:316|320:315,1,137.00000386734,4|0,0:3|1:0,0:0:0:0:
211,362,254496,2,0,P|202:315|206:289,1,68.50000193367,0|4,0:0|0:3,0:0:0:0:
287,209,254829,2,0,P|296:256|292:282,1,68.50000193367,0|0,0:0|1:0,0:0:0:0:
194,207,255162,1,2,0:0:0:0:
259,127,255329,6,0,P|290:165|389:168,2,137.00000386734,4|0|4,0:3|1:0|0:3,0:0:0:0:
243,39,256162,1,2,0:0:0:0:
327,30,256329,2,0,P|343:75|340:106,1,68.50000193367,0|0,1:0|0:3,0:0:0:0:
246,145,256662,6,0,P|168:113|106:111,1,137.00000386734,4|0,1:2|1:0,0:0:0:0:
51,173,257162,1,0,0:0:0:0:
3,244,257329,2,0,P|81:212|143:210,1,137.00000386734,4|0,0:3|1:0,0:0:0:0:
132,209,257829,1,2,0:3:0:0:
224,278,257996,6,0,P|214:322|209:352,1,68.50000193367,4|0,1:0|0:0,0:0:0:0:
314,252,258329,1,0,1:0:0:0:
314,252,258496,1,0,0:0:0:0:
244,193,258662,2,0,P|254:149|259:119,1,68.50000193367,4|0,0:3|1:0,0:0:0:0:
276,47,258996,1,0,1:0:0:0:
279,36,259079,1,0,1:0:0:0:
282,25,259162,1,8,0:3:0:0:
370,40,259329,6,0,P|360:84|355:114,1,68.50000193367,4|0,1:2|0:0,0:0:0:0:
395,221,259662,1,0,1:0:0:0:
434,144,259829,2,0,P|369:136|309:188,1,137.00000386734,4|0,1:0|1:0,0:0:0:0:
395,221,260329,1,0,1:0:0:0:
344,294,260496,1,4,0:3:0:0:
406,357,260662,6,0,L|451:346,2,34.250000966835,0|0|4,1:0|1:0|0:3,0:0:0:0:
344,294,260996,2,0,L|299:283,2,34.250000966835,0|0|4,1:0|1:0|0:3,0:0:0:0:
395,221,261329,2,0,L|440:210,2,34.250000966835,8|8|4,0:3|0:3|0:3,0:0:0:0:
314,177,261662,1,8,1:2:0:0:
303,174,261745,1,4,1:3:0:0:
292,171,261828,1,4,1:3:0:0:
245,91,261996,6,0,P|211:134|210:214,1,129.999994049072,6|0,1:2|1:0,0:0:0:0:
195,297,262496,1,0,0:0:0:0:
123,243,262662,2,0,P|85:258|58:265,1,64.9999970245362,4|0,0:3|0:0,0:0:0:0:
3,192,262996,1,0,1:0:0:0:
28,105,263162,6,0,P|86:95|159:73,1,129.999994049072
222,14,263662,2,0,P|240:57|245:88,1,64.9999970245362,0|0,1:0|0:0,0:0:0:0:
335,70,263996,2,0,P|321:99|313:130,1,64.9999970245362,4|0,0:3|0:0,0:0:0:0:
404,129,264329,1,0,1:0:0:0:
404,129,264496,1,0,3:0:0:0:
344,211,264662,6,0,P|301:169|229:161,2,129.999994049072,4|0|0,0:3|1:0|0:0,0:0:0:0:
385,292,265496,1,0,3:0:0:0:
450,229,265662,1,0,1:0:0:0:
385,292,265829,6,0,P|340:309|309:324,1,64.9999970245362,0|4,0:3|0:3,0:0:0:0:
249,367,266162,1,0,0:0:0:0:
167,325,266329,2,0,P|181:282|191:260,1,64.9999970245362,0|0,1:0|0:0,0:0:0:0:
276,237,266662,2,0,P|262:194|252:172,1,64.9999970245362,4|0,0:3|0:0,0:0:0:0:
182,119,266996,1,0,1:0:0:0:
182,119,267162,1,0,0:0:0:0:
229,41,267329,6,0,P|274:75|354:72,1,129.999994049072,4|0,0:3|1:0,0:0:0:0:
420,126,267829,2,0,P|435:79|435:48,1,64.9999970245362,0|0,3:0|0:0,0:0:0:0:
345,75,268162,2,0,P|330:122|330:153,1,64.9999970245362,0|0,0:0|1:0,0:0:0:0:
366,216,268496,1,0,0:0:0:0:
306,284,268662,6,0,P|269:293|235:303,1,64.9999970245362,4|0,0:3|0:0,0:0:0:0:
125,240,268996,2,0,P|162:231|196:221,1,64.9999970245362,0|0,1:0|0:0,0:0:0:0:
243,151,269329,1,4,0:3:0:0:
329,179,269496,1,0,0:0:0:0:
243,151,269662,2,0,L|231:90,2,32.4999985122681,0|0|8,1:0|1:0|0:3,0:0:0:0:
261,34,269996,6,0,B|203:25|171:61|171:61|162:42|132:37,1,129.999994049072,4|0,1:2|0:0,0:0:0:0:
101,110,270496,2,0,L|83:177,1,64.9999970245362,4|0,1:0|0:0,0:0:0:0:
22,240,270829,1,0,0:0:0:0:
73,315,270996,6,0,B|227:333|166:231|336:253,1,262.50001001358,4|4,1:2|0:3,0:0:0:0:
318,251,272329,1,0,1:0:0:0:
256,46,272723,5,4,3:1:0:0:
256,192,272806,12,0,277056,0:0:0:0:
