osu file format v14

[General]
AudioFilename: audio.mp3
AudioLeadIn: 0
PreviewTime: 61634
Countdown: 0
SampleSet: Soft
StackLeniency: 0.7
Mode: 0
LetterboxInBreaks: 0
WidescreenStoryboard: 0

[Editor]
DistanceSpacing: 0.8
BeatDivisor: 4
GridSize: 4
TimelineZoom: 1

[Metadata]
Title:DiVE 2 WORLD
TitleUnicode:DiVE 2 WORLD
Artist:Komatsu Rina
ArtistUnicode:狛茉璃奈
Creator:Kin
Version:Insane
Source:ナツイロココロログ
Tags:Natsuiro Kokoro Log Hearts ロロログ Rorolog Ryuki Aruna 琉姫アルナ yaleufeu Kyuukai
BeatmapID:1147580
BeatmapSetID:541194

[Difficulty]
HPDrainRate:7
CircleSize:4
OverallDifficulty:8
ApproachRate:9
SliderMultiplier:1.8
SliderTickRate:1

[Events]
//Background and Video events
Video,0,"VIDEO.avi"
0,0,"background.png",0,0
//Break Periods
//Storyboard Layer 0 (Background)
//Storyboard Layer 1 (Fail)
//Storyboard Layer 2 (Pass)
//Storyboard Layer 3 (Foreground)
//Storyboard Sound Samples

[TimingPoints]
544,363.636363636364,4,2,1,35,1,0
544,-133.333333333333,4,2,1,35,0,0
6362,-80,4,2,1,35,0,0
7816,-100,4,2,1,70,0,0
19453,-100,4,1,0,50,0,0
20907,-133.333333333333,4,2,1,35,0,0
32180,-79.9999999999999,4,2,1,70,0,0
32544,-100,4,2,1,70,0,0
36907,-133.333333333333,4,2,1,70,0,0
37180,-79.9999999999999,4,2,1,70,0,0
37453,-133.333333333333,4,2,1,70,0,0
37634,-100,4,2,1,70,0,0
40634,-100,4,2,1,45,0,0
40725,-100,4,2,1,70,0,0
43816,-100,4,1,0,70,0,0
43907,-100,4,2,1,70,0,0
47089,-79.9999999999999,4,2,1,70,0,0
47362,-133.333333333333,4,2,1,70,0,0
47634,-79.9999999999999,4,2,1,70,0,0
47816,-100,4,2,1,70,0,0
49998,-79.9999999999999,4,2,1,70,0,0
50271,-133.333333333333,4,2,1,70,0,0
50544,-79.9999999999999,4,2,1,70,0,0
50725,-100,4,2,1,70,0,0
56089,-90.9090909090909,4,2,1,70,0,0
56362,-83.3333333333333,4,2,1,70,0,0
56634,-76.9230769230769,4,2,1,70,0,0
56907,-100,4,2,1,70,0,0
57271,-79.9999999999999,4,2,1,70,0,0
57544,-133.333333333333,4,2,1,70,0,0
57816,-79.9999999999999,4,2,1,70,0,0
58089,-100,4,2,1,70,0,0
60180,-79.9999999999999,4,2,1,40,0,0
60271,-79.9999999999999,4,2,1,5,0,0
60362,-79.9999999999999,4,2,1,40,0,0
60453,-79.9999999999999,4,2,1,5,0,0
60544,-100,4,2,1,40,0,0
60816,-100,4,2,1,5,0,0
60907,-100,4,2,1,40,0,0
61271,-100,4,2,1,90,0,0
61634,-100,4,2,1,70,0,1
63907,-100,4,2,1,40,0,1
63998,-100,4,2,1,70,0,1
66816,-100,4,2,1,40,0,1
66907,-100,4,2,1,70,0,1
75544,-100,4,2,1,40,0,1
75634,-100,4,2,1,70,0,1
78453,-100,4,2,1,40,0,1
78544,-100,4,2,1,70,0,1
84725,-100,4,2,1,70,0,0
97089,-100,4,1,0,70,0,0
97180,-100,4,2,1,70,0,0

[Colours]
Combo1 : 255,106,181
Combo2 : 255,255,106
Combo3 : 255,100,100
Combo4 : 255,215,255

[HitObjects]
112,240,544,6,0,P|140:244|200:232,1,67.5000025749208,2|0,1:2|0:0,0:0:0:0:
256,164,907,1,2,0:0:0:0:
284,268,1089,2,0,L|280:344,1,67.5000025749208,2|0,0:0|0:0,0:0:0:0:
256,164,1453,2,0,L|252:88,1,67.5000025749208,2|0,0:0|0:0,0:0:0:0:
360,192,1816,1,2,0:0:0:0:
178,239,1998,6,0,P|145:244|112:240,1,67.5000025749208,2|0,0:0|0:0,0:0:0:0:
256,164,2362,1,2,0:0:0:0:
284,268,2544,2,0,P|336:300|408:280,1,135.000005149842,2|0,0:0|0:0,0:0:0:0:
476,200,3089,2,0,L|472:116,1,67.5000025749208
328,32,3453,6,0,L|321:166,1,135.000005149842,2|0,0:0|0:0,0:0:0:0:
284,268,3998,2,0,P|244:304|148:288,1,135.000005149842
76,240,4544,2,0,L|8:243,1,67.5000025749208
148,160,4907,6,0,L|282:167,1,135.000005149842,2|0,0:0|0:0,0:0:0:0:
392,176,5453,1,2,0:0:0:0:
352,76,5634,1,0,0:0:0:0:
512,168,5816,1,2,0:0:0:0:
472,268,5998,2,0,P|448:316|492:360,1,101.250003862381,2|0,0:0|0:0,0:0:0:0:
470,352,6362,6,0,L|412:348,1,56.25,2|0,3:2|0:0,0:0:0:0:
292,376,6544,2,0,L|233:371,1,56.25,2|0,3:2|0:0,0:0:0:0:
88,288,6907,6,0,P|152:280|112:204,1,168.75,2|0,3:2|3:0,0:0:0:0:
92,196,7271,1,0,3:0:0:0:
60,188,7362,1,0,3:0:0:0:
28,180,7453,2,0,P|-7:115|63:96,1,168.75,2|0,1:2|0:0,0:0:0:0:
136,132,7816,6,0,P|176:140|232:132,1,90,6|0,1:2|0:0,0:0:0:0:
308,64,8180,1,10,0:0:0:0:
436,216,8362,2,0,L|428:316,1,90,2|0,0:0|1:0,0:0:0:0:
448,72,8725,1,2,0:0:0:0:
328,176,8907,1,10,0:0:0:0:
256,96,9089,2,0,P|228:136|220:184,1,90,2|0,1:2|0:0,0:0:0:0:
268,272,9453,5,2,0:0:0:0:
80,208,9634,1,10,0:0:0:0:
160,280,9816,1,2,0:0:0:0:
140,64,9998,2,0,B|156:104|156:104|152:152,1,90,2|0,1:2|0:0,0:0:0:0:
372,320,10362,2,0,B|356:280|356:280|360:232,1,90,10|0,1:2|0:0,0:0:0:0:
480,76,10725,6,0,B|432:68|392:80|392:80|380:52|352:32,1,135,6|0,1:2|0:0,0:0:0:0:
312,108,11089,1,10,0:0:0:0:
128,40,11271,2,0,P|140:88|128:128,1,90,2|0,0:0|1:0,0:0:0:0:
0,320,11634,1,2,0:0:0:0:
80,200,11816,1,10,0:0:0:0:
144,328,11998,2,0,P|188:336|236:328,1,90,2|0,1:2|0:0,0:0:0:0:
352,244,12362,5,2,0:0:0:0:
284,56,12544,1,10,0:0:0:0:
284,256,12725,1,2,0:0:0:0:
352,68,12907,2,0,B|348:116|348:116|360:160,1,90,2|0,1:2|0:0,0:0:0:0:
160,316,13271,2,0,B|164:268|164:268|152:224,1,90,10|0,1:2|0:0,0:0:0:0:
24,76,13634,6,0,P|80:104|152:88,1,135,6|0,0:0|0:0,0:0:0:0:
196,24,13998,1,10,0:0:0:0:
56,208,14180,2,0,P|40:252|64:304,1,90,2|0,0:0|0:0,0:0:0:0:
140,356,14544,1,0,1:0:0:0:
256,196,14725,1,10,0:0:0:0:
372,356,14907,6,0,B|392:360|392:360|444:352|444:352|460:356,1,90,2|0,1:2|0:0,0:0:0:0:
256,196,15271,2,0,B|236:192|236:192|184:200|184:200|168:196,1,90,2|0,1:2|0:0,0:0:0:0:
480,284,15634,2,0,B|484:244|484:244|476:184,1,90,2|0,1:2|0:0,0:0:0:0:
148,268,15998,1,0,1:0:0:0:
252,244,16180,1,8,0:0:0:0:
124,304,16362,1,2,1:2:0:0:
292,264,16544,6,0,B|356:244|356:284|424:264|424:264|416:240|424:212,1,180,6|0,1:2|0:0,0:0:0:0:
504,100,17089,2,0,P|488:148|364:144,1,180,2|0,1:2|0:0,0:0:0:0:
328,60,17634,1,0,1:0:0:0:
256,284,17816,2,0,P|256:240|208:200,1,90,4|0,1:0|0:0,0:0:0:0:
28,180,18180,6,0,P|28:224|76:264,1,90,0|0,1:0|0:0,0:0:0:0:
144,76,18544,1,4,1:0:0:0:
248,96,18725,1,2,0:0:0:0:
308,188,18907,1,0,1:0:0:0:
412,168,19088,1,2,0:0:0:0:
248,96,19271,2,0,P|208:136|204:192,1,90,2|0,1:2|0:0,0:0:0:0:
184,248,19544,5,0,3:0:0:0:
180,264,19634,2,0,L|184:320,1,45,0|0,0:0|3:0,0:0:0:0:
332,264,19816,2,0,L|328:320,1,45,0|0,0:0|3:0,0:0:0:0:
256,172,19998,1,0,0:0:0:0:
256,152,20089,2,0,L|256:96,1,45,0|0,0:0|3:0,0:0:0:0:
120,160,20271,2,0,P|88:164|56:160,1,45,4|0,0:3|0:0,0:0:0:0:
208,40,20453,1,4,0:3:0:0:
224,28,20544,2,0,P|264:20|320:32,1,90,2|0,0:3|0:0,0:0:0:0:
388,60,20816,1,0,0:0:0:0:
380,80,20907,6,0,P|372:120|380:160,1,67.5000025749208,0|2,1:0|0:0,0:0:0:0:
480,120,21271,1,0,0:0:0:0:
268,164,21453,2,0,L|188:160,1,67.5000025749208,2|0,0:0|0:0,0:0:0:0:
108,216,21816,1,0,0:0:0:0:
104,108,21998,2,0,L|108:28,1,67.5000025749208,2|2,0:0|0:0,0:0:0:0:
200,160,22362,6,0,L|196:240,1,67.5000025749208,2|0,0:0|0:0,0:0:0:0:
256,316,22725,1,0,0:0:0:0:
308,220,22907,1,2,0:0:0:0:
180,300,23089,2,0,P|140:304|104:296,1,67.5000025749208,2|2,0:0|0:0,0:0:0:0:
40,220,23453,1,2,0:0:0:0:
8,324,23634,1,0,0:0:0:0:
168,176,23816,5,2,0:0:0:0:
276,196,23998,1,2,0:0:0:0:
372,144,24180,1,0,0:0:0:0:
480,164,24362,2,0,P|488:196|480:240,1,67.5000025749208,2|0,0:0|0:0,0:0:0:0:
279,261,24725,2,0,P|271:229|279:185,1,67.5000025749208,2|0,0:0|0:0,0:0:0:0:
372,144,25089,2,0,P|380:112|372:68,1,67.5000025749208,2|0,0:0|0:0,0:0:0:0:
192,28,25453,5,2,0:0:0:0:
268,104,25634,1,0,0:0:0:0:
272,24,25816,1,0,0:0:0:0:
188,112,25998,1,0,0:0:0:0:
348,184,26180,1,2,0:0:0:0:
296,92,26362,1,0,0:0:0:0:
204,256,26544,1,0,0:0:0:0:
308,284,26725,6,0,P|356:280|384:264,1,67.5000025749208,2|2,0:0|0:0,0:0:0:0:
416,372,27089,1,2,0:0:0:0:
416,372,27271,2,0,P|455:344|471:316,1,67.5000025749208,2|0,0:0|0:0,0:0:0:0:
468,220,27634,1,0,0:0:0:0:
372,168,27816,1,2,0:0:0:0:
256,300,27998,1,2,0:0:0:0:
184,220,28180,6,0,P|176:156|184:84,1,135.000005149842,2|0,0:0|0:0,0:0:0:0:
264,156,28725,1,2,0:0:0:0:
368,120,28907,2,0,L|456:124,1,67.5000025749208,2|0,0:0|0:0,0:0:0:0:
264,156,29271,2,0,L|176:160,1,67.5000025749208,2|0,0:0|0:0,0:0:0:0:
368,192,29634,6,0,P|408:232|384:308,1,135.000005149842,2|0,0:0|0:0,0:0:0:0:
296,352,30180,2,0,L|220:348,1,67.5000025749208,2|0,0:0|0:0,0:0:0:0:
124,376,30544,2,0,L|48:372,1,67.5000025749208,2|0,0:0|0:0,0:0:0:0:
56,372,30907,1,2,0:0:0:0:
16,136,31089,5,0,3:0:0:0:
36,244,31271,1,0,3:0:0:0:
12,120,31453,2,0,P|104:152|72:64,1,236.250009012223,2|0,1:2|0:0,0:0:0:0:
96,76,32180,6,0,B|124:80|124:80|180:68|180:68|208:72,1,112.5,8|0,0:0|0:0,0:0:0:0:
368,108,32544,6,0,P|356:152|368:208,1,90,4|0,1:0|0:0,0:0:0:0:
444,268,32907,1,8,0:0:0:0:
472,72,33089,1,0,0:0:0:0:
288,144,33271,2,0,P|236:152|192:144,1,90,0|0,1:0|0:0,0:0:0:0:
76,40,33634,1,8,0:0:0:0:
88,148,33816,1,0,3:0:0:0:
88,148,33907,1,0,3:0:0:0:
88,148,33998,5,0,1:0:0:0:
200,32,34180,1,0,0:0:0:0:
128,216,34362,2,0,P|120:260|132:316,1,90,8|0,0:0|0:0,0:0:0:0:
236,320,34725,2,0,L|288:316,1,45,2|2,1:2|0:0,0:0:0:0:
356,352,34907,1,2,0:0:0:0:
256,180,35089,2,0,P|248:132|256:80,1,90,8|0,0:0|0:0,0:0:0:0:
484,232,35453,6,0,P|492:280|484:332,1,90,4|0,1:2|0:0,0:0:0:0:
384,152,35816,1,8,0:0:0:0:
336,248,35998,1,0,3:0:0:0:
324,272,36089,1,0,3:0:0:0:
312,296,36180,2,0,L|304:204,1,90,0|0,1:0|0:0,0:0:0:0:
188,44,36544,2,0,L|184:88,1,45,8|0,0:0|0:0,0:0:0:0:
96,204,36725,2,0,L|92:159,1,45,0|0,1:0|0:0,0:0:0:0:
176,280,36907,6,0,P|208:284|264:272,1,67.5000025749208,2|0,1:2|0:0,0:0:0:0:
308,220,37180,6,0,P|292:276|336:344,1,112.5,6|0,1:2|0:0,0:0:0:0:
383,268,37453,6,0,P|400:264|417:263,1,33.7500012874604,2|0,1:2|0:0,0:0:0:0:
242,279,37634,6,0,B|208:288|176:280|176:280|180:320,1,90,2|0,1:2|0:0,0:0:0:0:
308,368,37998,1,0,1:0:0:0:
456,160,38180,1,0,1:0:0:0:
360,212,38362,6,0,B|372:168|356:104|356:104|368:120|384:128,1,135,0|0,1:0|0:0,0:0:0:0:
456,160,38725,2,0,P|452:216|440:252,1,90,8|0,0:0|0:0,0:0:0:0:
288,296,39089,2,0,L|232:292,1,45,0|0,1:0|3:0,3:0:0:0:
184,348,39271,1,2,0:0:0:0:
136,156,39453,1,8,0:0:0:0:
116,260,39634,1,0,0:0:0:0:
312,208,39816,6,0,B|356:204|356:204|408:208,1,90,0|0,1:0|0:0,0:0:0:0:
184,348,40180,2,0,B|140:352|140:352|88:348,1,90,8|0,0:0|0:0,0:0:0:0:
32,104,40544,1,0,1:0:0:0:
32,124,40634,2,0,L|28:172,1,45,8|0,0:0|3:0,0:0:0:0:
164,264,40816,1,0,1:0:0:0:
164,244,40907,2,0,L|160:196,1,45,8|0,0:0|0:0,0:0:0:0:
296,104,41089,2,0,L|292:152,1,45,2|0,1:2|0:0,0:0:0:0:
404,268,41271,6,0,P|360:260|316:276,1,90,0|0,1:0|0:0,0:0:0:0:
288,296,41544,1,0,1:0:0:0:
276,328,41634,1,8,0:0:0:0:
396,144,41816,2,0,P|408:96|392:56,1,90,0|0,1:0|0:0,0:0:0:0:
364,36,42089,1,0,1:0:0:0:
328,28,42180,1,0,1:0:0:0:
464,236,42362,1,4,1:0:0:0:
212,260,42544,1,4,1:0:0:0:
416,112,42725,6,0,B|416:148|396:176|396:176|408:180|424:188,1,90,4|0,1:2|0:0,0:0:0:0:
464,236,42998,1,0,1:0:0:0:
472,252,43089,2,0,P|476:276|468:304,1,45
416,356,43271,2,0,B|376:344|376:344|328:352,1,90,0|0,1:0|0:0,0:0:0:0:
259,308,43544,2,0,B|298:279|298:279|340:272,1,90,0|0,1:0|0:0,0:0:0:0:
408,228,43816,2,0,B|369:199,1,45
300,42,43998,2,0,B|306:90,1,45,0|0,1:0|0:0,0:0:0:0:
193,228,44180,6,0,P|216:192|216:136,1,90,6|0,1:2|0:0,0:0:0:0:
92,260,44453,2,0,P|111:297|160:325,1,90,6|0,1:2|0:0,0:0:0:0:
112,156,44725,1,2,1:2:0:0:
112,156,44907,2,0,P|69:154|20:182,1,90,4|0,1:0|0:0,0:0:0:0:
12,256,45180,2,0,B|20:300|20:300|16:352,1,90,0|0,1:0|0:0,0:0:0:0:
16,345,45453,1,0,1:0:0:0:
144,244,45634,5,0,0:0:0:0:
240,292,45816,2,0,L|332:284,1,90,2|8,0:0|0:0,0:0:0:0:
396,368,46180,1,4,1:0:0:0:
464,144,46362,1,4,1:0:0:0:
356,352,46544,1,4,1:0:0:0:
508,152,46725,2,0,P|512:208|496:240,1,90,10|0,1:2|0:0,0:0:0:0:
272,176,47089,6,0,B|348:184|348:184|388:172,1,112.5,6|0,1:2|0:0,0:0:0:0:
304,96,47362,6,0,P|264:92|216:112,1,67.5000025749208,2|0,1:2|0:0,0:0:0:0:
128,170,47634,6,0,P|156:171|184:168,1,56.25,2|0,1:2|0:0,0:0:0:0:
64,120,47816,6,0,B|72:164|72:164|48:212,1,90,6|0,1:2|0:0,0:0:0:0:
36,236,48089,1,0,1:0:0:0:
20,268,48180,1,0,1:0:0:0:
184,168,48362,1,0,1:0:0:0:
256,248,48544,5,0,0:0:0:0:
328,168,48725,1,0,1:0:0:0:
152,268,48907,2,0,B|108:272|108:272|56:268,1,90,8|0,0:0|0:0,0:0:0:0:
8,176,49271,1,4,1:0:0:0:
136,24,49453,1,4,1:0:0:0:
288,152,49634,1,4,1:0:0:0:
160,304,49816,1,2,0:0:0:0:
192,200,49998,6,0,B|200:172|200:128|180:112|180:112|160:136,1,112.5,6|0,1:2|0:0,0:0:0:0:
288,152,50271,6,0,B|308:156|344:152|344:152|336:168|336:184,1,67.5000025749208,2|0,1:2|0:0,0:0:0:0:
280,244,50544,6,0,P|272:276|296:320,1,56.25,2|0,1:2|0:0,0:0:0:0:
192,200,50725,6,0,P|140:188|96:204,1,90,6|0,1:2|0:0,0:0:0:0:
40,248,50998,6,0,B|48:204|48:204|32:148,1,90,0|0,1:0|0:0,0:0:0:0:
35,160,51271,1,0,1:0:0:0:
136,296,51453,5,0,0:0:0:0:
192,200,51634,1,0,1:0:0:0:
256,352,51816,2,0,B|300:336|300:336|344:340,1,90,8|0,0:0|0:0,0:0:0:0:
452,356,52180,1,4,1:0:0:0:
256,192,52362,1,4,1:0:0:0:
504,236,52544,2,0,L|440:244,1,45,10|2,0:0|0:0,0:0:0:0:
268,324,52725,2,0,L|316:328,1,45,0|2,1:0|0:0,0:0:0:0:
256,192,52907,6,0,P|216:172|168:184,1,90,2|0,1:2|0:0,0:0:0:0:
144,200,53180,1,0,1:0:0:0:
128,232,53271,1,8,0:0:0:0:
268,324,53453,2,0,B|312:328|312:328|352:288,1,90,0|0,1:0|0:0,0:0:0:0:
368,268,53725,2,0,P|368:324|400:360,1,90,0|0,1:0|0:0,0:0:0:0:
420,364,53998,1,8,0:0:0:0:
332,128,54180,1,4,1:0:0:0:
172,324,54362,6,0,B|168:292|184:252|184:252|167:260|152:260,1,90,6|0,1:2|0:0,0:0:0:0:
96,296,54634,1,0,1:0:0:0:
64,316,54725,2,0,P|71:266|56:212,1,90,10|0,0:0|1:0,0:0:0:0:
4,76,55089,1,0,3:0:0:0:
4,76,55180,1,0,1:0:0:0:
4,76,55271,2,0,L|56:72,1,45,0|0,3:0|0:0,0:0:0:0:
152,152,55453,2,0,L|204:156,1,45,0|0,1:0|0:0,0:0:0:0:
300,76,55634,2,0,L|352:72,1,45,0|0,1:0|0:0,0:0:0:0:
448,152,55816,6,0,P|440:196|448:240,1,90,6|0,1:2|0:0,0:0:0:0:
496,304,56089,6,0,P|452:320|400:304,1,99.0000030212403,2|0,1:2|0:0,0:0:0:0:
368,228,56362,6,0,B|344:244|312:244|284:232|284:232|293:246|296:256,1,107.999996704102,2|0,1:2|0:0,0:0:0:0:
324,160,56634,6,0,B|336:136|336:100|324:76|324:76|340:76|356:84,1,116.999994644165,2|0,1:2|0:0,0:0:0:0:
368,228,56907,6,0,P|344:240|320:240,1,45,2|0,1:2|0:0,0:0:0:0:
212,204,57089,2,0,P|200:180|200:156,1,45,8|0,1:2|0:0,0:0:0:0:
148,36,57271,6,0,B|140:96|140:96|104:140,1,112.5,2|0,1:2|0:0,0:0:0:0:
40,196,57544,6,0,L|48:280,1,67.5000025749208,0|0,3:0|0:0,0:0:0:0:
128,324,57816,6,0,L|138:212,1,112.5,2|0,1:2|0:0,0:0:0:0:
107,136,58089,6,0,P|152:128|200:156,1,90,0|0,1:0|0:0,0:0:0:0:
190,146,58362,1,0,1:0:0:0:
40,196,58544,1,0,1:0:0:0:
136,328,58725,5,2,0:0:0:0:
169,340,58815,1,0,0:0:0:0:
204,336,58906,1,0,0:0:0:0:
233,314,58997,1,2,0:0:0:0:
247,282,59089,5,0,0:0:0:0:
244,300,59179,1,2,0:0:0:0:
244,318,59270,1,0,0:0:0:0:
248,335,59361,1,0,0:0:0:0:
256,351,59453,6,2,L|308:348,1,45
364,296,59634,2,0,L|415:299,1,45,0|2,0:0|0:0,0:0:0:0:
471,351,59816,2,0,P|484:328|484:296,3,45,0|2|0|2,0:0|0:0|0:0|0:0,0:0:0:0:
436,192,60180,6,0,P|428:160|440:136,1,56.25,2|0,3:2|0:0,0:0:0:0:
288,108,60362,2,0,P|296:76|284:52,1,56.25,2|0,3:2|0:0,0:0:0:0:
328,212,60725,6,0,P|332:248|324:272,1,45,2|0,3:2|0:0,0:0:0:0:
324,292,60907,2,0,B|388:304|388:304|344:316,1,90,2|2,3:2|0:0,0:0:0:0:
208,360,61271,1,0,3:0:0:0:
208,360,61634,6,0,P|192:316|192:272,1,90,4|0,1:0|0:0,0:0:0:0:
200,240,61907,1,0,0:0:0:0:
220,212,61998,2,0,L|212:112,1,90,8|0,0:0|0:0,0:0:0:0:
376,8,62362,2,0,L|368:108,1,90,0|0,1:0|0:0,0:0:0:0:
280,36,62725,1,8,0:0:0:0:
191,273,62907,1,0,1:0:0:0:
112,200,63089,5,0,3:0:0:0:
80,304,63270,1,0,3:0:0:0:
80,304,63362,1,0,3:0:0:0:
80,304,63453,2,0,P|98:344|134:370,1,90,0|0,1:0|0:0,0:0:0:0:
256,264,63816,1,0,1:0:0:0:
252,248,63907,2,0,L|244:196,1,45,8|0,0:0|3:0,0:0:0:0:
360,180,64089,1,0,1:0:0:0:
356,196,64180,2,0,L|342:284,1,90,8|0,0:0|0:0,0:0:0:0:
220,40,64544,5,4,1:0:0:0:
168,136,64725,1,0,0:0:0:0:
220,232,64907,1,8,0:0:0:0:
348,132,65089,1,0,0:0:0:0:
220,40,65271,1,0,1:0:0:0:
132,216,65453,1,0,0:0:0:0:
76,124,65634,1,8,0:0:0:0:
300,240,65816,2,0,B|388:272|388:208|476:240,1,180,0|0,1:0|0:0,0:0:0:0:
344,144,66362,6,0,P|332:100|344:56,1,90,0|0,1:0|0:0,0:0:0:0:
204,140,66725,1,0,1:0:0:0:
188,148,66816,2,0,L|140:144,1,45,8|0,0:0|3:0,0:0:0:0:
56,240,66998,1,0,1:0:0:0:
72,248,67089,2,0,L|120:244,1,45,8|0,0:0|0:0,0:0:0:0:
36,144,67271,1,0,3:0:0:0:
36,144,67362,1,0,3:0:0:0:
36,144,67453,6,0,P|24:88|40:44,1,90,4|0,1:0|0:0,0:0:0:0:
116,244,67816,2,0,P|128:300|112:344,1,90,8|0,0:0|0:0,0:0:0:0:
20,292,68180,1,0,1:0:0:0:
200,200,68362,1,0,0:0:0:0:
256,292,68544,1,8,0:0:0:0:
20,292,68725,6,0,P|8:248|16:188,1,90,2|0,1:2|0:0,0:0:0:0:
252,76,69089,2,0,P|264:120|256:180,1,90,2|0,1:2|0:0,0:0:0:0:
24,32,69453,2,0,B|44:36|44:36|88:32|88:32|116:36,1,90,10|0,1:2|0:0,0:0:0:0:
350,160,69816,2,0,B|330:164|330:164|286:160|286:160|258:164,1,90,10|0,1:2|0:0,0:0:0:0:
156,192,70180,1,0,1:0:0:0:
456,136,70362,5,2,1:2:0:0:
384,56,70544,1,0,0:0:0:0:
456,248,70725,1,0,1:0:0:0:
384,328,70907,2,0,B|341:331|341:331|249:319|249:319|205:323,1,180,2|0,1:2|0:0,0:0:0:0:
340,228,71453,1,10,0:0:0:0:
192,48,71634,6,0,B|180:92|180:92|180:140|180:140|168:180,1,135,12|0,0:0|0:0,0:0:0:0:
67,263,71998,2,0,B|79:223|79:223|79:175|79:175|91:131,1,135,12|0,0:0|0:0,0:0:0:0:
192,48,72362,2,0,B|256:32|256:68|324:48,1,135,4|0,1:2|0:0,0:0:0:0:
224,132,72725,1,0,1:0:0:0:
220,136,72816,1,0,1:0:0:0:
216,140,72907,2,0,P|208:188|220:236,1,90,12|0,1:2|0:0,0:0:0:0:
432,320,73271,6,0,P|440:272|428:224,1,90,4|0,1:2|0:0,0:0:0:0:
360,152,73634,1,8,0:0:0:0:
216,227,73816,2,0,P|207:270|215:314,1,90,2|0,0:0|1:0,0:0:0:0:
316,268,74180,1,2,0:0:0:0:
308,160,74362,1,8,0:0:0:0:
104,308,74544,2,0,P|64:324|96:248,1,180,0|0,1:0|0:0,0:0:0:0:
180,280,75089,5,8,0:0:0:0:
236,372,75271,1,0,0:0:0:0:
292,280,75453,1,0,1:0:0:0:
300,264,75544,2,0,L|296:212,1,45,8|0,0:0|3:0,0:0:0:0:
392,136,75725,1,0,1:0:0:0:
400,152,75816,2,0,B|396:196|396:196|412:244,1,90,8|0,0:0|0:0,0:0:0:0:
256,60,76180,6,0,P|216:52|156:64,1,90,6|0,1:2|0:0,0:0:0:0:
100,208,76544,1,8,0:0:0:0:
68,104,76725,1,0,0:0:0:0:
208,184,76907,1,0,1:0:0:0:
176,288,77089,1,0,0:0:0:0:
100,208,77271,1,8,0:0:0:0:
344,276,77453,2,0,P|396:276|416:168,1,180,0|0,1:0|3:0,0:0:0:0:
384,156,77907,1,0,3:0:0:0:
348,160,77998,6,0,B|332:116|332:116|336:56,1,90,8|0,0:0|0:0,0:0:0:0:
196,36,78362,1,0,1:0:0:0:
180,40,78453,2,0,L|128:36,1,45,8|0,0:0|3:0,0:0:0:0:
28,132,78634,1,0,1:0:0:0:
44,136,78725,2,0,L|136:128,1,90,8|0,0:0|0:0,0:0:0:0:
344,272,79089,6,0,L|252:264,1,90,4|0,1:2|0:0,0:0:0:0:
156,312,79453,1,8,0:0:0:0:
60,264,79634,1,0,0:0:0:0:
148,204,79816,2,0,P|160:160|152:116,1,90,0|0,1:0|0:0,0:0:0:0:
64,56,80180,1,8,0:0:0:0:
292,112,80362,6,0,B|352:128|356:92|424:112,1,135,2|0,1:2|0:0,0:0:0:0:
424,196,80725,2,0,B|356:216|352:180|292:196,1,135,2|0,1:2|0:0,0:0:0:0:
212,216,81089,2,0,P|180:160|216:100,1,135,6|0,1:2|0:0,0:0:0:0:
292,112,81453,2,0,P|312:116|344:112,1,45,0|0,1:0|3:0,0:0:0:0:
424,72,81634,1,0,1:0:0:0:
460,232,81816,1,0,3:0:0:0:
416,40,81998,6,0,B|424:72|424:72|412:96|412:96|420:128,1,90,4|0,1:0|0:0,0:0:0:0:
460,232,82362,1,8,0:0:0:0:
220,152,82544,2,0,P|152:156|192:248,1,180,4|0,1:2|0:0,0:0:0:0:
276,244,83089,1,0,3:0:0:0:
316,48,83271,6,0,P|332:104|408:108,1,135,4|0,1:0|0:0,0:0:0:0:
436,40,83634,2,0,P|480:88|464:160,1,135,2|0,1:2|0:0,0:0:0:0:
396,192,83998,2,0,P|352:240|368:312,1,135,2|0,1:2|3:0,0:0:0:0:
432,264,84362,2,0,P|460:268|480:264,1,45,4|0,1:2|3:0,0:0:0:0:
276,232,84544,1,0,3:0:0:0:
276,232,84634,1,0,1:0:0:0:
276,232,84725,1,4,1:0:0:0:
256,192,84907,12,0,86180,0:0:0:0:
72,152,86362,6,0,P|88:188|176:184,1,135,6|0,1:2|0:0,0:0:0:0:
172,187,86725,1,10,0:0:0:0:
256,48,86907,2,0,B|252:92|252:92|264:140,1,90,2|0,0:0|1:0,0:0:0:0:
296,240,87271,1,2,0:0:0:0:
368,160,87453,1,10,0:0:0:0:
180,216,87634,2,0,P|136:224|88:212,1,90,2|0,1:2|0:0,0:0:0:0:
40,116,87998,5,2,0:0:0:0:
140,72,88180,1,10,0:0:0:0:
292,132,88362,1,2,0:0:0:0:
392,88,88544,2,0,P|400:136|380:192,1,90,2|0,1:2|0:0,0:0:0:0:
119,295,88907,2,0,P|111:252|122:208,1,90,2|0,1:2|0:0,0:0:0:0:
256,60,89271,6,0,B|212:64|212:64|164:56|164:56|120:60,1,135,6|0,1:2|0:0,0:0:0:0:
122,59,89634,1,10,0:0:0:0:
256,160,89816,2,0,P|276:200|264:248,1,90,2|0,0:0|1:0,0:0:0:0:
180,308,90180,1,2,0:0:0:0:
76,276,90362,1,10,0:0:0:0:
176,104,90544,2,0,P|184:156|160:208,1,90,2|2,1:2|0:0,0:0:0:0:
76,144,90907,5,2,0:0:0:0:
88,36,91089,1,10,0:0:0:0:
204,148,91271,1,2,0:0:0:0:
216,256,91453,2,0,B|220:300|220:300|204:344,1,90,2|0,1:2|0:0,0:0:0:0:
296,128,91816,2,0,B|292:84|292:84|308:40,1,90,2|0,1:2|0:0,0:0:0:0:
408,208,92180,6,0,B|348:196|336:236|276:224,1,135,6|0,1:2|0:0,0:0:0:0:
276,224,92544,1,10,0:0:0:0:
424,304,92725,2,0,P|464:292|496:252,1,90,2|0,0:0|1:0,0:0:0:0:
492,148,93089,1,2,0:0:0:0:
424,64,93271,1,10,0:0:0:0:
256,164,93453,6,0,P|184:188|128:152,1,135,2|0,1:2|0:0,0:0:0:0:
196,108,93816,2,0,P|268:84|324:120,1,135,2|0,1:2|0:0,0:0:0:0:
336,188,94180,2,0,B|340:232|340:232|328:276|328:276|332:324,1,135,2|0,1:2|0:0,0:0:0:0:
331,321,94544,1,0,1:0:0:0:
232,224,94725,1,8,0:0:0:0:
440,288,94907,1,0,1:0:0:0:
192,320,95089,6,0,P|132:264|144:168,1,180,6|0,1:2|0:0,0:0:0:0:
232,224,95634,2,0,B|276:228|276:228|368:216|368:216|410:219,1,180,0|0,1:0|0:0,0:0:0:0:
368,320,96180,1,4,1:0:0:0:
276,124,96362,2,0,P|268:84|280:36,1,90,4|0,1:2|0:0,0:0:0:0:
414,132,96725,6,0,P|422:172|410:220,1,90,0|0,1:0|0:0,0:0:0:0:
268,296,97089,2,0,B|212:288|212:288|176:296,1,90,0|2,0:0|0:0,0:0:0:0:
156,304,97362,1,2,0:0:0:0:
132,316,97453,1,0,1:0:0:0:
72,92,97634,1,2,3:2:0:0:
80,120,97725,1,2,3:2:0:0:
92,164,97816,1,14,0:0:0:0:
