osu file format v14

[General]
AudioFilename: audio.mp3
AudioLeadIn: 0
PreviewTime: 62070
Countdown: 0
SampleSet: Soft
StackLeniency: 0.5
Mode: 0
LetterboxInBreaks: 0
WidescreenStoryboard: 1

[Editor]
Bookmarks: 11252,71889
DistanceSpacing: 1.5
BeatDivisor: 4
GridSize: 16
TimelineZoom: 3.399999

[Metadata]
Title:DiVE 2 WORLD
TitleUnicode:DiVE 2 WORLD
Artist:Komatsu Rina
ArtistUnicode:狛茉璃奈
Creator:Dored
Version:Oiso's Insane
Source:ナツイロココロログ
Tags:Natsuiro Kokoro Log Galgame Eroge Opening Short Version Hearts 琉姫アルナ gary00737 Gust Ultimate Madoka Oiso
BeatmapID:1544131
BeatmapSetID:706582

[Difficulty]
HPDrainRate:6
CircleSize:3.5
OverallDifficulty:8
ApproachRate:9.3
SliderMultiplier:1.6
SliderTickRate:1

[Events]
//Background and Video events
0,0,"Oiso.jpg",0,0
//Break Periods
//Storyboard Layer 0 (Background)
//Storyboard Layer 1 (Fail)
//Storyboard Layer 2 (Pass)
//Storyboard Layer 3 (Foreground)
//Storyboard Sound Samples

[TimingPoints]
980,363.636363636364,4,2,1,40,1,0
980,-200,4,2,1,40,0,0
7434,-200,4,2,1,5,0,0
7525,-200,4,2,1,50,0,0
7889,-100,4,2,1,50,0,0
8252,-100,4,2,1,60,0,0
15434,-100,4,2,1,5,0,0
15707,-100,4,2,1,60,0,0
15798,-100,4,2,1,5,0,0
16070,-100,4,2,1,60,0,0
16161,-100,4,2,1,5,0,0
16434,-100,4,2,1,60,0,0
16525,-100,4,2,1,5,0,0
16798,-100,4,2,1,60,0,0
21343,-133.333333333333,4,2,1,40,0,0
32616,-57.1428571428571,4,2,1,50,0,0
32889,-57.1428571428571,4,2,1,5,0,0
32980,-100,4,2,1,50,0,0
44616,-100,4,2,1,50,0,0
44707,-100,4,2,1,5,0,0
44889,-100,4,2,1,50,0,0
44980,-100,4,2,1,5,0,0
45161,-100,4,2,1,50,0,0
45252,-100,4,2,1,5,0,0
45343,-100,4,2,1,50,0,0
47525,-66.6666666666667,4,2,1,50,0,0
47707,-100,4,2,1,5,0,0
47798,-66.6666666666667,4,2,1,50,0,0
47980,-100,4,2,1,5,0,0
48070,-66.6666666666667,4,2,1,50,0,0
48161,-100,4,2,1,5,0,0
48252,-100,4,2,1,50,0,0
50434,-66.6666666666667,4,2,1,50,0,0
50616,-100,4,2,1,5,0,0
50707,-66.6666666666667,4,2,1,50,0,0
50889,-100,4,2,1,5,0,0
50979,-66.6666666666667,4,2,1,50,0,0
51070,-100,4,2,1,5,0,0
51161,-100,4,2,1,50,0,0
53343,-100,4,2,1,50,0,0
54798,-66.6666666666667,4,2,1,50,0,0
56252,-100,4,2,1,60,0,0
56343,-100,4,2,1,5,0,0
56525,-100,4,2,1,60,0,0
56616,-100,4,2,1,5,0,0
56798,-100,4,2,1,60,0,0
56889,-100,4,2,1,5,0,0
57070,-100,4,2,1,60,0,0
57161,-100,4,2,1,5,0,0
57343,-100,4,2,1,60,0,0
57434,-100,4,2,1,5,0,0
57525,-100,4,2,1,60,0,0
57616,-100,4,2,1,5,0,0
57707,-100,4,2,1,60,0,0
57798,-100,4,2,1,5,0,0
57980,-100,4,2,1,60,0,0
58071,-100,4,2,1,5,0,0
58253,-100,4,2,1,60,0,0
58344,-100,4,2,1,5,0,0
58525,-100,4,2,1,60,0,0
58616,-100,4,2,1,5,0,0
58798,-100,4,2,1,60,0,0
58889,-100,4,2,1,5,0,0
58980,-100,4,2,1,60,0,0
59070,-100,4,2,1,5,0,0
59161,-100,4,2,1,65,0,0
59525,-100,4,2,1,60,0,0
59889,-100,4,2,1,55,0,0
60252,-100,4,2,1,50,0,0
60616,-200,4,2,1,45,0,0
61161,-200,4,2,1,50,0,0
61343,-200,4,2,1,40,0,0
61707,-57.1428571428571,4,2,1,60,0,0
61980,-57.1428571428571,4,2,1,5,0,0
62070,-83.3333333333333,4,2,1,70,0,1
69161,-66.6666666666667,4,2,1,70,0,1
69434,-66.6666666666667,4,2,1,5,0,1
69525,-66.6666666666667,4,2,1,70,0,1
69798,-66.6666666666667,4,2,1,5,0,1
69889,-66.6666666666667,4,2,1,70,0,1
70161,-66.6666666666667,4,2,1,5,0,1
70252,-66.6666666666667,4,2,1,70,0,1
71343,-83.3333333333333,4,2,1,70,0,1
80798,-66.6666666666667,4,2,1,70,0,1
81070,-66.6666666666667,4,2,1,5,0,1
81161,-66.6666666666667,4,2,1,70,0,1
81434,-66.6666666666667,4,2,1,5,0,1
81525,-66.6666666666667,4,2,1,70,0,1
81798,-66.6666666666667,4,2,1,5,0,1
81889,-66.6666666666667,4,2,1,70,0,1
82980,-83.3333333333333,4,2,1,70,0,1
85343,-100,4,2,1,40,0,0
86798,-100,4,2,1,55,0,0

[Colours]
Combo1 : 128,255,255
Combo2 : 255,0,128
Combo3 : 255,128,0
Combo4 : 128,0,255

[HitObjects]
368,324,980,6,0,L|375:245,1,80
333,176,1525,2,0,L|340:97,1,80
172,97,2434,2,0,L|178:176,1,80
137,245,2979,2,0,L|143:324,1,80
256,112,3889,6,0,L|256:73,2,40
256,192,4434,1,0,0:0:0:0:
256,192,5343,12,0,6616,0:0:0:0:
213,119,6798,5,0,0:0:0:0:
142,82,6980,1,0,0:0:0:0:
142,82,7343,2,0,L|122:82,1,20
213,119,7525,2,0,B|225:150|225:150|220:202,1,80
145,162,8070,1,0,0:0:0:0:
281,76,8252,6,0,L|372:78,1,80,4|0,3:0|0:0,0:0:0:0:
444,126,8616,1,8,0:0:0:0:
359,173,8798,2,0,P|352:212|354:251,1,80,4|0,3:0|0:0,0:0:0:0:
395,339,9161,1,4,3:0:0:0:
444,126,9343,1,8,0:0:0:0:
230,18,9525,6,0,P|205:58|264:153,1,160,4|4,3:0|3:0,0:0:0:0:
444,126,10070,1,8,0:0:0:0:
230,18,10252,1,8,3:0:0:0:
60,173,10434,1,8,0:0:0:0:
60,173,10525,1,8,0:0:0:0:
60,173,10616,1,0,0:0:0:0:
281,76,10798,2,0,L|321:77,2,40,8|0|0,0:0|0:0|0:0,0:0:0:0:
17,14,11161,6,0,P|5:51|9:97,1,80,4|0,3:0|0:0,0:0:0:0:
60,173,11525,1,8,0:0:0:0:
145,130,11707,2,0,L|226:133,1,80,4|0,3:0|0:0,0:0:0:0:
389,311,12070,1,4,3:0:0:0:
309,89,12252,1,8,0:0:0:0:
400,341,12434,1,4,3:0:0:0:
225,133,12616,6,0,L|51:128,1,160,4|8,0:0|0:0,0:0:0:0:
338,75,13161,1,0,0:0:0:0:
248,338,13343,1,8,0:0:0:0:
248,338,13434,1,8,0:0:0:0:
248,338,13525,1,0,0:0:0:0:
423,138,13707,2,0,L|466:139,2,40,8|0|0,0:0|0:0|0:0,0:0:0:0:
163,275,14070,6,0,L|83:273,1,80,4|0,3:0|0:0,0:0:0:0:
19,200,14434,1,8,0:0:0:0:
92,135,14616,2,0,P|98:102|88:48,1,80,4|0,3:0|0:0,0:0:0:0:
191,291,14980,1,4,3:0:0:0:
19,200,15161,1,8,0:0:0:0:
264,148,15343,6,0,L|305:152,1,40,2|0,0:0|0:0,0:0:0:0:
493,179,15707,2,0,L|469:212,1,40,2|0,0:0|0:0,0:0:0:0:
352,361,16070,2,0,L|334:323,1,40,2|0,0:0|0:0,0:0:0:0:
388,98,16434,2,0,L|405:135,1,40,2|0,0:0|0:0,0:0:0:0:
474,311,16798,2,0,L|433:307,1,40,2|0,0:0|0:0,0:0:0:0:
209,257,16980,6,0,P|251:315|339:323,1,160,4|0,3:0|0:0,0:0:0:0:
479,191,17525,1,8,0:0:0:0:
410,115,17707,1,0,0:0:0:0:
379,213,17889,1,8,3:0:0:0:
410,115,18070,1,8,3:0:0:0:
448,289,18252,1,4,3:0:0:0:
279,235,18434,6,0,L|286:156,1,80,8|0,0:0|0:0,0:0:0:0:
290,125,18707,1,0,0:0:0:0:
290,125,18798,1,0,0:0:0:0:
161,291,18980,2,0,L|168:212,1,80,8|0,0:0|0:0,0:0:0:0:
173,171,19253,1,0,0:0:0:0:
173,171,19343,1,0,0:0:0:0:
43,347,19525,2,0,L|46:307,1,40,8|0,0:0|0:0,0:0:0:0:
59,171,19707,1,8,0:0:0:0:
157,332,19889,5,4,3:0:0:0:
341,134,20070,1,0,3:0:0:0:
316,111,20160,1,0,3:0:0:0:
284,99,20251,1,0,3:0:0:0:
250,101,20342,1,0,3:0:0:0:
219,115,20433,1,0,3:0:0:0:
219,115,20525,1,0,3:0:0:0:
119,255,20707,5,0,3:0:0:0:
119,255,20798,2,0,L|115:214,1,40,0|0,3:0|0:0,0:0:0:0:
95,18,20980,1,4,3:0:0:0:
271,186,21161,2,0,L|267:225,1,40,0|0,3:0|3:0,0:0:0:0:
255,383,21343,6,0,P|208:347|201:289,1,120.000004577637,2|0,0:0|0:0,0:0:0:0:
267,226,21889,2,0,P|185:199|117:255,1,180.000006866455,2|0,0:0|0:0,0:0:0:0:
385,364,22798,6,0,L|393:241,1,120.000004577637,2|0,0:0|0:0,0:0:0:0:
461,186,23343,2,0,P|379:212|294:167,1,180.000006866455,2|0,0:0|0:0,0:0:0:0:
166,22,24252,6,0,L|238:13,1,60.0000022888184,2|0,0:0|0:0,0:0:0:0:
301,74,24616,1,0,0:0:0:0:
301,74,24798,2,0,L|299:193,1,120.000004577637,2|0,0:0|0:0,0:0:0:0:
259,281,25343,2,0,P|210:300|193:301,1,60.0000022888184
109,276,25707,6,0,L|112:337,1,60.0000022888184,2|0,0:0|0:0,0:0:0:0:
15,252,26070,1,0,0:0:0:0:
15,252,26252,2,0,L|20:371,1,120.000004577637,2|0,0:0|0:0,0:0:0:0:
109,276,26798,2,0,L|112:337,1,60.0000022888184
202,249,27161,6,0,P|234:270|316:261,1,120.000004577637,2|0,0:0|0:0,0:0:0:0:
361,187,27707,2,0,L|354:372,1,180.000006866455,2|0,0:0|0:0,0:0:0:0:
455,163,28616,6,0,L|460:44,1,120.000004577637,2|0,0:0|0:0,0:0:0:0:
382,89,29161,2,0,P|281:81|228:27,1,180.000006866455,2|0,0:0|0:0,0:0:0:0:
55,76,30070,6,0,P|83:66|172:86,1,120.000004577637,2|0,0:0|0:0,0:0:0:0:
207,165,30616,2,0,L|205:224,1,60.0000022888184,2|0,0:0|0:0,0:0:0:0:
135,283,30980,2,0,L|76:281,1,60.0000022888184
194,353,31343,1,0,0:0:0:0:
194,353,31434,1,0,0:0:0:0:
194,353,31525,5,2,0:0:0:0:
264,294,31707,1,0,0:0:0:0:
264,294,31889,2,0,P|319:284|385:306,1,120.000004577637
426,378,32434,1,0,0:0:0:0:
472,202,32616,6,0,P|461:143|329:134,1,210.000002002716,4|0,0:0|0:0,0:0:0:0:
323,148,32980,6,0,P|290:169|251:171,1,80,4|0,3:0|0:0,0:0:0:0:
178,122,33343,2,0,L|184:30,1,80,8|0,0:0|0:0,0:0:0:0:
390,190,33707,2,0,L|393:233,2,40,4|0|0,3:0|0:0|0:0,0:0:0:0:
183,42,34070,1,8,0:0:0:0:
180,82,34161,1,0,0:0:0:0:
178,122,34251,1,0,0:0:0:0:
124,307,34434,6,0,P|83:320|40:320,1,80,4|0,3:0|0:0,0:0:0:0:
151,214,34798,2,0,L|230:219,1,80,8|0,0:0|0:0,0:0:0:0:
412,282,35161,1,4,3:0:0:0:
412,282,35252,2,0,L|461:278,1,40,8|8,0:0|0:0,0:0:0:0:
231,219,35525,1,8,0:0:0:0:
191,216,35616,1,0,0:0:0:0:
152,214,35707,1,0,0:0:0:0:
281,155,35889,6,0,P|304:187|310:228,1,80,4|0,3:0|0:0,0:0:0:0:
286,320,36252,1,8,0:0:0:0:
201,143,36434,2,0,P|216:106|248:81,1,80,4|0,3:0|0:0,0:0:0:0:
272,80,36707,1,0,0:0:0:0:
272,80,36798,1,8,0:0:0:0:
432,187,36980,2,0,P|453:183|479:173,1,40,8|0,0:0|0:0,0:0:0:0:
352,133,37161,2,0,P|344:152|339:180,1,40,8|0,0:0|0:0,0:0:0:0:
378,267,37343,6,0,B|385:346|385:346|378:387,2,120,8|4|4,3:0|3:0|3:0,0:0:0:0:
438,90,38070,1,4,3:0:0:0:
438,90,38434,2,0,L|399:93,1,40,8|0,0:0|0:0,0:0:0:0:
316,43,38616,1,8,0:0:0:0:
276,40,38707,1,0,0:0:0:0:
236,37,38798,5,4,3:0:0:0:
72,137,38980,1,0,0:0:0:0:
214,114,39161,1,8,0:0:0:0:
20,76,39343,1,0,0:0:0:0:
124,198,39525,2,0,L|130:237,2,40,4|0|0,3:0|0:0|0:0,0:0:0:0:
97,7,39889,1,8,0:0:0:0:
47,267,40070,1,0,0:0:0:0:
214,114,40252,5,4,3:0:0:0:
214,114,40343,1,0,0:0:0:0:
214,114,40434,1,0,0:0:0:0:
239,244,40616,2,0,P|279:255|321:257,1,80,8|0,0:0|0:0,0:0:0:0:
440,209,40980,1,4,3:0:0:0:
440,209,41070,2,0,L|400:207,1,40,8|8,0:0|0:0,0:0:0:0:
214,114,41343,1,8,0:0:0:0:
342,362,41525,1,4,3:0:0:0:
444,130,41707,6,0,L|440:210,1,80,8|0,0:0|0:0,0:0:0:0:
438,240,41980,1,0,0:0:0:0:
438,240,42070,1,4,3:0:0:0:
326,74,42252,2,0,L|319:153,1,80,8|0,0:0|0:0,0:0:0:0:
314,194,42525,1,0,0:0:0:0:
314,194,42615,1,4,3:0:0:0:
208,18,42798,1,8,0:0:0:0:
192,194,42980,1,4,3:0:0:0:
27,87,43161,6,0,P|63:72|107:76,1,80,8|0,0:0|0:0,0:0:0:0:
129,92,43434,1,0,0:0:0:0:
129,92,43525,1,4,3:0:0:0:
192,194,43707,2,0,L|188:273,1,80,8|0,0:0|0:0,0:0:0:0:
202,301,43980,2,0,P|252:326|291:320,1,80,4|0,3:0|0:0,0:0:0:0:
303,315,44252,2,0,L|354:312,1,40,4|0,3:0|0:0,0:0:0:0:
436,357,44434,2,0,L|487:354,1,40,4|0,3:0|0:0,0:0:0:0:
437,189,44616,6,0,L|392:192,1,40,8|0,0:0|0:0,0:0:0:0:
196,73,44889,6,0,L|236:71,1,40,8|0,0:0|0:0,0:0:0:0:
473,107,45161,6,0,L|428:110,1,40,8|0,0:0|0:0,0:0:0:0:
161,156,45343,6,0,L|241:150,1,80,4|0,3:0|0:0,0:0:0:0:
270,158,45616,1,0,0:0:0:0:
270,158,45707,1,8,0:0:0:0:
335,90,45889,2,0,B|354:149|354:149|339:245,1,160
423,358,46434,2,0,B|413:328|413:328|421:280,1,80,8|0,0:0|0:0,0:0:0:0:
493,227,46798,5,8,3:0:0:0:
267,300,46980,1,8,3:0:0:0:
226,47,47161,1,8,3:0:0:0:
493,227,47343,1,4,3:0:0:0:
195,355,47525,6,0,P|178:301|205:238,1,120.000004577637,8|0,0:0|0:0,0:0:0:0:
326,202,47798,6,0,P|295:235|221:251,1,120.000004577637,8|0,0:0|0:0,0:0:0:0:
116,192,48070,6,0,L|113:132,1,60.0000022888184,8|0,0:0|0:0,0:0:0:0:
226,47,48252,6,0,L|222:127,1,80,4|0,3:0|0:0,0:0:0:0:
116,192,48525,1,0,0:0:0:0:
116,192,48616,2,0,L|111:112,1,80,8|0,0:0|0:0,0:0:0:0:
396,192,48980,6,0,L|391:271,1,80,4|0,3:0|0:0,0:0:0:0:
388,367,49343,1,8,0:0:0:0:
319,134,49525,6,0,L|314:213,1,80,4|0,3:0|0:0,0:0:0:0:
388,367,49889,1,8,3:0:0:0:
477,170,50070,1,8,3:0:0:0:
323,39,50252,1,4,3:0:0:0:
156,153,50434,6,0,L|161:273,1,120.000004577637,8|0,0:0|0:0,0:0:0:0:
259,361,50707,6,0,P|219:318|162:302,1,120.000004577637,8|0,0:0|0:0,0:0:0:0:
46,346,50980,6,0,L|43:286,1,60.0000022888184,8|0,0:0|0:0,0:0:0:0:
104,88,51161,6,0,P|140:72|181:74,1,80,4|0,3:0|0:0,0:0:0:0:
315,135,51434,1,0,0:0:0:0:
315,135,51525,2,0,P|275:138|235:133,1,80,8|0,0:0|0:0,0:0:0:0:
394,80,51889,1,0,0:0:0:0:
451,272,52070,1,4,3:0:0:0:
384,52,52252,1,8,0:0:0:0:
326,344,52434,1,4,3:0:0:0:
159,234,52616,5,0,3:0:0:0:
158,224,52706,1,0,3:0:0:0:
157,214,52797,1,0,3:0:0:0:
157,204,52888,1,0,3:0:0:0:
156,194,52979,1,0,3:0:0:0:
156,184,53070,1,0,3:0:0:0:
155,174,53161,1,0,3:0:0:0:
155,164,53252,1,0,3:0:0:0:
178,131,53343,6,0,L|257:128,1,80,4|0,3:0|0:0,0:0:0:0:
298,127,53616,1,0,0:0:0:0:
298,127,53707,1,8,0:0:0:0:
91,96,53889,1,4,3:0:0:0:
286,234,54070,1,0,3:0:0:0:
286,234,54161,1,0,3:0:0:0:
286,234,54252,1,4,3:0:0:0:
189,51,54434,1,8,0:0:0:0:
274,341,54616,1,4,3:0:0:0:
484,239,54798,6,0,P|443:197|385:191,1,120.000004577637,2|0,0:0|0:0,0:0:0:0:
286,234,55070,1,0,0:0:0:0:
286,234,55161,2,0,L|167:231,1,120.000004577637,8|0,0:0|0:0,0:0:0:0:
0,138,55525,1,2,0:0:0:0:
0,138,55616,1,2,0:0:0:0:
0,138,55707,2,0,L|64:126,1,60.0000022888184,2|0,0:0|0:0,0:0:0:0:
218,92,55889,1,8,0:0:0:0:
115,370,56070,1,8,0:0:0:0:
218,92,56252,6,0,L|230:54,1,40,8|0,3:0|0:0,0:0:0:0:
461,163,56525,2,0,L|448:200,1,40,4|0,3:0|0:0,0:0:0:0:
228,223,56798,6,0,L|240:185,1,40,8|0,3:0|0:0,0:0:0:0:
471,294,57070,2,0,L|456:338,1,40,4|0,3:0|0:0,0:0:0:0:
238,354,57343,6,0,L|250:316,1,40,8|0,3:0|0:0,0:0:0:0:
461,163,57525,2,0,L|448:200,1,40,4|0,3:0|0:0,0:0:0:0:
228,223,57707,6,0,L|240:185,1,40,8|0,3:0|0:0,0:0:0:0:
451,32,57980,2,0,L|438:69,1,40,4|0,3:0|0:0,0:0:0:0:
218,92,58252,6,0,L|230:54,1,40,8|0,3:0|0:0,0:0:0:0:
461,163,58525,2,0,L|448:200,1,40,4|0,3:0|0:0,0:0:0:0:
228,223,58798,6,0,L|240:185,1,40,8|0,3:0|0:0,0:0:0:0:
471,294,58980,2,0,L|456:338,1,40,4|0,3:0|0:0,0:0:0:0:
238,354,59161,5,0,3:0:0:0:
198,357,59251,1,0,3:0:0:0:
160,345,59342,1,0,3:0:0:0:
131,318,59433,1,0,3:0:0:0:
114,282,59525,5,0,3:0:0:0:
111,257,59615,1,0,3:0:0:0:
115,233,59706,1,0,3:0:0:0:
125,210,59797,1,0,3:0:0:0:
138,188,59889,5,0,3:0:0:0:
145,164,59979,1,0,3:0:0:0:
146,140,60070,1,0,3:0:0:0:
140,115,60161,1,0,3:0:0:0:
127,94,60252,5,0,3:0:0:0:
109,101,60342,1,0,3:0:0:0:
89,103,60433,1,0,3:0:0:0:
69,102,60524,1,0,3:0:0:0:
50,95,60616,5,0,0:0:0:0:
89,25,60798,1,0,0:0:0:0:
89,25,61161,1,0,0:0:0:0:
50,95,61343,2,0,L|50:135,1,40
89,25,61707,6,0,B|155:20|232:68|293:65,1,210.000002002716,4|0,0:0|0:0,0:0:0:0:
373,116,62070,6,0,L|474:112,1,95.9999970703126,4|0,3:0|0:0,0:0:0:0:
293,65,62434,1,8,0:0:0:0:
288,159,62616,2,0,L|283:254,1,95.9999970703126,4|0,3:0|0:0,0:0:0:0:
373,116,62980,2,0,L|368:211,1,95.9999970703126,4|8,3:0|0:0,0:0:0:0:
214,348,63343,1,4,3:0:0:0:
178,354,63433,1,0,0:0:0:0:
143,349,63524,5,0,0:0:0:0:
111,333,63615,1,0,0:0:0:0:
85,307,63707,1,4,3:0:0:0:
40,73,63889,1,8,0:0:0:0:
220,136,64070,1,4,3:0:0:0:
220,136,64161,1,0,0:0:0:0:
220,136,64252,2,0,L|217:184,2,47.9999985351563,0|0|4,0:0|0:0|3:0,0:0:0:0:
353,31,64616,1,8,0:0:0:0:
388,26,64706,1,0,0:0:0:0:
421,38,64797,1,4,3:0:0:0:
445,65,64888,1,0,0:0:0:0:
452,100,64980,6,0,L|449:148,2,47.9999985351563,4|0|0,3:0|0:0|0:0,0:0:0:0:
329,260,65343,2,0,P|283:271|237:260,1,95.9999970703126,8|0,0:0|0:0,0:0:0:0:
212,233,65616,1,0,0:0:0:0:
212,233,65707,2,0,P|206:204|206:183,1,47.9999985351563,4|0,3:0|0:0,0:0:0:0:
268,64,65889,1,4,3:0:0:0:
411,215,66070,1,8,0:0:0:0:
411,215,66161,1,0,0:0:0:0:
411,215,66252,6,0,P|415:299|327:357,1,191.999994140625,4|4,3:0|3:0,0:0:0:0:
103,264,66798,2,0,L|99:216,1,47.9999985351563,8|0,0:0|0:0,0:0:0:0:
194,114,66980,1,4,3:0:0:0:
194,115,67070,1,0,0:0:0:0:
194,115,67161,1,0,0:0:0:0:
195,91,67251,1,0,0:0:0:0:
197,67,67342,1,4,3:0:0:0:
199,43,67433,1,0,0:0:0:0:
166,62,67525,1,8,0:0:0:0:
128,65,67615,1,0,0:0:0:0:
91,55,67706,1,4,3:0:0:0:
61,31,67797,1,0,0:0:0:0:
26,48,67889,6,0,L|28:98,2,47.9999985351563,4|0|0,3:0|0:0|0:0,0:0:0:0:
158,192,68252,2,0,L|154:287,1,95.9999970703126,8|0,0:0|0:0,0:0:0:0:
73,371,68616,1,4,3:0:0:0:
160,168,68798,1,4,3:0:0:0:
264,308,68980,1,8,0:0:0:0:
145,149,69161,6,0,P|59:143|18:217,1,180.000006866455,4|0,0:0|0:0,0:0:0:0:
68,293,69525,2,0,B|126:311|126:311|176:268|237:287,1,180.000006866455,4|0,0:0|0:0,0:0:0:0:
286,363,69889,2,0,B|344:345|344:345|394:388|457:368,1,180.000006866455,4|0,0:0|0:0,0:0:0:0:
508,296,70252,2,0,L|515:171,1,120.000004577637,4|0,0:0|0:0,0:0:0:0:
419,67,70616,1,4,3:0:0:0:
351,271,70798,5,8,3:0:0:0:
256,24,70980,1,8,3:0:0:0:
500,92,71161,1,8,3:0:0:0:
297,339,71343,2,0,P|249:342|202:332,1,95.9999970703126,4|0,3:0|0:0,0:0:0:0:
141,268,71616,1,0,0:0:0:0:
143,239,71707,1,0,0:0:0:0:
144,210,71798,1,0,0:0:0:0:
146,181,71889,2,0,L|148:130,1,47.9999985351563,8|0,0:0|0:0,0:0:0:0:
227,78,72070,6,0,L|221:221,1,143.999995605469,4|0,3:0|0:0,0:0:0:0:
221,246,72434,1,8,0:0:0:0:
140,37,72616,1,8,0:0:0:0:
301,223,72798,6,0,P|280:308|212:330,1,143.999995605469,4|0,3:0|0:0,0:0:0:0:
210,331,73161,1,8,0:0:0:0:
37,154,73343,1,8,0:0:0:0:
66,151,73434,1,0,0:0:0:0:
94,148,73525,1,0,0:0:0:0:
123,145,73616,1,0,0:0:0:0:
151,142,73707,6,0,L|263:131,1,95.9999970703126,4|0,3:0|0:0,0:0:0:0:
485,107,74070,1,8,0:0:0:0:
339,308,74252,2,0,L|345:356,1,47.9999985351563,4|0,3:0|0:0,0:0:0:0:
377,193,74434,1,0,0:0:0:0:
406,171,74525,1,0,0:0:0:0:
441,169,74616,1,4,3:0:0:0:
472,184,74707,1,0,0:0:0:0:
487,217,74798,1,8,0:0:0:0:
449,332,74980,6,0,L|455:380,2,47.9999985351563,4|0|0,3:0|0:0|0:0,0:0:0:0:
408,47,75343,1,4,3:0:0:0:
182,226,75525,2,0,P|142:229|120:222,1,47.9999985351563,8|0,0:0|0:0,0:0:0:0:
29,112,75707,1,4,3:0:0:0:
29,112,75798,1,0,0:0:0:0:
29,112,75889,1,0,0:0:0:0:
31,76,75980,1,0,0:0:0:0:
46,43,76070,1,4,3:0:0:0:
75,23,76161,1,0,0:0:0:0:
110,16,76252,1,8,0:0:0:0:
268,94,76434,2,0,L|264:151,1,47.9999985351563,4|0,3:0|0:0,0:0:0:0:
182,226,76616,6,0,L|178:283,2,47.9999985351563,4|0|0,3:0|0:0|0:0,0:0:0:0:
350,44,76980,2,0,L|398:40,1,47.9999985351563,8|0,0:0|0:0,0:0:0:0:
485,80,77161,1,0,0:0:0:0:
485,80,77252,1,0,0:0:0:0:
485,80,77343,1,4,3:0:0:0:
498,113,77434,1,0,0:0:0:0:
502,148,77525,1,4,3:0:0:0:
498,184,77616,1,0,0:0:0:0:
483,216,77707,2,0,L|423:221,1,47.9999985351563,8|0,0:0|0:0,0:0:0:0:
356,285,77889,6,0,L|308:289,2,47.9999985351563,4|0|0,3:0|0:0|0:0,0:0:0:0:
483,216,78252,1,4,3:0:0:0:
483,216,78343,1,0,0:0:0:0:
483,216,78434,2,0,L|423:221,1,47.9999985351563,8|0,0:0|0:0,0:0:0:0:
314,177,78616,1,4,3:0:0:0:
314,177,78707,1,0,0:0:0:0:
314,177,78798,1,0,0:0:0:0:
278,180,78889,1,0,0:0:0:0:
241,184,78980,1,4,3:0:0:0:
61,248,79161,1,8,0:0:0:0:
77,280,79252,1,0,0:0:0:0:
109,294,79343,1,4,3:0:0:0:
145,293,79434,1,0,0:0:0:0:
178,280,79525,5,4,3:0:0:0:
243,139,79707,2,0,L|239:78,1,47.9999985351563
181,14,79889,2,0,P|157:13|133:17,2,47.9999985351563,8|0|0,0:0|0:0|0:0,0:0:0:0:
347,111,80252,1,4,3:0:0:0:
383,109,80343,1,0,0:0:0:0:
418,109,80434,2,0,L|467:116,2,47.9999985351563,4|0|8,3:0|0:0|0:0,0:0:0:0:
165,157,80798,6,0,P|215:215|306:191,1,180.000006866455,4|0,0:0|0:0,0:0:0:0:
347,111,81161,2,0,P|432:96|492:158,1,180.000006866455,4|0,0:0|0:0,0:0:0:0:
485,248,81525,2,0,B|480:367|480:367|441:320,1,180.000006866455,4|0,0:0|0:0,0:0:0:0:
381,249,81889,2,0,P|319:240|259:252,1,120.000004577637,4|0,0:0|0:0,0:0:0:0:
67,365,82252,1,0,0:0:0:0:
243,139,82434,5,8,3:0:0:0:
190,353,82616,1,8,3:0:0:0:
78,122,82798,1,8,3:0:0:0:
306,47,82980,2,0,P|353:52|398:70,1,95.9999970703126,4|0,3:0|0:0,0:0:0:0:
447,144,83253,1,0,0:0:0:0:
447,172,83344,1,0,0:0:0:0:
448,201,83435,1,0,0:0:0:0:
449,230,83525,2,0,L|451:280,1,47.9999985351563,8|0,0:0|0:0,0:0:0:0:
377,340,83707,6,0,L|371:190,1,143.999995605469,4|0,3:0|0:0,0:0:0:0:
370,172,84070,2,0,L|366:72,1,95.9999970703126,4|8,3:0|3:0,0:0:0:0:
135,340,84434,6,0,L|141:190,1,143.999995605469,4|0,3:0|0:0,0:0:0:0:
142,172,84798,2,0,L|146:73,1,95.9999970703126,4|8,3:0|3:0,0:0:0:0:
230,28,85161,2,0,L|228:75,1,47.9999985351563,4|0,3:0|0:0,0:0:0:0:
272,183,85343,6,0,L|273:143,3,40,4|0|0|0,3:0|0:0|0:0|0:0,0:0:0:0:
314,252,85707,2,0,L|312:291,3,40,4|0|0|0,3:0|0:0|0:0|0:0,0:0:0:0:
375,197,86070,2,0,L|376:157,1,40,0|0,3:0|0:0,0:0:0:0:
417,266,86252,2,0,L|416:306,1,40,0|0,3:0|0:0,0:0:0:0:
353,383,86434,1,0,3:0:0:0:
323,382,86524,1,0,3:0:0:0:
293,380,86615,1,0,3:0:0:0:
263,379,86706,1,0,3:0:0:0:
233,377,86798,6,0,P|208:343|206:295,1,80,4|0,3:0|0:0,0:0:0:0:
276,151,87161,1,8,0:0:0:0:
276,151,87343,2,0,P|259:189|218:215,1,80,4|0,3:0|0:0,0:0:0:0:
58,226,87707,1,4,3:0:0:0:
103,0,87889,1,8,0:0:0:0:
252,77,88070,6,0,P|276:150|228:211,1,160,4|0,3:0|0:0,0:0:0:0:
473,106,88616,1,8,0:0:0:0:
253,78,88798,1,4,3:0:0:0:
339,282,88980,1,8,0:0:0:0:
339,282,89070,1,8,0:0:0:0:
339,282,89161,1,0,0:0:0:0:
378,48,89343,2,0,L|373:6,2,40,8|0|0,0:0|0:0|0:0,0:0:0:0:
401,336,89707,6,0,P|454:348|481:344,1,80,4|0,3:0|0:0,0:0:0:0:
277,228,90070,1,8,0:0:0:0:
277,228,90252,2,0,P|240:267|230:293,1,80,4|0,3:0|0:0,0:0:0:0:
432,174,90616,1,4,3:0:0:0:
230,58,90798,1,8,0:0:0:0:
339,282,90980,1,4,3:0:0:0:
217,34,91161,6,0,P|155:19|81:77,1,160,2|8,0:0|0:0,0:0:0:0:
48,292,91707,1,4,3:0:0:0:
168,109,91889,1,8,0:0:0:0:
168,109,91980,1,8,0:0:0:0:
168,109,92070,1,0,0:0:0:0:
22,204,92252,2,0,L|7:155,2,40,8|0|0,0:0|0:0|0:0,0:0:0:0:
199,335,92616,6,0,P|241:335|281:322,1,80,4|0,3:0|0:0,0:0:0:0:
400,221,92979,1,8,0:0:0:0:
400,221,93161,2,0,P|363:200|322:191,1,80,4|0,3:0|0:0,0:0:0:0:
168,219,93525,1,4,3:0:0:0:
357,375,93707,1,8,0:0:0:0:
397,133,93889,6,0,P|321:99|252:136,1,160,4|4,3:0|0:0,0:0:0:0:
164,378,94616,6,0,L|168:219,1,160,4|4,3:0|0:0,0:0:0:0:
31,20,95343,5,8,0:0:0:0:
168,219,95525,2,4,L|164:378,1,160,4|8,3:0|0:0,0:0:0:0:
93,189,96070,2,8,P|156:139|232:168,1,160,4|8,3:0|0:0,0:0:0:0:
293,261,96616,2,0,P|364:274|387:269,1,80,4|8,3:0|0:0,0:0:0:0:
441,199,96980,6,0,L|446:118,1,80,2|0,0:0|0:0,0:0:0:0:
433,104,97252,6,0,L|428:23,1,80,2|0,0:0|0:0,0:0:0:0:
411,35,97525,6,0,P|344:42|321:34,1,80,2|0,0:0|0:0,0:0:0:0:
316,28,97798,1,0,0:0:0:0:
316,28,97889,2,0,L|236:30,1,80,2|0,0:0|0:0,0:0:0:0:
221,43,98161,1,0,0:0:0:0:
220,43,98252,2,0,P|208:80|210:120,1,80,2|0,0:0|0:0,0:0:0:0:
