osu file format v14

[General]
AudioFilename: audio.mp3
AudioLeadIn: 0
PreviewTime: 62070
Countdown: 0
SampleSet: Soft
StackLeniency: 0.5
Mode: 0
LetterboxInBreaks: 0
WidescreenStoryboard: 1

[Editor]
DistanceSpacing: 0.5
BeatDivisor: 4
GridSize: 16
TimelineZoom: 3.399999

[Metadata]
Title:DiVE 2 WORLD
TitleUnicode:DiVE 2 WORLD
Artist:Komatsu Rina
ArtistUnicode:狛茉璃奈
Creator:Dored
Version:Insane
Source:ナツイロココロログ
Tags:Natsuiro Kokoro Log Galgame Eroge Opening Short Version Hearts 琉姫アルナ gary00737 Gust Ultimate Madoka Oiso
BeatmapID:1494043
BeatmapSetID:706582

[Difficulty]
HPDrainRate:6
CircleSize:4
OverallDifficulty:7
ApproachRate:8.5
SliderMultiplier:1.6
SliderTickRate:1

[Events]
//Background and Video events
0,0,"Insane.jpg",0,0
//Break Periods
//Storyboard Layer 0 (Background)
//Storyboard Layer 1 (Fail)
//Storyboard Layer 2 (Pass)
//Storyboard Layer 3 (Foreground)
//Storyboard Sound Samples

[TimingPoints]
980,363.636363636364,4,2,1,40,1,0
980,-142.857142857143,4,2,1,40,0,0
7707,-142.857142857143,4,2,1,5,0,0
7889,-100,4,2,1,50,0,0
8252,-100,4,2,1,60,0,0
19889,-100,4,2,1,55,0,0
21343,-125,4,2,1,40,0,0
31525,-125,4,2,1,45,0,0
32525,-125,4,2,1,5,0,0
32616,-100,4,2,1,50,0,0
32980,-111.111111111111,4,2,1,55,0,0
56252,-100,4,2,1,60,0,0
59161,-100,4,2,1,58,0,0
59525,-100,4,2,1,56,0,0
59889,-100,4,2,1,54,0,0
60252,-100,4,2,1,52,0,0
60616,-125,4,2,1,50,0,0
61525,-100,4,2,1,60,0,0
62070,-90.9090909090909,4,2,1,70,0,1
85343,-100,4,2,1,40,0,0
86434,-100,4,2,1,20,0,0
86798,-100,4,2,1,55,0,0

[Colours]
Combo1 : 128,255,255
Combo2 : 255,0,128
Combo3 : 255,128,0
Combo4 : 128,0,255

[HitObjects]
463,336,980,6,0,P|477:282|462:229,1,111.999996582031,2|0,0:0|0:0,0:0:0:0:
410,177,1525,1,0,0:0:0:0:
287,256,1889,2,0,L|175:256,1,111.999996582031
123,204,2434,6,0,P|109:150|124:97,1,111.999996582031,2|0,0:0|0:0,0:0:0:0:
176,45,2979,1,0,0:0:0:0:
299,124,3343,2,0,L|411:124,1,111.999996582031
463,176,3889,6,0,P|477:230|462:283,1,111.999996582031,2|0,0:0|0:0,0:0:0:0:
392,263,4434,2,0,P|338:249|285:264,1,111.999996582031
233,316,4980,1,0,0:0:0:0:
285,367,5161,1,0,0:0:0:0:
285,263,5343,6,0,L|285:151,1,111.999996582031,2|0,0:0|0:0,0:0:0:0:
204,111,5889,2,0,L|204:223,1,111.999996582031
138,295,6434,1,0,0:0:0:0:
233,316,6616,1,0,0:0:0:0:
109,202,6798,5,2,0:0:0:0:
285,151,6980,1,2,0:0:0:0:
285,151,7343,2,0,P|342:193|315:253,1,139.999995727539,2|0,0:0|0:0,0:0:0:0:
321,248,7889,2,2,L|401:248,1,80
285,151,8252,6,0,P|245:148|205:144,1,80,6|0,0:0|0:0,0:0:0:0:
130,71,8616,1,10,0:0:0:0:
105,172,8798,2,0,P|107:211|111:251,1,80,2|0,0:0|0:0,0:0:0:0:
67,345,9161,1,2,0:0:0:0:
213,248,9343,1,10,0:0:0:0:
111,251,9525,1,2,0:0:0:0:
171,336,9707,6,0,P|210:333|250:329,1,80
206,168,10070,2,0,P|208:207|212:247,1,80,8|0,0:0|0:0,0:0:0:0:
313,274,10434,1,2,0:0:0:0:
387,200,10616,1,2,0:0:0:0:
212,247,10798,1,10,0:0:0:0:
286,173,10980,1,2,0:0:0:0:
413,302,11161,6,0,P|410:341|406:381,1,80,6|0,0:0|0:0,0:0:0:0:
313,274,11525,1,10,0:0:0:0:
387,200,11707,2,0,P|384:160|380:120,1,80,2|0,0:0|0:0,0:0:0:0:
448,40,12070,1,2,0:0:0:0:
277,102,12252,1,10,0:0:0:0:
380,120,12434,1,2,0:0:0:0:
277,102,12616,6,0,P|238:105|198:109,1,80
313,274,12980,2,0,P|316:235|320:195,1,80,8|0,0:0|0:0,0:0:0:0:
277,102,13343,1,2,0:0:0:0:
216,187,13525,1,2,0:0:0:0:
234,8,13707,1,10,0:0:0:0:
380,120,13889,1,2,0:0:0:0:
173,93,14070,6,0,P|134:90|94:86,1,80,6|0,0:0|0:0,0:0:0:0:
153,0,14434,1,10,0:0:0:0:
134,167,14616,2,0,P|131:206|127:246,1,80,2|0,0:0|0:0,0:0:0:0:
35,196,14980,1,2,0:0:0:0:
201,210,15161,1,10,0:0:0:0:
106,349,15343,6,0,L|185:355,1,80,2|0,0:0|0:0,0:0:0:0:
280,217,15707,2,0,L|201:210,1,80,2|0,0:0|0:0,0:0:0:0:
296,349,16070,2,0,L|375:355,1,80,2|0,0:0|0:0,0:0:0:0:
470,217,16434,2,0,L|391:210,1,80,2|0,0:0|0:0,0:0:0:0:
470,307,16798,1,2,0:0:0:0:
373,131,16980,6,0,P|316:182|328:261,1,160,4|0,0:0|0:0,0:0:0:0:
452,112,17525,2,0,P|400:55|318:72,1,160
231,197,18070,1,2,0:0:0:0:
391,210,18252,1,2,0:0:0:0:
324,67,18434,5,2,0:0:0:0:
314,170,18616,2,0,L|310:209,2,40,2|2|2,0:0|0:0|0:0,0:0:0:0:
222,30,18980,2,0,L|229:109,1,80,2|0,0:0|0:0,0:0:0:0:
163,190,19343,1,2,0:0:0:0:
97,109,19525,2,0,L|73:76,2,40,2|2|2,0:0|0:0|0:0,0:0:0:0:
163,190,19889,5,2,0:0:0:0:
67,237,20070,1,0,0:0:0:0:
67,237,20161,1,0,0:0:0:0:
67,237,20252,2,0,L|19:232,3,40
67,330,20707,2,0,L|63:370,2,40
110,300,20980,2,0,P|165:282|216:311,1,120
244,343,21343,6,0,P|305:357|367:343,1,128,2|0,0:0|0:0,0:0:0:0:
425,282,21889,2,0,P|427:219|425:154,1,128,2|0,0:0|0:0,0:0:0:0:
374,89,22434,1,0,0:0:0:0:
296,118,22616,1,0,0:0:0:0:
218,88,22798,6,0,P|154:78|94:97,1,128,2|0,0:0|0:0,0:0:0:0:
39,160,23344,2,0,P|37:223|39:288,1,128,2|0,0:0|0:0,0:0:0:0:
92,351,23889,1,0,0:0:0:0:
166,314,24070,1,0,0:0:0:0:
244,343,24252,6,0,P|259:281|245:219,1,128,2|0,0:0|0:0,0:0:0:0:
166,95,24798,2,0,P|151:157|165:219,1,128,2|0,0:0|0:0,0:0:0:0:
279,146,25343,2,0,P|280:114|279:82,1,64,2|0,0:0|0:0,0:0:0:0:
166,95,25707,6,0,P|103:93|38:95,1,128,2|0,0:0|0:0,0:0:0:0:
164,218,26252,2,0,P|227:216|292:218,1,128,2|0,0:0|0:0,0:0:0:0:
372,240,26798,1,0,0:0:0:0:
350,159,26980,1,0,0:0:0:0:
313,299,27161,6,0,P|252:319|189:310,1,128,2|0,0:0|0:0,0:0:0:0:
129,254,27707,2,0,P|125:191|117:126,1,128,2|0,0:0|0:0,0:0:0:0:
176,67,28252,1,0,0:0:0:0:
96,46,28434,1,0,0:0:0:0:
176,67,28616,6,0,P|237:75|298:56,1,128,2|0,0:0|0:0,0:0:0:0:
381,40,29161,2,0,P|384:102|392:167,1,128,2|0,0:0|0:0,0:0:0:0:
334,228,29707,1,0,0:0:0:0:
402,277,29889,1,0,0:0:0:0:
392,167,30070,6,0,P|335:143|277:165,1,128,2|0,0:0|0:0,0:0:0:0:
312,353,30616,2,0,P|325:292|334:227,1,128,2|0,0:0|0:0,0:0:0:0:
252,246,31161,1,0,0:0:0:0:
195,184,31343,1,0,0:0:0:0:
344,112,31525,5,2,0:0:0:0:
252,246,31707,1,2,0:0:0:0:
299,56,31889,2,0,P|399:65|392:166,1,224,2|0,0:0|0:0,0:0:0:0:
392,167,32616,2,2,L|398:246,1,80,2|0,0:0|0:0,0:0:0:0:
272,337,32980,6,0,P|203:324|170:263,1,143.999995605469,4|8,0:0|0:0,0:0:0:0:
234,196,33525,1,0,0:0:0:0:
156,145,33707,2,0,L|84:138,1,71.9999978027344,2|0,0:0|0:0,0:0:0:0:
207,80,34070,2,0,L|278:73,1,71.9999978027344,8|0,0:0|0:0,0:0:0:0:
394,63,34434,6,0,P|457:92|473:160,1,143.999995605469,2|8,0:0|0:0,0:0:0:0:
407,227,34980,1,0,0:0:0:0:
361,143,35161,2,0,L|396:139,2,35.9999989013672,2|0|0,0:0|0:0|0:0,0:0:0:0:
311,222,35525,2,0,L|239:228,1,71.9999978027344,8|0,0:0|0:0,0:0:0:0:
377,349,35889,6,0,P|421:295|407:227,1,143.999995605469,4|8,0:0|0:0,0:0:0:0:
252,84,36434,2,0,L|239:227,1,143.999995605469
308,288,36980,1,8,0:0:0:0:
169,191,37161,1,0,0:0:0:0:
323,119,37343,6,0,P|330:67|302:22,2,107.999996704102,2|2|2,0:0|0:0|0:0,0:0:0:0:
238,227,38070,1,2,0:0:0:0:
114,15,38434,1,2,0:0:0:0:
50,251,38798,6,0,L|56:322,1,71.9999978027344,4|0,0:0|0:0,0:0:0:0:
150,323,39161,2,0,L|156:251,1,71.9999978027344,8|0,0:0|0:0,0:0:0:0:
103,173,39525,2,0,L|67:173,2,35.9999989013672
155,251,39889,1,8,0:0:0:0:
249,244,40070,1,0,0:0:0:0:
343,237,40252,6,0,P|351:308|355:380,1,143.999995605469,2|8,0:0|0:0,0:0:0:0:
249,244,40798,2,0,P|253:172|261:100,1,143.999995605469
341,52,41343,1,8,0:0:0:0:
342,146,41525,1,0,0:0:0:0:
178,54,41707,5,0,0:0:0:0:
341,52,41889,2,0,L|376:51,2,35.9999989013672,0|0|8,0:0|0:0|0:0,0:0:0:0:
179,148,42252,1,0,0:0:0:0:
342,146,42434,2,0,L|377:145,2,35.9999989013672
180,242,42798,1,8,0:0:0:0:
260,100,42980,1,0,0:0:0:0:
343,240,43161,5,2,0:0:0:0:
179,148,43343,2,0,L|147:130,2,35.9999989013672,2|2|2,0:0|0:0|0:0,0:0:0:0:
261,194,43707,1,2,0:0:0:0:
180,242,43889,2,0,L|148:259,2,35.9999989013672,2|2|2,0:0|0:0|0:0,0:0:0:0:
342,146,44252,2,0,L|373:128,2,35.9999989013672,2|2|2,0:0|0:0|0:0,0:0:0:0:
359,319,44616,6,0,P|306:312|270:273,2,107.999996704102,6|2|2,0:0|0:0|0:0,0:0:0:0:
450,239,45343,2,0,P|396:240|342:239,1,107.999996704102
342,239,45707,1,10,0:0:0:0:
194,243,45889,1,2,0:0:0:0:
324,168,46070,5,2,0:0:0:0:
324,318,46252,1,2,0:0:0:0:
324,168,46434,1,10,0:0:0:0:
324,318,46616,1,2,0:0:0:0:
399,189,46798,5,2,0:0:0:0:
248,189,46980,1,2,0:0:0:0:
324,60,47161,2,0,L|324:168,1,107.999996704102,10|0,0:0|0:0,0:0:0:0:
325,215,47525,6,0,P|293:257|242:270,2,107.999996704102,4|0|0,0:0|0:0|0:0,0:0:0:0:
140,188,48252,2,0,P|194:189|248:188,1,107.999996704102
247,188,48616,1,10,0:0:0:0:
399,189,48798,1,2,0:0:0:0:
324,340,48980,6,0,L|324:268,2,71.9999978027344,2|0|8,0:0|0:0|0:0,0:0:0:0:
202,374,49525,1,0,0:0:0:0:
138,251,49707,2,0,L|66:244,1,71.9999978027344
225,188,50070,2,0,L|218:259,1,71.9999978027344,8|0,0:0|0:0,0:0:0:0:
171,127,50434,6,0,P|219:106|270:120,2,107.999996704102,4|0|0,0:0|0:0|0:0,0:0:0:0:
311,190,51161,2,0,P|365:191|419:190,1,107.999996704102
418,190,51525,1,10,0:0:0:0:
342,59,51707,1,2,0:0:0:0:
266,189,51888,5,2,0:0:0:0:
397,114,52070,1,2,0:0:0:0:
266,189,52252,1,10,0:0:0:0:
397,114,52434,1,2,0:0:0:0:
397,265,52616,5,2,0:0:0:0:
322,134,52798,1,2,0:0:0:0:
189,206,52980,2,0,L|117:199,1,71.9999978027344,8|0,0:0|0:0,0:0:0:0:
36,118,53343,5,6,0:0:0:0:
103,51,53525,2,0,L|103:15,2,35.9999989013672,2|2|2,0:0|0:0|0:0,0:0:0:0:
170,118,53889,1,2,0:0:0:0:
237,51,54070,2,0,L|237:15,2,35.9999989013672,2|2|2,0:0|0:0|0:0,0:0:0:0:
237,185,54434,1,2,0:0:0:0:
304,118,54616,1,2,0:0:0:0:
170,118,54798,6,0,P|142:163|146:216,1,107.999996704102,2|0,0:0|0:0,0:0:0:0:
237,185,55161,2,0,P|283:213|336:209,1,107.999996704102,2|0,0:0|0:0,0:0:0:0:
304,118,55525,2,0,L|337:54,1,71.9999978027344,2|0,0:0|0:0,0:0:0:0:
237,51,55889,1,0,0:0:0:0:
396,136,56070,1,0,0:0:0:0:
236,184,56252,6,0,P|274:171|313:163,1,80,2|0,0:0|0:0,0:0:0:0:
334,208,56525,2,0,P|325:247|313:285,1,80,2|0,0:0|0:0,0:0:0:0:
264,285,56798,2,0,P|234:258|207:228,1,80,2|0,0:0|0:0,0:0:0:0:
232,181,57070,2,0,P|269:169|308:159,1,80,2|0,0:0|0:0,0:0:0:0:
350,211,57343,1,2,0:0:0:0:
266,304,57525,1,2,0:0:0:0:
232,181,57707,6,0,P|234:140|232:101,1,80,2|0,0:0|0:0,0:0:0:0:
305,79,57980,2,0,P|309:118|308:158,1,80,2|0,0:0|0:0,0:0:0:0:
385,139,58252,2,0,P|383:97|378:58,1,80,2|0,0:0|0:0,0:0:0:0:
450,37,58525,2,0,P|456:76|459:115,1,80,2|0,0:0|0:0,0:0:0:0:
459,168,58798,1,2,0:0:0:0:
450,271,58980,1,2,0:0:0:0:
348,249,59161,6,0,L|308:249,3,40
308,344,59525,2,0,L|268:344,3,40
235,268,59889,2,0,L|195:268,3,40
195,363,60253,2,0,L|155:363,3,40
122,287,60616,5,2,0:0:0:0:
308,249,60798,1,2,0:0:0:0:
308,249,61161,2,0,L|213:232,1,96,2|0,0:0|0:0,0:0:0:0:
177,194,61525,2,2,L|255:207,1,80,2|0,0:0|0:0,0:0:0:0:
431,32,62070,6,0,P|425:75|421:119,1,88.000002685547,4|0,0:0|0:0,0:0:0:0:
308,69,62434,1,8,0:0:0:0:
255,207,62616,2,0,P|298:211|342:213,1,88.000002685547
421,119,62980,1,0,0:0:0:0:
431,258,63161,1,8,0:0:0:0:
272,138,63343,6,0,P|192:173|205:257,1,176.000005371094,2|0,0:0|0:0,0:0:0:0:
342,213,63889,1,8,0:0:0:0:
394,54,64070,2,0,P|351:60|308:69,1,88.000002685547
255,207,64434,1,0,0:0:0:0:
163,92,64616,1,8,0:0:0:0:
303,144,64798,1,0,0:0:0:0:
187,239,64980,6,0,P|183:282|181:326,1,88.000002685547,4|0,0:0|0:0,0:0:0:0:
367,297,65343,2,0,P|355:253|341:212,1,88.000002685547,8|0,0:0|0:0,0:0:0:0:
281,357,65707,1,0,0:0:0:0:
93,332,65889,2,0,P|136:328|180:326,1,88.000002685547,0|8,0:0|0:0,0:0:0:0:
248,203,66252,6,0,P|166:171|116:239,1,176.000005371094,2|0,0:0|0:0,0:0:0:0:
248,284,66798,1,8,0:0:0:0:
277,128,66980,1,0,0:0:0:0:
359,262,67161,2,0,L|362:305,2,44.0000013427735,2|2|2,0:0|0:0|0:0,0:0:0:0:
388,106,67525,2,0,L|391:62,2,44.0000013427735,10|2|2,0:0|0:0|0:0,0:0:0:0:
248,203,67889,6,0,P|205:199|161:197,1,88.000002685547,4|0,0:0|0:0,0:0:0:0:
145,44,68252,2,0,P|188:47|232:52,1,88.000002685547,8|0,0:0|0:0,0:0:0:0:
61,134,68616,1,0,0:0:0:0:
25,16,68798,1,0,0:0:0:0:
197,124,68980,1,8,0:0:0:0:
74,220,69161,6,0,P|68:176|60:133,1,88.000002685547,2|0,0:0|0:0,0:0:0:0:
147,283,69525,2,0,P|152:239|160:196,1,88.000002685547,2|0,0:0|0:0,0:0:0:0:
55,314,69889,2,0,P|28:279|-1:245,1,88.000002685547,2|0,0:0|0:0,0:0:0:0:
127,377,70252,2,0,P|170:369|213:363,1,88.000002685547,2|0,0:0|0:0,0:0:0:0:
337,346,70616,1,2,0:0:0:0:
251,160,70798,6,0,P|254:203|260:246,1,88.000002685547,4|0,0:0|0:0,0:0:0:0:
382,231,71161,1,8,0:0:0:0:
378,81,71343,2,0,P|421:77|464:71,1,88.000002685547
337,157,71707,1,0,0:0:0:0:
246,11,71889,1,8,0:0:0:0:
105,81,72070,6,0,P|61:74|17:70,1,88.000002685547,2|0,0:0|0:0,0:0:0:0:
152,157,72434,2,0,P|195:150|239:146,1,88.000002685547,2|0,0:0|0:0,0:0:0:0:
111,234,72798,2,0,P|67:227|23:223,1,88.000002685547,2|0,0:0|0:0,0:0:0:0:
158,310,73162,2,0,P|201:303|245:299,1,88.000002685547,2|0,0:0|0:0,0:0:0:0:
347,370,73525,1,2,0:0:0:0:
382,231,73707,6,0,P|382:187|386:143,1,88.000002685547,4|0,0:0|0:0,0:0:0:0:
296,58,74070,1,8,0:0:0:0:
180,182,74252,2,0,P|223:181|267:177,1,88.000002685547
382,231,74616,1,0,0:0:0:0:
279,299,74798,1,8,0:0:0:0:
384,161,74980,6,0,P|452:215|417:293,1,176.000005371094,2|0,0:0|0:0,0:0:0:0:
279,299,75525,1,8,0:0:0:0:
180,182,75707,2,0,P|137:181|93:177,1,88.000002685547
128,326,76070,1,0,0:0:0:0:
262,213,76252,1,8,0:0:0:0:
108,251,76434,1,0,0:0:0:0:
262,213,76616,6,0,L|347:190,1,88.000002685547,4|0,0:0|0:0,0:0:0:0:
217,96,76980,2,0,L|129:88,1,88.000002685547,8|0,0:0|0:0,0:0:0:0:
185,232,77343,1,0,0:0:0:0:
335,102,77525,2,0,P|341:145|346:189,1,88.000002685547,0|8,0:0|0:0,0:0:0:0:
165,300,77889,6,0,P|113:235|158:167,1,176.000005371094,2|0,0:0|0:0,0:0:0:0:
346,189,78434,1,8,0:0:0:0:
303,351,78616,1,0,0:0:0:0:
185,232,78798,2,0,L|229:231,2,44.0000013427735,2|2|2,0:0|0:0|0:0,0:0:0:0:
348,275,79161,2,0,L|303:274,2,44.0000013427735,10|2|2,0:0|0:0|0:0,0:0:0:0:
231,384,79525,6,0,P|188:383|144:379,1,88.000002685547,4|0,0:0|0:0,0:0:0:0:
97,226,79889,2,0,P|140:230|184:231,1,88.000002685547,8|0,0:0|0:0,0:0:0:0:
346,189,80252,1,0,0:0:0:0:
184,230,80434,1,0,0:0:0:0:
229,68,80616,1,8,0:0:0:0:
272,238,80798,6,0,L|272:326,1,88.000002685547,2|0,0:0|0:0,0:0:0:0:
96,282,81161,2,0,L|96:194,1,88.000002685547,2|0,0:0|0:0,0:0:0:0:
272,150,81525,2,0,L|272:238,1,88.000002685547,2|0,0:0|0:0,0:0:0:0:
96,194,81889,2,0,L|96:106,1,88.000002685547,2|0,0:0|0:0,0:0:0:0:
213,12,82252,1,2,0:0:0:0:
359,144,82434,6,0,L|272:149,1,88.000002685547,4|0,0:0|0:0,0:0:0:0:
404,62,82798,1,8,0:0:0:0:
412,220,82980,2,0,L|412:308,1,88.000002685547
271,149,83344,1,0,0:0:0:0:
459,137,83525,1,8,0:0:0:0:
324,300,83707,6,0,L|411:307,1,88.000002685547,2|0,0:0|0:0,0:0:0:0:
271,149,84070,2,0,L|358:141,1,88.000002685547,2|0,0:0|0:0,0:0:0:0:
148,284,84434,2,0,L|235:291,1,88.000002685547,2|0,0:0|0:0,0:0:0:0:
95,164,84798,2,0,L|182:156,1,88.000002685547,2|0,0:0|0:0,0:0:0:0:
17,271,85161,1,2,0:0:0:0:
256,192,85343,12,0,86434,0:0:0:0:
383,48,86798,6,0,L|389:127,1,80,6|0,0:0|0:0,0:0:0:0:
319,214,87161,1,10,0:0:0:0:
246,128,87343,2,0,L|166:121,1,80,2|0,0:0|0:0,0:0:0:0:
40,110,87707,1,2,0:0:0:0:
166,121,87889,1,10,0:0:0:0:
94,35,88070,1,2,0:0:0:0:
80,193,88252,6,0,L|73:272,1,80
179,310,88616,2,0,L|185:230,1,80,8|0,0:0|0:0,0:0:0:0:
239,86,88980,1,2,0:0:0:0:
281,229,89161,1,2,0:0:0:0:
160,139,89343,1,10,0:0:0:0:
312,140,89525,1,2,0:0:0:0:
160,139,89707,6,0,L|80:139,1,80,6|0,0:0|0:0,0:0:0:0:
1,219,90070,1,10,0:0:0:0:
29,327,90252,2,0,L|108:327,1,80,2|0,0:0|0:0,0:0:0:0:
231,344,90616,1,2,0:0:0:0:
185,230,90798,1,10,0:0:0:0:
109,327,90980,1,2,0:0:0:0:
231,344,91161,6,0,L|310:337,1,80
264,224,91525,2,0,L|184:230,1,80,8|0,0:0|0:0,0:0:0:0:
310,336,91889,1,2,0:0:0:0:
385,241,92070,1,2,0:0:0:0:
431,355,92252,1,10,0:0:0:0:
506,259,92433,1,2,0:0:0:0:
418,133,92616,6,0,L|338:126,1,80,6|0,0:0|0:0,0:0:0:0:
264,224,92980,1,10,0:0:0:0:
165,150,93161,2,0,L|85:156,1,80,2|0,0:0|0:0,0:0:0:0:
206,77,93525,1,2,0:0:0:0:
264,223,93707,1,10,0:0:0:0:
418,133,93889,6,0,L|418:213,1,80,2|0,0:0|0:0,0:0:0:0:
264,223,94252,2,0,L|264:143,1,80,2|0,0:0|0:0,0:0:0:0:
418,213,94616,2,0,L|418:293,1,80,2|0,0:0|0:0,0:0:0:0:
264,303,94979,2,0,L|264:223,1,80,2|0,0:0|0:0,0:0:0:0:
418,293,95343,1,2,0:0:0:0:
264,223,95525,6,0,B|261:206|234:189|234:189|347:198,1,160,4|0,0:0|0:0,0:0:0:0:
198,259,96070,2,0,P|152:177|202:113,1,160
348,198,96616,1,2,0:0:0:0:
234,187,96798,1,2,0:0:0:0:
300,95,96980,5,2,0:0:0:0:
348,198,97161,2,0,L|388:202,2,40,2|2|2,0:0|0:0|0:0,0:0:0:0:
234,187,97525,2,0,L|155:181,1,80,2|0,0:0|0:0,0:0:0:0:
282,290,97889,1,2,0:0:0:0:
296,135,98070,1,2,0:0:0:0:
297,115,98161,1,2,0:0:0:0:
299,95,98252,1,2,0:0:0:0:
