osu file format v14

[General]
AudioFilename: audio.mp3
AudioLeadIn: 0
PreviewTime: 51341
Countdown: 0
SampleSet: Soft
StackLeniency: 0.7
Mode: 0
LetterboxInBreaks: 0
WidescreenStoryboard: 0

[Editor]
DistanceSpacing: 1
BeatDivisor: 4
GridSize: 4
TimelineZoom: 1.099999

[Metadata]
Title:my sweet heart (TV Size)
TitleUnicode:my sweet heart (TV Size)
Artist:Komatsu Rika
ArtistUnicode:小松里賀
Creator:bossandy
Version:Hard
Source:東京ミュウミュウ
Tags:Tokyo Mew Mew cat opening op Japanese Anime 小松里歌 T_T UZA leo16834
BeatmapID:1926725
BeatmapSetID:922632

[Difficulty]
HPDrainRate:4.2
CircleSize:4
OverallDifficulty:6
ApproachRate:7
SliderMultiplier:1.6
SliderTickRate:1

[Events]
//Background and Video events
Video,600,"video.avi"
0,0,"BG.jpg",0,0
//Break Periods
//Storyboard Layer 0 (Background)
//Storyboard Layer 1 (Fail)
//Storyboard Layer 2 (Pass)
//Storyboard Layer 3 (Foreground)
//Storyboard Sound Samples

[TimingPoints]
1879,381.946654783882,4,2,1,60,1,0
53823,381.946654783882,4,2,1,80,1,1
53823,-100,4,2,1,80,0,1
81323,381.946654783882,4,2,1,60,1,0
81323,-100,4,2,1,60,0,0
87625,-100,4,2,1,45,0,0
88198,-100,4,2,1,35,0,0
88961,-100,4,2,1,25,0,0
89725,-100,4,2,1,15,0,0
90489,-100,4,2,1,5,0,0

[Colours]
Combo1 : 211,248,132
Combo2 : 253,249,158
Combo3 : 220,190,226
Combo4 : 255,186,212
Combo5 : 143,230,214

[HitObjects]
432,152,1115,6,0,B|432:208,3,40,2|0|0|0,3:2|3:0|3:0|3:0,0:0:0:0:
412,212,1497,2,0,B|412:268,3,40,2|0|0|0,3:2|3:0|3:0|3:0,0:0:0:0:
392,272,1878,1,4,3:2:0:0:
256,64,2260,5,2,1:2:0:0:
184,96,2451,1,0,3:0:0:0:
111,64,2642,2,0,B|63:120|63:120|63:208,1,160,0|2,3:0|1:2,0:0:0:0:
208,272,3406,2,0,B|120:272,2,80,0|0|2,0:0|3:0|1:2,0:0:0:0:
256,336,3979,1,0,3:0:0:0:
336,336,4170,2,0,B|504:336,1,160,0|2,3:0|1:2,0:0:0:0:
416,192,4934,5,0,3:0:0:0:
256,192,5316,1,2,1:2:0:0:
320,144,5507,1,0,3:0:0:0:
320,64,5698,1,0,3:0:0:0:
184,152,6080,2,0,B|96:152,1,80,2|0,1:2|3:0,0:0:0:0:
120,232,6462,2,0,B|32:264,1,80,0|0,0:0|3:0,0:0:0:0:
104,320,6844,2,0,B|40:376,2,80,2|0|0,1:2|3:0|3:0,0:0:0:0:
184,296,7417,1,0,0:0:0:0:
256,328,7608,1,2,1:2:0:0:
328,296,7799,1,0,0:0:0:0:
328,296,7990,6,0,B|384:296|384:296|424:264|424:264|488:264,1,160,4|2,3:2|1:2,0:0:0:0:
456,344,8563,1,0,3:0:0:0:
352,216,8754,2,0,B|352:112,2,80,0|0|2,3:0|0:0|1:2,0:0:0:0:
272,240,9326,1,0,3:0:0:0:
192,264,9517,2,0,B|116:288|116:288|32:264,1,160,0|2,0:0|1:2,0:0:0:0:
40,184,10090,2,0,B|40:104,1,80,0|0,3:0|3:0,0:0:0:0:
88,40,10472,1,0,0:0:0:0:
152,88,10663,1,2,1:2:0:0:
216,40,10854,1,0,0:0:0:0:
280,88,11045,6,0,B|344:40|344:40|424:40,1,160,0|2,3:0|1:2,0:0:0:0:
476,100,11618,2,0,B|468:146|432:162,1,80,0|0,3:0|3:0,0:0:0:0:
356,132,12000,2,0,L|356:296,1,160,2|0,0:2|3:0,0:0:0:0:
276,292,12573,5,2,3:2:0:0:
276,292,12764,1,2,3:2:0:0:
196,292,12955,1,2,1:2:0:0:
64,200,13337,1,2,3:2:0:0:
64,200,13528,1,2,3:2:0:0:
144,200,13719,1,2,1:2:0:0:
144,40,14101,5,4,3:2:0:0:
304,40,14483,2,0,L|384:40,2,80,2|0|0,1:2|3:0|3:0,0:0:0:0:
256,104,15056,1,0,0:0:0:0:
304,168,15247,2,0,B|392:168,1,80,2|0,1:2|3:0,0:0:0:0:
464,164,15629,2,0,B|508:208|516:256|508:316,1,160,0|2,3:0|1:2,0:0:0:0:
452,368,16201,2,0,B|404:380|344:368|304:324,1,160,0|0,3:0|0:0,0:0:0:0:
304,244,16774,1,2,1:2:0:0:
180,348,17156,6,0,B|132:348|132:348|68:324|68:324|-4:324,1,160,0|2,3:0|1:2,0:0:0:0:
60,252,17729,2,0,B|84:212|84:164,1,80,0|0,3:0|3:0,0:0:0:0:
216,88,18302,2,0,B|152:88|152:88|116:56|56:64,2,160,2|0|2,1:2|0:0|1:2,0:0:0:0:
296,88,19257,1,0,3:0:0:0:
420,188,19639,2,0,B|420:284,1,80,0|2,0:0|1:2,0:0:0:0:
352,312,20021,1,0,0:0:0:0:
280,272,20212,5,0,3:0:0:0:
136,336,20594,1,2,1:2:0:0:
68,292,20785,1,0,3:0:0:0:
68,212,20976,2,0,B|68:44,1,160,0|2,3:0|1:2,0:0:0:0:
133,7,21549,1,0,3:0:0:0:
196,56,21740,2,0,B|196:136,2,80,0|0|2,0:0|3:0|1:2,0:0:0:0:
260,8,22313,1,0,3:0:0:0:
412,60,22695,1,0,0:0:0:0:
360,120,22886,1,2,1:2:0:0:
412,180,23077,1,0,0:0:0:0:
360,240,23268,6,0,B|288:288|200:288,1,160,0|2,3:0|1:2,0:0:0:0:
72,368,24031,2,0,B|48:288,1,80,0|0,3:0|0:0,0:0:0:0:
128,271,24413,2,0,B|152:191,1,80,2|0,1:2|3:0,0:0:0:0:
72,200,24795,2,0,B|32:32,1,160,0|2,0:0|1:2,0:0:0:0:
112,56,25368,2,0,B|296:88,1,160,0|0,3:0|0:0,0:0:0:0:
352,96,25941,1,2,1:2:0:0:
352,96,26132,1,0,0:0:0:0:
432,112,26323,5,4,3:2:0:0:
344,248,26705,2,0,B|440:248,2,80,2|0|0,1:2|3:0|3:0,0:0:0:0:
264,256,27278,1,0,0:0:0:0:
184,272,27469,2,0,B|136:264|112:312,1,80,2|0,1:2|3:0,0:0:0:0:
184,352,27851,2,0,B|112:296|24:304,1,160,0|2,0:0|1:2,0:0:0:0:
32,384,28424,2,0,B|32:192,1,160,0|0,3:0|0:0,0:0:0:0:
32,144,28997,1,2,1:2:0:0:
152,36,29379,6,0,B|196:16|268:16|308:36,1,160,0|2,3:0|1:2,0:0:0:0:
268,104,29952,2,0,L|180:104,1,80,0|0,3:0|3:0,0:1:0:0:
32,144,30524,1,2,1:2:0:0:
188,184,30906,2,0,B|204:260|276:312,1,160,0|2,0:0|1:2,0:0:0:0:
352,344,31479,2,0,B|432:344|432:344|504:288,1,160,0|0,3:0|0:0,0:0:0:0:
496,216,32052,1,2,1:2:0:0:
424,176,32243,1,0,0:0:0:0:
496,140,32434,6,0,B|496:44|396:24,1,160,4|2,3:2|1:2,0:0:0:0:
324,24,33007,1,0,3:0:0:0:
256,68,33198,1,0,3:0:0:0:
116,144,33580,5,2,1:2:0:0:
36,144,33771,1,0,3:0:0:0:
36,224,33962,2,0,B|88:296|176:284,1,160,4|2,3:2|1:2,0:0:0:0:
256,284,34535,1,0,3:0:0:0:
308,344,34726,1,0,3:0:0:0:
416,224,35108,5,2,1:2:0:0:
476,168,35299,1,0,0:0:0:0:
416,112,35490,2,0,B|332:128|260:76,1,160,4|2,3:2|1:2,0:0:0:0:
204,24,36063,1,0,3:0:0:0:
124,24,36254,1,0,3:0:0:0:
60,72,36445,2,0,B|32:36|24:0,2,80,0|2|0,0:0|1:2|3:0,0:0:0:0:
132,112,37018,6,0,B|160:208|96:288,1,160,0|2,0:0|1:2,0:0:0:0:
40,296,37591,1,0,3:0:0:0:
100,348,37781,2,0,B|164:352|216:296,1,120,0|8,3:0|3:0,0:0:0:0:
237,277,38163,2,0,L|281:277,3,40,2|0|8|4,1:2|3:0|3:0|3:0,0:0:0:0:
308,304,38545,1,4,3:2:0:0:
424,224,38927,6,0,B|424:120,1,80,2|0,1:2|3:0,0:0:0:0:
424,64,39309,1,0,3:0:0:0:
424,64,39500,1,0,0:0:0:0:
352,104,39691,1,2,1:2:0:0:
352,104,39882,1,0,3:0:0:0:
280,64,40073,2,0,B|112:64,1,160,0|2,0:0|1:2,0:0:0:0:
48,32,40646,2,0,B|24:104|72:152|144:144,1,160,0|0,3:0|0:0,0:0:0:0:
200,144,41219,1,2,1:2:0:0:
200,144,41410,1,0,0:0:0:0:
280,144,41601,5,4,3:2:0:0:
144,232,41983,2,0,B|64:232,2,80,2|0|0,1:2|3:0|3:0,0:0:0:0:
120,312,42556,2,0,B|40:312,2,80,0|2|0,0:0|1:2|3:0,0:0:0:0:
200,312,43129,1,0,0:0:0:0:
256,368,43320,1,0,3:0:0:0:
312,312,43511,1,2,1:2:0:0:
256,248,43702,1,0,3:0:0:0:
336,232,43893,2,0,B|432:232,1,80,0|0,3:0|0:0,0:0:0:0:
272,168,44275,2,0,B|176:168,1,80,2|0,1:2|0:0,0:0:0:0:
352,152,44657,6,0,B|432:136|472:48,1,160,4|2,3:2|1:2,0:0:0:0:
470,52,45229,1,4,3:2:0:0:
308,56,45611,1,0,0:0:0:0:
240,96,45802,1,2,1:2:0:0:
160,96,45993,1,0,0:0:0:0:
72,232,46184,6,0,B|232:232,1,160,4|2,3:2|1:2,0:0:0:0:
304,192,46757,1,4,3:2:0:0:
304,192,46948,2,0,B|352:184|384:232,1,80
448,248,47330,2,0,B|430:293|373:297,1,80,2|0,1:2|0:0,0:0:0:0:
232,336,47712,6,0,B|168:288|168:288|80:288,1,160,4|2,3:2|1:2,0:0:0:0:
120,360,48285,2,0,B|168:296|168:296|168:208,1,160,4|0,3:2|0:0,0:0:0:0:
104,160,48858,1,2,1:2:0:0:
168,64,49049,1,0,0:0:0:0:
232,160,49240,5,4,3:2:0:0:
296,112,49431,2,0,B|328:72|392:80,1,80,0|2,0:0|1:2,0:0:0:0:
368,160,49813,2,0,B|419:158|454:212,1,80,0|2,0:0|0:0,0:0:0:0:
376,240,50195,2,0,B|409:278|390:340,1,80,0|2,0:0|1:2,0:0:0:0:
320,296,50577,1,8,3:0:0:0:
320,296,50672,1,8,3:0:0:0:
320,296,50768,1,4,3:2:0:0:
256,40,51532,5,2,0:0:0:0:
104,192,52295,1,2,0:0:0:0:
256,344,53059,2,0,L|296:344,3,40,2|2|2|2,3:2|3:2|3:2|3:2,0:0:0:0:
332,327,53441,2,0,L|372:327,3,40,2|2|2|2,3:2|3:2|3:2|3:2,0:0:0:0:
392,292,53823,6,0,B|416:240|408:176|352:136,1,160,4|2,3:2|1:2,0:0:0:0:
364,145,54395,1,0,3:0:0:0:
256,264,54777,1,0,0:0:0:0:
296,192,54968,1,2,1:2:0:0:
256,120,55159,1,0,3:0:0:0:
96,144,55541,2,0,B|48:136|32:88,1,80,0|2,3:0|1:2,0:0:0:0:
176,112,55923,2,0,B|193:157|159:195,1,80,0|0,3:0|3:0,0:0:0:0:
112,64,56305,2,0,B|142:26|192:36,1,80,0|2,0:0|1:2,0:0:0:0:
248,184,56878,6,0,B|232:280|136:312,1,160,0|2,3:0|1:2,0:0:0:0:
80,280,57451,2,0,B|176:304|224:384,1,160,0|0,3:0|0:0,0:0:0:0:
280,328,58024,1,2,1:2:0:0:
360,336,58215,2,0,B|432:288|432:288|432:192,1,160,0|0,3:0|3:0,0:0:0:0:
432,136,58788,2,0,B|432:48,1,80,2|0,1:2|3:0,0:0:0:0:
360,20,59170,2,0,B|284:80|208:48,1,160,0|2,3:0|1:2,0:0:0:0:
140,16,59743,1,8,3:0:0:0:
140,16,59838,1,8,3:0:0:0:
140,16,59934,1,4,3:2:0:0:
88,288,60698,5,0,3:0:0:0:
156,328,60889,2,0,P|196:332|236:328,2,80,0|2|0,0:0|1:2|3:0,0:0:0:0:
168,128,61652,1,0,3:0:0:0:
208,200,61843,2,0,B|208:236|256:258|256:258|304:236|304:200,2,160,2|0|2,1:2|3:0|1:2,0:0:0:0:
168,128,62798,1,0,0:0:0:0:
184,48,62989,6,0,P|256:19|328:48,1,160,0|2,3:0|1:2,0:0:0:0:
344,128,63562,1,0,3:0:0:0:
256,264,63944,1,0,3:0:0:0:
296,336,64135,1,2,1:2:0:0:
216,336,64326,1,0,3:0:0:0:
176,264,64517,2,0,B|144:208|192:152|256:184|256:184|320:152|368:208|336:264,2,320,4|4|4,3:2|3:2|3:2,0:0:0:0:
88,128,66427,5,2,1:2:0:0:
64,48,66618,1,0,3:0:0:0:
208,120,67000,1,0,0:0:0:0:
256,56,67191,1,2,1:2:0:0:
304,120,67382,1,0,3:0:0:0:
448,48,67764,1,0,0:0:0:0:
424,128,67955,1,2,1:2:0:0:
368,184,68145,1,0,3:0:0:0:
312,248,68336,2,0,B|304:288|256:300|256:300|208:288|200:248,1,160,0|2,3:0|1:2,0:0:0:0:
88,136,69100,6,0,B|160:64,1,80,0|0,3:0|0:0,0:0:0:0:
192,144,69482,2,0,B|272:168,1,80,2|0,1:2|3:0,0:0:0:0:
320,104,69864,2,0,B|240:80,1,80,0|0,3:0|0:0,0:0:0:0:
376,48,70246,2,0,B|448:120,1,80,2|0,1:2|3:0,0:0:0:0:
376,168,70628,1,0,0:0:0:0:
448,208,70819,1,0,3:0:0:0:
376,248,71010,1,2,1:2:0:0:
448,288,71201,1,0,3:0:0:0:
376,328,71392,2,0,B|200:328,1,160,0|2,3:0|1:2,0:0:0:0:
136,328,71965,1,8,3:0:0:0:
136,328,72060,1,8,3:0:0:0:
136,328,72156,1,4,3:2:0:0:
424,88,72920,6,0,B|376:160,1,80,0|0,3:0|0:0,0:0:0:0:
440,200,73302,2,0,B|392:280,1,80,2|0,1:2|3:0,0:0:0:0:
256,192,73875,1,0,3:0:0:0:
184,152,74066,2,0,B|120:88,1,80,2|0,1:2|3:0,0:0:0:0:
257,274,74448,2,0,B|233:361,1,80,0|0,3:0|0:0,0:0:0:0:
326,149,74830,2,0,B|414:126,1,80,2|0,1:2|0:0,0:0:0:0:
257,274,75212,6,0,B|176:312|80:264,1,160,0|2,3:0|1:2,0:0:0:0:
256,192,75784,1,0,3:0:0:0:
254,109,75975,2,0,B|336:72|432:120,1,160,0|2,3:0|1:2,0:0:0:0:
256,192,76548,1,0,3:0:0:0:
184,152,76739,1,0,0:0:0:0:
296,120,76930,1,0,3:0:0:0:
328,232,77121,1,2,1:2:0:0:
216,264,77312,1,0,3:0:0:0:
184,152,77503,2,0,B|162:97|201:56|201:56|256:48,1,160,0|2,3:0|1:2,0:0:0:0:
256,48,78267,5,4,3:2:0:0:
256,336,78649,1,2,1:2:0:0:
112,192,79031,1,4,3:2:0:0:
400,192,79413,1,2,1:2:0:0:
176,264,79795,2,0,B|240:272|312:224|312:176|256:144|200:176|200:224|272:272|336:264,2,320,4|4|4,3:2|3:2|3:2,0:0:0:0:
112,120,81704,5,2,1:2:0:0:
64,56,81895,1,0,3:0:0:0:
16,120,82086,2,0,B|32:196|32:196|32:280,1,160,0|2,3:0|1:2,0:0:0:0:
172,360,82850,2,0,B|172:276,2,80,0|0|2,0:0|3:0|1:2,0:0:0:0:
256,360,83423,1,0,3:0:0:0:
336,360,83614,2,0,B|504:360,1,160,0|2,3:0|1:2,0:0:0:0:
440,208,84378,5,0,3:0:0:0:
344,80,84760,1,2,1:2:0:0:
296,144,84951,1,0,3:0:0:0:
216,144,85142,1,0,3:0:0:0:
160,296,85524,2,0,B|208:288|224:240,1,80,2|0,1:2|3:0,0:0:0:0:
80,264,85906,2,0,B|63:309|97:347,1,80,0|0,0:0|3:0,0:0:0:0:
144,216,86288,2,0,B|114:178|64:188,1,80,2|0,1:2|3:0,0:0:0:0:
160,296,86670,1,0,3:0:0:0:
216,144,87052,1,2,1:2:0:0:
320,264,87434,5,4,3:2:0:0:
256,192,87625,12,0,90489,0:0:0:0:
