osu file format v14

[General]
AudioFilename: audio.mp3
AudioLeadIn: 0
PreviewTime: 43025
Countdown: 0
SampleSet: Soft
StackLeniency: 0.7
Mode: 0
LetterboxInBreaks: 0
WidescreenStoryboard: 1

[Editor]
DistanceSpacing: 1
BeatDivisor: 4
GridSize: 8
TimelineZoom: 2.1

[Metadata]
Title:Kirakira Baby Baby(TV size)
TitleUnicode:キラキラBaby×Baby (TVサイズ)
Artist:Komatsu Mikako,Ogino Karin
ArtistUnicode:小松 未可子,荻野 可鈴
Creator:Mikako
Version:Easy
Source:てさぐれ!部活もの すぴんおふ プルプルんシャルムと遊ぼう
Tags:てさプル! 歌もの KomatsuMikako OginoKarin てさぐれ!部活もの みならい女神 プルプルんシャルム Pata-Mon
BeatmapID:973401
BeatmapSetID:445856

[Difficulty]
HPDrainRate:3
CircleSize:2
OverallDifficulty:4
ApproachRate:4
SliderMultiplier:0.99999990463257
SliderTickRate:1

[Events]
//Background and Video events
0,0,"bg.png",0,0
//Break Periods
//Storyboard Layer 0 (Background)
//Storyboard Layer 1 (Fail)
//Storyboard Layer 2 (Pass)
//Storyboard Layer 3 (Foreground)
//Storyboard Sound Samples

[TimingPoints]
575,300,4,2,0,60,1,0
11375,-100,4,2,0,50,0,0
43175,300,4,2,0,60,1,0
43175,-100,4,2,0,70,0,1
65525,-100,4,2,0,50,0,0
65975,-100,4,2,0,70,0,1
92675,-100,4,2,0,60,0,0
92975,300,4,2,0,60,1,0
102575,-100,4,2,0,50,0,0

[Colours]
Combo1 : 255,192,0
Combo2 : 0,202,0
Combo3 : 18,124,255
Combo4 : 242,24,57

[HitObjects]
96,80,575,5,0,0:0:0:0:
120,104,875,1,0,0:0:0:0:
144,128,1175,1,0,0:0:0:0:
168,152,1475,1,0,0:0:0:0:
192,176,1775,6,0,L|272:248,1,99.999990463257
352,200,2375,1,0,0:0:0:0:
312,112,2675,2,0,P|320:56|376:48,1,99.999990463257
432,112,3275,1,0,0:0:0:0:
456,208,3575,2,0,B|400:216|448:280|376:280,1,99.999990463257
272,320,4175,6,0,L|168:320,1,99.999990463257
144,224,4775,1,0,0:0:0:0:
48,240,5075,2,0,B|16:168|48:112|48:112|96:104|136:120,1,199.999980926514
200,160,5975,2,0,P|264:160|296:128,1,99.999990463257
224,64,6575,6,0,P|272:40|328:48,1,99.999990463257
392,104,7175,1,0,0:0:0:0:
416,200,7475,2,0,P|400:256|352:280,1,99.999990463257
288,336,8075,1,0,0:0:0:0:
192,320,8375,2,0,P|152:296|88:312,1,99.999990463257
0,304,8975,6,0,P|-8:256|24:200,2,99.999990463257
96,264,9875,2,0,L|200:240,2,99.999990463257
120,168,10775,1,0,0:0:0:0:
416,216,11375,5,0,0:0:0:0:
240,312,11975,1,0,0:0:0:0:
56,232,12575,2,0,B|32:176|32:176|56:128,1,99.999990463257
144,112,13175,2,0,B|192:152|192:152|192:200,1,99.999990463257
280,232,13775,6,0,P|344:256|384:240,1,99.999990463257
440,176,14375,1,0,0:0:0:0:
384,88,14675,1,0,0:0:0:0:
288,56,14975,6,0,P|224:56|184:80,3,99.999990463257
88,176,16175,5,0,0:0:0:0:
240,304,16775,1,0,0:0:0:0:
432,256,17375,2,0,B|464:216|464:216|448:160,1,99.999990463257
376,104,17975,2,0,B|336:72|336:72|288:88,1,99.999990463257
136,80,18575,6,0,P|80:104|64:144,1,99.999990463257
144,200,19175,2,0,P|128:248|152:304,1,99.999990463257
240,264,19775,1,0,0:0:0:0:
256,232,20075,1,0,0:0:0:0:
288,208,20375,1,0,0:0:0:0:
328,200,20675,1,0,0:0:0:0:
368,216,20975,6,0,P|408:240|416:296,1,99.999990463257
328,328,21575,2,0,L|216:344,1,99.999990463257
144,288,22175,2,0,P|104:264|104:208,2,99.999990463257
224,224,23075,1,0,0:0:0:0:
376,208,23375,6,0,P|400:160|392:112,1,99.999990463257
296,136,23975,2,0,P|296:80|272:40,1,99.999990463257
192,96,24575,2,0,B|168:96|168:96|152:48|152:48|112:48,3,99.999990463257
0,128,25775,5,0,0:0:0:0:
16,168,26075,1,0,0:0:0:0:
48,200,26375,1,0,0:0:0:0:
88,208,26675,1,0,0:0:0:0:
128,160,26975,5,0,0:0:0:0:
168,168,27275,1,0,0:0:0:0:
200,192,27575,1,0,0:0:0:0:
216,224,27875,1,0,0:0:0:0:
264,256,28175,6,0,P|320:280|360:264,1,99.999990463257
392,176,28775,2,0,P|368:128|320:112,1,99.999990463257
232,112,29375,2,0,L|168:112,3,49.9999952316285
144,144,29975,2,0,L|104:184,3,49.9999952316285
88,248,30575,5,0,0:0:0:0:
160,312,30875,1,0,0:0:0:0:
256,288,31175,2,0,P|320:280|344:248,2,99.999990463257
208,200,32075,2,0,P|224:152|264:128,1,99.999990463257
360,120,32675,1,0,0:0:0:0:
424,200,32975,6,0,P|432:256|408:296,3,99.999990463257
320,248,34175,2,0,P|296:200|248:176,1,99.999990463257
200,264,34775,2,0,P|136:264|104:232,1,99.999990463257
56,160,35375,5,0,0:0:0:0:
56,160,35675,1,0,0:0:0:0:
56,160,35975,2,0,P|88:112|128:104,1,99.999990463257
224,128,36575,2,0,L|320:160,2,99.999990463257
126,113,37475,5,0,0:0:0:0:
59,187,37775,1,0,0:0:0:0:
92,281,38075,1,0,0:0:0:0:
192,304,38375,2,0,P|248:320|296:288,1,99.999990463257
328,216,38975,6,0,P|312:152|264:128,1,99.999990463257
192,168,39575,2,0,P|184:224|224:256,1,99.999990463257
319,318,40175,2,0,P|385:332|430:320,1,99.999990463257
370,215,40775,2,0,P|386:158|372:102,1,99.999990463257
253,171,41375,2,0,L|151:162,3,99.999990463257
84,237,42500,1,0,0:0:0:0:
348,130,43175,5,0,0:0:0:0:
