osu file format v14

[General]
AudioFilename: audio.mp3
AudioLeadIn: 0
PreviewTime: 59156
Countdown: 0
SampleSet: Soft
StackLeniency: 0.3
Mode: 0
LetterboxInBreaks: 0
WidescreenStoryboard: 1

[Editor]
DistanceSpacing: 0.9
BeatDivisor: 4
GridSize: 4
TimelineZoom: 2.2

[Metadata]
Title:Zettai Kibou Birthday (TV Size)
TitleUnicode:絶対希望バースデー (TV Size)
Artist:Komaeda Nagito (CV: Ogata Megumi)
ArtistUnicode:狛枝凪斗 (CV: 緒方恵美)
Creator:Andrea
Version:Normal
Source:ダンガンロンパ3-The End of 希望ヶ峰学園- 絶望編
Tags:Anime Japanese Kibougamine Gakuen Zetsubou Hen danganronpa hope's peak academy side despair ending osuplayer111
BeatmapID:2134410
BeatmapSetID:1020044

[Difficulty]
HPDrainRate:3
CircleSize:3.5
OverallDifficulty:4
ApproachRate:5
SliderMultiplier:0.999999999999999
SliderTickRate:1

[Events]
//Background and Video events
0,0,"BG.jpg",0,0
Video,200,"Video.mp4"
//Break Periods
//Storyboard Layer 0 (Background)
//Storyboard Layer 1 (Fail)
//Storyboard Layer 2 (Pass)
//Storyboard Layer 3 (Foreground)
//Storyboard Layer 4 (Overlay)
//Storyboard Sound Samples

[TimingPoints]
490,333.333333333333,4,2,1,40,1,0
1239,-100,4,2,1,5,0,0
2489,-100,4,2,1,50,0,0
2823,-100,4,2,1,60,0,0
3156,333.333333333333,4,2,1,70,1,0
3156,-100,4,2,1,70,0,0
13488,-100,4,2,1,5,0,0
13572,-100,4,2,1,70,0,0
13822,-100,4,2,1,60,0,0
45822,-100,4,2,1,50,0,0
49822,-100,4,2,1,60,0,0
50155,-100,4,2,1,5,0,0
50238,-100,4,2,1,60,0,0
51155,-100,4,2,1,70,0,0
58822,-100,4,2,1,60,0,0
59155,333.333333333333,4,2,1,80,1,1
59155,-100,4,2,1,80,0,1
82155,-100,4,2,1,5,0,1
82238,-100,4,2,1,80,0,1
83154,-100,4,2,1,80,0,0
87488,-100,4,2,1,70,0,0
87822,-100,4,2,1,60,0,0
88155,-100,4,2,1,50,0,0
88488,-100,4,2,1,40,0,0
88822,-100,4,2,1,30,0,0
89155,-100,4,2,1,20,0,0
89488,-100,4,2,1,10,0,0
89821,-100,4,2,1,5,0,0

[Colours]
Combo1 : 191,191,191
Combo2 : 243,54,102
Combo3 : 0,143,213
Combo4 : 255,255,128

[HitObjects]
132,144,1156,6,0,P|256:72|380:144,1,300,2|0,0:0|0:0,0:0:0:0:
428,220,2489,2,0,L|456:268,2,50,8|8|8,0:0|0:1|0:0,0:0:0:0:
352,268,3156,5,4,0:0:0:0:
276,316,3489,1,8,0:0:0:0:
184,316,3822,2,0,P|128:316|96:284,1,99.9999999999999,8|8,0:1|0:0,0:0:0:0:
64,204,4489,2,0,L|64:104,1,99.9999999999999,8|8,0:1|0:0,0:0:0:0:
92,72,4989,2,0,P|129:40|178:43,1,99.9999999999999,0|0,0:0|0:0,0:0:0:0:
220,60,5489,1,8,0:0:0:0:
304,92,5822,6,0,B|356:92|356:92|400:124,1,99.9999999999999,8|8,0:1|0:0,0:0:0:0:
416,160,6322,2,0,L|416:260,1,99.9999999999999,0|0,0:0|0:0,0:0:0:0:
388,296,6822,1,8,0:0:0:0:
316,348,7155,2,0,P|264:348|224:316,1,99.9999999999999,8|8,0:1|0:0,0:0:0:0:
196,288,7655,1,0,0:0:0:0:
156,264,7822,2,0,L|106:264,2,50,8|8|8,0:0|0:1|0:0,0:0:0:0:
208,192,8489,5,8,0:0:0:0:
256,116,8822,1,8,0:1:0:0:
304,192,9155,2,0,P|356:192|392:220,1,99.9999999999999,0|8,0:0|0:0,0:0:0:0:
368,308,9822,2,0,P|316:308|280:280,1,99.9999999999999,8|0,0:0|0:0,0:0:0:0:
236,280,10322,2,0,L|132:280,1,99.9999999999999,8|0,0:0|0:0,0:0:0:0:
92,280,10822,1,8,0:0:0:0:
92,192,11155,6,0,B|92:140|92:140|120:100,1,99.9999999999999,8|0,0:0|0:0,0:0:0:0:
164,100,11655,2,0,L|264:100,1,99.9999999999999,8|8,0:0|0:1,0:0:0:0:
308,100,12155,1,8,0:0:0:0:
384,148,12489,2,0,P|404:192|384:236,1,99.9999999999999,8|8,0:1|0:0,0:0:0:0:
308,284,13155,2,0,P|240:284|192:328,1,133.333333333333,8|8,0:0|0:0,0:0:0:0:
144,360,13822,5,4,0:0:0:0:
88,292,14155,2,0,P|56:224|88:160,1,150,8|0,0:1|0:0,0:0:0:0:
140,88,14989,2,0,P|208:56|272:88,1,150,2|8,0:0|0:1,0:0:0:0:
304,116,15655,2,0,L|404:116,1,99.9999999999999,2|0,0:0|0:0,0:0:0:0:
448,116,16155,1,8,0:1:0:0:
448,204,16489,6,0,B|448:256|448:256|416:292,1,99.9999999999999,2|8,0:0|0:1,0:0:0:0:
384,324,16989,2,0,B|348:356|348:356|296:356,1,99.9999999999999,0|0,0:0|0:0,0:0:0:0:
224,304,17655,1,0,0:0:0:0:
184,280,17822,2,0,B|148:248|148:248|96:248,1,99.9999999999999,8|8,0:1|0:1,0:0:0:0:
48,172,18489,2,0,L|92:81,1,99.9999999999999,8|8,0:1|0:1,0:0:0:0:
172,36,19155,5,2,0:0:0:0:
256,72,19489,2,0,L|256:124,2,50,8|0|8,0:1|0:0|0:1,0:0:0:0:
340,36,20155,2,0,L|400:37,1,50,8|0,0:1|0:0,0:0:0:0:
452,100,20655,2,0,B|452:152|452:152|424:196,2,99.9999999999999,0|2|0,0:0|0:0|0:0,0:0:0:0:
389,36,21655,1,0,0:0:0:0:
344,36,21822,6,0,B|292:36|292:36|252:64,1,99.9999999999999,2|8,0:0|0:1,0:0:0:0:
220,92,22322,2,0,B|180:120|180:120|128:120,1,99.9999999999999,2|0,0:0|0:0,0:0:0:0:
64,180,22989,2,0,L|64:232,1,50,2|0,0:0|0:0,0:0:0:0:
124,300,23489,1,4,0:3:0:0:
216,300,23822,2,0,L|268:300,2,50,4|8|8,0:3|0:1|0:0,0:0:0:0:
216,256,24322,1,0,0:0:0:0:
216,212,24489,6,0,L|216:112,1,99.9999999999999,4|8,0:0|0:0,0:0:0:0:
216,68,24989,2,0,P|260:47|304:67,1,99.9999999999999,0|8,0:0|0:0,0:0:0:0:
352,144,25655,2,0,P|331:187|351:231,1,99.9999999999999,8|8,0:0|0:1,0:0:0:0:
396,228,26155,1,8,0:0:0:0:
428,196,26322,2,0,L|464:92,1,99.9999999999999,8|0,0:1|3:0,0:0:0:0:
476,60,26822,2,0,L|492:8,2,50,8|8|8,0:0|0:1|0:1,0:0:0:0:
392,32,27489,5,8,0:0:0:0:
348,32,27655,2,0,P|296:32|260:60,1,99.9999999999999,8|0,0:1|3:0,0:0:0:0:
260,152,28322,2,0,P|220:181|171:180,1,99.9999999999999,8|8,0:1|0:1,0:0:0:0:
136,156,28822,1,8,0:0:0:0:
136,68,29155,1,8,0:0:0:0:
92,68,29322,2,0,L|40:68,1,50,0|8,3:0|0:0,0:0:0:0:
40,160,29822,6,0,B|40:208|40:208|68:252,1,99.9999999999999,4|8,0:0|0:0,0:0:0:0:
112,268,30322,2,0,B|112:316|112:316|140:360,1,99.9999999999999,8|0,0:1|3:0,0:0:0:0:
184,368,30822,2,0,L|240:368,1,50,8|8,0:0|0:1,0:0:0:0:
316,328,31322,1,0,0:0:0:0:
344,292,31489,2,0,P|364:247|344:203,1,99.9999999999999,8|8,0:0|0:1,0:0:0:0:
308,176,31989,2,0,P|287:131|308:87,1,99.9999999999999,0|0,0:0|0:0,0:0:0:0:
324,44,32489,6,0,L|220:44,1,99.9999999999999,8|8,0:1|0:0,0:0:0:0:
180,44,32989,1,0,0:0:0:0:
108,96,33322,2,0,L|56:96,2,50,8|8|8,0:1|0:0|0:1,0:0:0:0:
128,184,33989,2,0,B|128:232|128:232|156:280,1,99.9999999999999,2|0,0:0|0:0,0:0:0:0:
184,312,34489,1,8,0:0:0:0:
212,348,34655,2,0,L|264:348,1,50,2|8,0:3|0:0,0:0:0:0:
332,292,35155,6,0,P|384:292|416:260,1,99.9999999999999,4|8,0:0|0:1,0:0:0:0:
428,216,35655,1,8,0:0:0:0:
344,112,36155,2,0,P|292:112|260:144,1,99.9999999999999,4|8,0:0|0:1,0:0:0:0:
236,184,36655,1,8,0:0:0:0:
116,128,37155,2,0,L|59:128,2,50,8|8|8,0:0|0:1|0:1,0:0:0:0:
116,220,37822,6,0,B|116:272|116:272|144:312,1,99.9999999999999,4|8,0:0|0:1,0:0:0:0:
176,340,38322,1,8,0:0:0:0:
276,252,38822,2,0,B|276:200|276:200|248:160,1,99.9999999999999,4|8,0:0|0:1,0:0:0:0:
220,128,39322,1,8,0:0:0:0:
112,48,39822,2,0,L|56:48,2,50,8|8|8,0:1|0:1|0:0,0:0:0:0:
200,48,40489,6,0,L|304:48,1,99.9999999999999,4|8,0:0|0:0,0:0:0:0:
344,48,40989,2,0,L|404:48,2,50,0|8|0,0:0|0:1|3:0,0:0:0:0:
344,140,41655,2,0,B|364:188|364:188|344:236,1,99.9999999999999,8|2,0:0|0:0,0:0:0:0:
328,272,42155,2,0,L|224:272,2,99.9999999999999,8|2|8,0:0|0:0|0:0,0:0:0:0:
380,348,43155,6,0,L|480:348,1,99.9999999999999,8|8,0:1|0:0,0:0:0:0:
480,304,43655,2,0,P|500:259|480:215,1,99.9999999999999,8|8,0:1|0:1,0:0:0:0:
412,156,44322,2,0,P|391:111|412:67,1,99.9999999999999,8|8,0:1|0:1,0:0:0:0:
380,36,44822,1,8,0:0:0:0:
292,36,45155,2,0,L|236:36,2,50,8|0|8,0:0|0:0|0:0,0:0:0:0:
292,128,45822,6,0,B|292:180|292:180|260:216,1,99.9999999999999,4|8,0:0|0:1,0:0:0:0:
216,216,46322,2,0,L|156:216,1,50,8|8,0:1|0:0,0:0:0:0:
120,140,46822,2,0,L|68:140,1,50,8|8,0:1|0:1,0:0:0:0:
44,104,47155,1,8,0:1:0:0:
20,64,47322,2,0,B|68:40|68:40|120:40,1,99.9999999999999,8|0,0:0|0:0,0:0:0:0:
160,40,47822,5,8,0:0:0:0:
236,88,48155,1,8,0:1:0:0:
312,40,48489,2,0,P|364:40|400:68,1,99.9999999999999,8|8,0:0|0:1,0:0:0:0:
425,106,48989,1,8,0:1:0:0:
400,144,49155,2,0,P|360:173|311:172,1,99.9999999999999,8|8,0:0|0:1,0:0:0:0:
228,144,49822,6,0,P|164:144|108:188,1,133.333333333333,8|8,0:0|0:0,0:0:0:0:
96,244,50489,2,0,L|88:303,2,50,8|8|8,0:1|0:1|0:1,0:0:0:0:
180,276,51155,5,4,0:0:0:0:
264,304,51489,2,0,L|316:320,1,50,8|8,0:0|0:1,0:0:0:0:
356,332,51822,2,0,P|408:332|440:300,1,99.9999999999999,8|8,0:0|0:0,0:0:0:0:
452,256,52322,2,0,P|484:188|452:124,1,150,8|8,0:1|0:0,0:0:0:0:
380,72,53155,1,8,0:0:0:0:
300,28,53489,2,0,L|272:76,1,50,8|8,0:0|0:1,0:0:0:0:
244,104,53822,6,0,L|144:104,1,99.9999999999999,4|8,0:0|0:0,0:0:0:0:
100,104,54322,2,0,P|73:64|72:12,2,99.9999999999999,8|8|4,0:1|0:0|0:0,0:0:0:0:
120,192,55322,1,8,0:0:0:0:
128,236,55489,2,0,L|140:292,1,50,10|8,0:1|0:1,0:0:0:0:
148,328,55822,2,0,P|201:318|251:339,1,99.9999999999999,10|10,0:1|0:1,0:0:0:0:
304,264,56489,6,0,L|404:248,1,99.9999999999999,14|10,0:0|0:0,0:0:0:0:
428,212,56989,2,0,P|456:176|448:120,1,99.9999999999999,8|8,0:1|0:1,0:0:0:0:
420,92,57489,1,10,0:0:0:0:
340,52,57822,6,0,L|276:52,1,50,10|10,0:0|0:0,0:0:0:0:
268,92,58155,2,0,L|204:92,1,50,10|10,0:0|0:0,0:0:0:0:
160,164,58655,2,0,L|128:216,1,50,8|10,0:1|0:0,0:0:0:0:
84,280,59155,5,4,0:0:0:0:
160,328,59488,2,0,L|212:328,1,50,8|0,0:0|0:0,0:0:0:0:
256,328,59821,2,0,P|312:328|344:300,1,99.9999999999999,8|8,0:1|0:0,0:0:0:0:
400,232,60488,2,0,L|400:128,1,99.9999999999999,8|8,0:1|0:0,0:0:0:0:
368,100,60988,2,0,P|329:69|280:72,1,99.9999999999999,2|0,0:0|0:0,0:0:0:0:
192,48,61655,6,0,L|148:137,1,99.9999999999999,2|2,0:0|0:0,0:0:0:0:
124,176,62155,2,0,L|100:224,2,50,8|0|8,0:0|0:0|0:1,0:0:0:0:
220,272,62988,2,0,L|264:183,1,99.9999999999999,2|0,0:0|0:0,0:0:0:0:
288,144,63488,2,0,L|312:96,2,50,8|0|8,0:0|0:0|0:1,0:0:0:0:
372,180,64154,1,8,0:0:0:0:
336,260,64488,5,4,0:0:0:0:
296,340,64821,2,0,L|244:340,1,50,8|0,0:0|0:0,0:0:0:0:
200,340,65154,2,0,P|148:340|112:308,1,99.9999999999999,8|8,0:1|0:0,0:0:0:0:
68,232,65821,2,0,L|68:128,1,99.9999999999999,8|8,0:1|0:0,0:0:0:0:
88,92,66321,2,0,B|132:68|132:68|188:68,1,99.9999999999999,2|0,0:0|0:0,0:0:0:0:
272,68,66988,6,0,B|321:68|321:68|365:92,1,99.9999999999999,0|0,3:0|0:0,0:0:0:0:
404,116,67488,1,8,0:0:0:0:
476,172,67821,2,0,L|476:240,2,50,8|0|8,0:1|0:0|0:0,0:0:0:0:
396,216,68488,6,0,L|340:216,1,50,8|10,0:1|0:1,0:0:0:0:
324,256,68821,2,0,L|268:256,1,50,8|2,0:0|0:0,0:0:0:0:
184,256,69321,1,8,0:0:0:0:
124,192,69654,1,2,0:0:0:0:
124,148,69821,6,0,B|124:96|124:96|152:56,1,99.9999999999999,4|8,0:0|0:0,0:0:0:0:
236,28,70488,2,0,B|288:28|288:28|336:56,1,99.9999999999999,8|8,0:1|0:0,0:0:0:0:
408,96,71154,2,0,L|448:188,1,99.9999999999999,8|8,0:1|0:0,0:0:0:0:
468,228,71654,2,0,B|420:252|420:252|404:296,1,99.9999999999999,2|0,0:0|0:0,0:0:0:0:
312,296,72321,6,0,B|264:272|264:272|248:228,1,99.9999999999999,2|0,0:0|0:0,0:0:0:0:
232,184,72821,1,8,0:0:0:0:
208,96,73154,1,8,0:1:0:0:
184,8,73488,6,0,L|124:8,1,50,8|2,0:0|0:0,0:0:0:0:
100,36,73821,2,0,L|44:36,2,50,0|0|8,0:0|0:0|0:0,0:0:0:0:
100,124,74488,1,8,0:1:0:0:
100,216,74821,2,0,L|138:257,1,50,8|0,0:0|0:0,0:0:0:0:
168,284,75154,5,4,0:0:0:0:
224,352,75488,2,0,P|276:352|312:324,1,99.9999999999999,8|0,0:0|0:0,0:0:0:0:
372,256,76154,1,8,0:0:0:0:
428,188,76488,2,0,P|428:136|400:100,1,99.9999999999999,2|8,0:0|0:0,0:0:0:0:
364,72,76988,2,0,L|264:72,1,99.9999999999999,2|0,0:0|0:0,0:0:0:0:
220,72,77488,1,8,0:0:0:0:
140,116,77821,5,8,0:1:0:0:
80,184,78154,2,0,L|80:236,1,50,8|0,0:0|0:0,0:0:0:0:
104,272,78488,2,0,B|160:272|160:272|200:296,1,99.9999999999999,8|8,0:1|0:0,0:0:0:0:
280,332,79154,2,0,L|328:240,1,99.9999999999999,8|8,0:1|0:0,0:0:0:0:
348,204,79654,2,0,P|308:180|256:172,1,99.9999999999999,0|8,0:0|0:1,0:0:0:0:
212,184,80154,1,8,0:0:0:0:
124,208,80488,6,0,P|100:168|92:116,1,99.9999999999999,4|8,0:0|0:0,0:0:0:0:
112,76,80988,2,0,L|208:40,1,99.9999999999999,2|0,0:0|0:0,0:0:0:0:
248,28,81488,1,8,0:0:0:0:
340,28,81821,6,0,P|408:32|456:72,1,133.333333333333,8|8,0:0|0:0,0:0:0:0:
416,216,82821,1,8,0:0:0:0:
396,304,83154,6,0,B|344:304|344:304|300:332,1,99.9999999999999,4|8,0:0|0:0,0:0:0:0:
208,329,83821,2,0,B|168:304|168:304|116:304,1,99.9999999999999,8|8,0:1|0:0,0:0:0:0:
64,228,84488,2,0,L|40:128,1,99.9999999999999,8|8,0:1|0:0,0:0:0:0:
52,88,84988,2,0,P|96:60|144:72,1,99.9999999999999,2|0,0:0|0:0,0:0:0:0:
180,92,85488,1,8,0:0:0:0:
252,148,85821,6,0,L|356:128,1,99.9999999999999,10|8,0:0|0:1,0:0:0:0:
396,120,86321,1,10,0:0:0:0:
424,204,86654,2,0,L|440:252,1,50,10|8,0:0|0:0,0:0:0:0:
452,296,86988,1,14,0:0:0:0:
256,192,87154,12,0,89821,0:0:0:0:
