osu file format v14

[General]
AudioFilename: audio.mp3
AudioLeadIn: 0
PreviewTime: 42769
Countdown: 0
SampleSet: Soft
StackLeniency: 0.7
Mode: 0
LetterboxInBreaks: 0
WidescreenStoryboard: 0

[Editor]
Bookmarks: 21440,32106,42773,53440,64106,74773,85440,96106,106773,117440,128106,138773
DistanceSpacing: 1
BeatDivisor: 4
GridSize: 4
TimelineZoom: 1

[Metadata]
Title:timer
TitleUnicode:timer
Artist:Kola Kid
ArtistUnicode:Kola Kid
Creator:Mirash
Version:Normal
Source:
Tags:8bit Cash Machine Go! dance electronic chiptune
BeatmapID:2277129
BeatmapSetID:1089084

[Difficulty]
HPDrainRate:4
CircleSize:4
OverallDifficulty:5
ApproachRate:5
SliderMultiplier:0.8
SliderTickRate:1

[Events]
//Background and Video events
0,0,"f565f959387203.5a20286dbfca6.jpg",0,0
//Break Periods
//Storyboard Layer 0 (Background)
//Storyboard Layer 1 (Fail)
//Storyboard Layer 2 (Pass)
//Storyboard Layer 3 (Foreground)
//Storyboard Layer 4 (Overlay)
//Storyboard Sound Samples

[TimingPoints]
103,333.333333333333,4,2,1,50,1,0
21436,-100,4,2,1,60,0,0
42769,-100,4,2,1,70,0,0
64102,-100,4,2,1,50,0,0
74769,-100,4,2,1,60,0,0
85436,-100,4,2,1,40,0,0
91436,-100,4,2,1,40,0,0
95602,-100,4,2,1,50,0,0
95769,-100,4,2,1,50,0,0
96102,-100,4,2,1,70,0,0

[Colours]
Combo1 : 255,94,55
Combo2 : 173,255,95
Combo3 : 17,254,176
Combo4 : 255,88,100

[HitObjects]
85,103,20936,5,0,1:0:0:0:
85,103,21102,2,0,L|128:118,1,40,8|0,0:0|1:0,0:0:0:0:
161,104,21436,6,0,P|195:122|220:172,1,80,4|8,1:0|0:0,0:0:0:0:
249,229,22102,2,0,L|338:217,1,80,2|8,0:0|0:0,0:0:0:0:
351,185,22602,1,0,1:0:0:0:
379,157,22769,2,0,L|462:183,2,80,2|8|0,1:3|0:0|0:0,0:0:0:0:
355,124,23602,1,0,1:0:0:0:
372,87,23769,1,10,0:0:0:0:
309,36,24102,6,0,L|222:51,1,80,2|8,1:3|0:0,0:0:0:0:
175,107,24769,1,2,0:0:0:0:
175,107,24936,1,2,1:2:0:0:
175,107,25102,2,0,L|125:117,1,40,8|2,0:0|1:2,0:0:0:0:
97,100,25436,2,0,P|108:173|118:271,1,160,2|0,1:3|0:0,0:0:0:0:
142,289,26269,1,2,1:2:0:0:
142,289,26436,1,8,0:0:0:0:
216,316,26769,6,0,P|265:295|306:284,1,80,4|8,1:0|0:0,0:0:0:0:
347,231,27436,1,2,0:0:0:0:
347,231,27602,1,2,1:2:0:0:
347,231,27769,2,0,L|386:240,1,40,8|2,0:0|1:2,0:0:0:0:
418,263,28102,2,0,P|444:209|454:157,2,80,2|8|0,1:3|0:0|0:0,0:0:0:0:
429,301,28936,1,2,1:2:0:0:
429,301,29102,1,8,0:0:0:0:
359,341,29436,6,0,P|309:331|276:324,1,80,2|10,1:3|0:0,0:0:0:0:
207,357,30102,2,0,P|157:347|124:340,1,80,2|8,0:0|0:0,0:0:0:0:
95,318,30602,1,0,1:0:0:0:
95,277,30769,1,2,1:3:0:0:
174,267,31102,2,0,P|173:205|174:125,1,120,8|2,0:0|1:2,0:0:0:0:
141,122,31769,2,0,P|105:126|74:127,1,40,8|10,0:0|1:2,0:0:0:0:
64,141,32102,6,0,P|36:106|31:41,1,80,4|8,1:0|0:0,0:0:0:0:
92,25,32769,2,0,L|135:31,1,40,2|0,0:0|1:0,0:0:0:0:
172,19,33102,1,8,0:0:0:0:
172,19,33269,1,0,1:0:0:0:
172,19,33436,2,0,P|190:72|198:122,1,80,2|8,1:3|0:0,0:0:0:0:
257,144,34102,2,0,P|239:197|231:247,1,80,2|10,0:0|0:0,0:0:0:0:
208,251,34602,1,0,1:0:0:0:
224,287,34769,5,2,1:3:0:0:
285,338,35102,2,0,L|375:323,2,80,8|0|8,0:0|0:0|0:0,0:0:0:0:
246,349,35936,1,2,1:2:0:0:
246,349,36102,2,0,P|200:355|146:248,1,160,2|0,1:3|0:0,0:0:0:0:
114,240,36936,1,2,1:2:0:0:
114,240,37102,2,0,L|121:191,1,40,8|0,0:0|1:0,0:0:0:0:
155,181,37436,6,0,P|154:138|109:94,1,80,4|8,1:0|0:0,0:0:0:0:
57,130,38102,2,0,P|35:163|35:202,1,80,2|8,0:0|0:0,0:0:0:0:
29,242,38602,1,2,1:2:0:0:
30,282,38769,2,0,L|119:275,1,80,2|8,1:3|0:0,0:0:0:0:
171,224,39436,2,0,L|229:232,1,40,0|2,0:0|1:2,0:0:0:0:
238,258,39769,1,8,0:0:0:0:
238,258,39936,1,2,1:2:0:0:
238,258,40102,6,0,P|280:251|321:209,1,80,2|10,1:3|0:0,0:0:0:0:
337,153,40769,2,0,L|392:162,1,40,2|2,0:0|1:2,0:0:0:0:
413,193,41102,1,8,0:0:0:0:
413,193,41269,1,0,1:0:0:0:
413,193,41436,1,2,1:3:0:0:
486,162,41769,1,2,1:3:0:0:
449,90,42102,1,2,1:3:0:0:
376,123,42436,2,0,L|336:116,1,40,2|2,1:3|1:3,0:0:0:0:
309,87,42769,6,0,P|248:102|195:195,1,160,6|2,1:0|0:1,0:0:0:0:
158,191,43602,1,2,1:0:0:0:
158,191,43769,2,0,L|167:242,1,40,8|2,0:0|1:1,0:0:0:0:
190,261,44102,1,2,1:3:0:0:
139,323,44436,1,8,1:2:0:0:
68,284,44769,2,0,L|79:227,1,40,2|0,1:1|1:0,0:0:0:0:
51,212,45102,1,8,0:0:0:0:
14,140,45436,6,0,P|29:92|41:42,1,80,2|8,1:3|0:0,0:0:0:0:
80,67,45936,1,2,1:1:0:0:
80,67,46102,2,0,P|130:68|174:62,1,80,2|8,0:1|0:0,0:0:0:0:
225,18,46769,2,0,P|266:39|400:82,1,160,2|4,1:3|0:0,0:0:0:0:
413,70,47602,1,0,1:2:0:0:
413,70,47769,2,0,L|425:116,1,40,12|4,0:0|1:2,0:0:0:0:
451,136,48102,6,0,P|440:193|421:243,1,80,6|8,1:1|0:0,0:0:0:0:
353,225,48769,2,0,P|371:292|386:335,1,80,2|8,0:1|0:0,0:0:0:0:
346,331,49269,1,2,1:0:0:0:
346,331,49436,2,0,L|293:324,1,40,2|0,1:3|1:0,0:0:0:0:
287,290,49769,2,0,P|223:305|173:317,1,80,8|2,1:2|0:1,0:0:0:0:
177,333,50269,1,0,1:2:0:0:
177,333,50436,1,8,0:0:0:0:
100,309,50769,6,0,P|112:262|132:201,1,80,2|8,1:3|1:2,0:0:0:0:
195,202,51436,2,0,L|190:160,1,40,2|2,1:1|1:0,0:0:0:0:
205,125,51769,1,8,0:0:0:0:
165,55,52102,2,0,P|105:71|68:98,2,80,2|8|4,1:3|0:0|0:0,0:0:0:0:
199,33,52936,1,0,1:2:0:0:
199,33,53102,1,12,0:0:0:0:
256,88,53436,6,0,L|368:74,1,80,6|8,1:0|1:2,0:0:0:0:
368,55,53936,1,2,1:1:0:0:
368,55,54102,2,0,L|412:73,1,40,2|2,0:1|1:0,0:0:0:0:
445,68,54436,1,8,0:0:0:0:
475,141,54769,2,0,P|449:192|437:235,1,80,2|8,1:3|1:2,0:0:0:0:
402,221,55269,1,2,1:1:0:0:
365,237,55436,2,0,P|391:288|403:331,1,80,2|8,1:1|0:0,0:0:0:0:
324,340,56102,6,0,L|227:323,1,80,2|8,1:3|0:0,0:0:0:0:
222,293,56602,1,2,1:1:0:0:
222,293,56769,2,0,L|171:301,1,40,2|0,0:1|1:2,0:0:0:0:
147,318,57102,1,8,0:0:0:0:
68,335,57436,2,0,P|72:288|71:172,1,160,2|4,1:3|0:0,0:0:0:0:
93,142,58269,1,0,1:2:0:0:
93,142,58436,1,12,0:0:0:0:
159,98,58769,6,0,L|216:106,1,40,6|2,1:1|1:1,0:0:0:0:
233,123,59102,2,0,P|229:194|236:228,2,80,8|2|8,0:0|0:1|0:0,0:0:0:0:
253,88,59936,1,2,1:0:0:0:
251,48,60102,2,0,P|206:35|161:37,1,80,2|8,1:3|1:2,0:0:0:0:
93,28,60769,2,0,P|84:73|81:114,1,80,2|8,0:1|0:0,0:0:0:0:
51,133,61269,1,2,1:0:0:0:
70,167,61436,5,2,1:3:0:0:
96,242,61769,2,0,L|160:235,1,40,8|2,1:2|0:1,0:0:0:0:
163,209,62102,2,0,L|219:218,1,40,2|2,1:1|1:0,0:0:0:0:
238,233,62436,1,8,0:0:0:0:
302,186,62769,2,0,P|369:203|404:212,1,80,2|8,1:3|0:0,0:0:0:0:
455,232,63436,2,0,P|472:192|422:78,1,160,4|4,0:0|1:0,0:0:0:0:
356,101,64436,5,8,0:0:0:0:
293,50,64769,2,0,L|200:64,1,80,0|8,0:0|0:0,0:0:0:0:
175,49,65269,1,0,1:0:0:0:
138,64,65436,2,0,P|100:105|88:147,1,80,2|8,1:3|0:0,0:0:0:0:
24,170,66102,1,0,0:0:0:0:
24,170,66269,1,0,1:0:0:0:
24,170,66436,2,0,L|29:232,1,40,8|0,0:0|1:0,0:0:0:0:
15,248,66769,5,2,1:3:0:0:
83,289,67102,2,0,P|59:340|54:362,2,80,8|0|8,0:0|0:0|0:0,0:0:0:0:
116,266,67936,1,0,1:0:0:0:
151,248,68102,2,0,P|165:199|176:146,1,80,2|8,1:3|0:0,0:0:0:0:
197,94,68769,2,0,P|235:103|260:108,1,40,0|0,0:0|1:2,0:0:0:0:
266,128,69102,1,8,0:0:0:0:
304,116,69269,1,0,1:0:0:0:
342,103,69436,6,0,P|352:154|359:193,1,80,4|8,1:0|0:0,0:0:0:0:
405,257,70102,1,0,0:0:0:0:
405,257,70269,1,0,1:2:0:0:
405,257,70436,2,0,L|376:299,1,40,8|0,0:0|1:2,0:0:0:0:
360,323,70769,2,0,P|317:318|279:293,2,80,2|8|0,1:3|0:0|0:0,0:0:0:0:
386,352,71602,1,0,1:2:0:0:
386,352,71769,1,8,0:0:0:0:
459,319,72102,6,0,P|458:259|458:215,1,80,2|8,1:3|0:0,0:0:0:0:
432,208,72602,1,0,0:0:0:0:
432,208,72769,2,0,P|432:157|433:145,1,40,0|0,0:0|1:2,0:0:0:0:
399,143,73102,2,0,P|399:92|398:80,1,40,8|0,0:0|1:0,0:0:0:0:
417,66,73436,1,2,1:3:0:0:
341,38,73769,1,8,0:0:0:0:
280,90,74102,1,0,0:0:0:0:
280,90,74269,1,0,1:2:0:0:
280,90,74436,2,0,P|231:87|206:83,1,40,8|8,0:0|1:2,0:0:0:0:
211,59,74769,5,4,1:0:0:0:
143,101,75102,1,10,0:0:0:0:
143,101,75269,1,2,0:0:0:0:
143,101,75436,2,0,L|152:162,1,40,0|2,0:0|1:2,0:0:0:0:
127,174,75769,1,12,0:0:0:0:
111,252,76102,2,0,L|120:311,2,40,2|2|8,1:3|0:0|0:0,0:0:0:0:
189,234,76769,2,0,L|238:242,1,40,0|0,0:0|1:0,0:0:0:0:
262,218,77102,1,8,0:0:0:0:
330,177,77436,5,2,1:3:0:0:
407,222,77769,1,10,0:0:0:0:
407,222,77936,1,2,0:0:0:0:
407,222,78102,2,0,L|420:161,1,40,0|2,0:0|1:2,0:0:0:0:
451,164,78436,1,12,0:0:0:0:
414,92,78769,2,0,L|401:31,2,40,2|2|8,1:3|0:0|0:0,0:0:0:0:
342,128,79436,2,0,L|299:121,1,40,0|0,0:0|1:2,0:0:0:0:
267,101,79769,1,8,0:0:0:0:
191,75,80102,6,0,P|146:104|123:141,1,80,0|10,1:3|0:0,0:0:0:0:
90,127,80602,1,2,0:0:0:0:
57,150,80769,2,0,L|73:202,1,40,0|2,0:0|1:2,0:0:0:0:
40,216,81102,1,12,0:0:0:0:
72,289,81436,2,0,L|149:301,1,40,2|2,1:3|0:0,0:0:0:0:
146,275,81769,1,8,0:0:0:0:
214,333,82102,1,0,0:0:0:0:
214,333,82269,1,0,1:2:0:0:
214,333,82436,2,0,L|253:326,1,40,8|2,0:0|1:2,0:0:0:0:
270,290,82769,6,0,P|331:303|365:303,1,80,2|10,1:3|0:0,0:0:0:0:
386,314,83269,1,2,0:0:0:0:
424,303,83436,2,0,P|446:263|448:249,1,40,2|2,0:0|1:2,0:0:0:0:
432,230,83769,1,12,0:0:0:0:
485,170,84102,2,0,P|472:136|468:114,1,40,2|2,1:3|0:0,0:0:0:0:
474,92,84436,1,10,0:0:0:0:
412,40,84769,2,0,L|360:50,1,40,2|2,0:0|1:2,0:0:0:0:
342,74,85102,2,0,L|290:84,1,40,12|10,0:0|1:2,0:0:0:0:
283,117,85436,5,2,0:3:0:0:
169,96,85936,1,2,0:0:0:0:
169,96,86102,1,4,0:0:0:0:
156,178,86436,1,2,0:0:0:0:
156,178,86602,1,4,0:0:0:0:
270,212,87102,2,0,P|258:300|254:346,1,120,2|2,0:1|0:1,0:0:0:0:
135,331,88102,5,2,0:3:0:0:
153,215,88602,1,2,0:0:0:0:
153,215,88769,1,4,0:0:0:0:
236,228,89102,1,2,0:0:0:0:
236,228,89269,1,4,0:0:0:0:
354,248,89769,2,0,P|366:160|368:113,1,120,2|2,0:1|0:1,0:0:0:0:
259,78,90769,5,2,0:3:0:0:
183,50,91102,1,2,0:0:0:0:
183,50,91269,1,2,0:0:0:0:
183,50,91436,2,0,P|136:62|97:68,1,80,6|2,0:0|0:0,0:0:0:0:
25,59,92102,2,0,P|28:117|26:163,1,80,2|2,0:3|0:1,0:0:0:0:
82,197,92769,1,0,0:0:0:0:
48,269,93102,1,2,0:0:0:0:
256,192,93436,12,2,94769,2:0:0:0:
426,197,95602,5,0,1:0:0:0:
426,197,95769,2,0,L|380:207,1,40,8|0,0:0|1:0,0:0:0:0:
355,229,96102,6,0,P|318:207|281:154,1,80,6|8,1:0|1:2,0:0:0:0:
296,139,96602,1,2,1:1:0:0:
265,113,96769,2,0,L|226:121,1,40,2|2,0:1|1:0,0:0:0:0:
185,118,97102,1,8,0:0:0:0:
104,122,97436,2,0,P|120:185|125:234,1,80,2|8,1:3|1:2,0:0:0:0:
184,264,98102,1,2,1:1:0:0:
184,264,98269,1,0,1:0:0:0:
184,264,98436,2,0,L|170:305,1,40,8|2,0:0|1:0,0:0:0:0:
178,341,98769,6,0,P|221:337|281:316,2,80,2|8|2,1:3|0:0|0:1,0:0:0:0:
105,372,99769,2,0,L|56:361,1,40,8|2,0:0|1:1,0:0:0:0:
32,340,100102,2,0,P|38:291|40:224,1,80,2|8,1:3|1:2,0:0:0:0:
101,209,100769,1,4,0:0:0:0:
101,209,100936,1,0,1:2:0:0:
101,209,101102,2,0,L|92:163,1,40,12|4,0:0|1:2,0:0:0:0:
71,136,101436,6,0,P|85:87|93:31,2,80,6|8|2,1:1|0:0|0:1,0:0:0:0:
34,152,102269,1,0,1:2:0:0:
34,152,102436,1,8,0:0:0:0:
60,227,102769,2,0,L|148:215,1,80,2|8,1:3|1:2,0:0:0:0:
195,158,103436,2,0,L|246:173,1,40,2|0,0:1|1:2,0:0:0:0:
256,202,103769,1,8,0:0:0:0:
329,232,104102,6,0,P|366:211|391:178,1,80,2|8,1:3|1:2,0:0:0:0:
448,128,104769,1,2,1:1:0:0:
386,76,105102,1,8,0:0:0:0:
332,131,105436,2,0,P|289:116|236:108,2,80,2|8|4,1:3|0:0|0:0,0:0:0:0:
334,171,106269,1,0,1:2:0:0:
351,207,106436,2,0,L|344:264,1,40,12|12,0:0|1:2,0:0:0:0:
361,283,106769,6,0,P|321:311|258:319,1,80,6|8,1:0|1:2,0:0:0:0:
230,266,107436,2,0,L|163:258,1,40,2|2,0:1|1:0,0:0:0:0:
151,270,107769,1,8,0:0:0:0:
81,231,108102,2,0,P|88:179|86:126,2,80,2|8|2,1:3|1:2|1:1,0:0:0:0:
43,244,108936,1,0,1:0:0:0:
43,283,109102,1,8,0:0:0:0:
110,326,109436,6,0,L|203:306,1,80,2|8,1:3|0:0,0:0:0:0:
214,278,109936,1,2,1:1:0:0:
251,264,110102,2,0,L|301:277,1,40,2|0,0:1|1:2,0:0:0:0:
328,264,110436,1,8,0:0:0:0:
401,295,110769,2,0,P|430:244|390:142,1,160,2|4,1:3|0:0,0:0:0:0:
370,127,111602,1,0,1:2:0:0:
329,124,111769,2,0,L|336:71,1,40,12|4,0:0|1:2,0:0:0:0:
308,53,112102,6,0,P|251:61|211:97,1,80,6|8,1:1|0:0,0:0:0:0:
207,148,112769,1,2,0:1:0:0:
207,148,112936,1,0,1:2:0:0:
207,148,113102,2,0,L|149:151,1,40,8|2,0:0|1:0,0:0:0:0:
128,162,113436,2,0,P|86:123|85:67,2,80,2|8|2,1:3|1:2|0:1,0:0:0:0:
132,201,114269,1,0,1:2:0:0:
157,231,114436,1,8,0:0:0:0:
229,197,114769,6,0,P|279:176|316:125,1,80,2|8,1:3|1:2,0:0:0:0:
365,117,115436,2,0,L|349:70,1,40,2|2,1:1|1:0,0:0:0:0:
324,50,115769,1,8,0:0:0:0:
393,9,116102,2,0,L|475:37,1,80,2|8,1:3|0:0,0:0:0:0:
460,114,116769,1,4,0:0:0:0:
460,114,116936,1,0,1:2:0:0:
460,114,117102,2,0,L|449:165,1,40,12|12,0:0|1:2,0:0:0:0:
420,178,117436,6,0,P|434:222|450:279,1,80,6|8,1:0|1:2,0:0:0:0:
474,280,117936,1,2,1:1:0:0:
496,312,118102,2,0,L|480:362,1,40,2|2,0:1|1:0,0:0:0:0:
458,381,118436,1,8,0:0:0:0:
380,360,118769,6,0,P|319:336|293:305,1,80,2|8,1:3|1:2,0:0:0:0:
256,266,119436,2,0,L|210:270,1,40,2|0,1:1|1:0,0:0:0:0:
188,298,119769,1,8,0:0:0:0:
119,256,120102,2,0,P|39:273|12:290,2,80,2|8|2,1:3|0:0|0:1,0:0:0:0:
148,228,120936,1,0,1:2:0:0:
168,193,121102,1,8,0:0:0:0:
121,127,121436,6,0,P|130:70|221:20,1,160,2|4,1:3|0:0,0:0:0:0:
246,39,122269,1,0,1:2:0:0:
279,60,122436,2,0,L|334:47,1,40,12|4,0:0|1:2,0:0:0:0:
352,70,122769,2,0,L|460:45,2,80,6|8|2,1:1|0:0|0:1,0:0:0:0:
339,107,123602,1,0,1:2:0:0:
359,141,123769,1,8,0:0:0:0:
432,171,124102,6,0,P|426:220|416:272,1,80,2|8,1:3|1:2,0:0:0:0:
343,272,124769,2,0,L|353:339,1,40,2|0,0:1|1:2,0:0:0:0:
327,345,125102,1,8,0:0:0:0:
249,322,125436,2,0,P|208:286|190:237,1,80,2|8,1:3|1:2,0:0:0:0:
213,227,125936,1,2,1:1:0:0:
200,189,126102,2,0,L|146:196,1,40,2|2,1:1|1:0,0:0:0:0:
122,180,126436,1,8,0:0:0:0:
59,129,126769,6,0,P|80:89|136:60,2,80,2|8|4,1:3|0:0|0:0,0:0:0:0:
31,157,127602,1,0,1:2:0:0:
37,196,127769,1,12,0:0:0:0:
30,235,127936,1,12,1:2:0:0:
36,274,128102,6,0,P|88:281|144:289,1,80,6|8,1:0|1:2,0:0:0:0:
188,251,128769,2,0,L|242:264,1,40,2|2,0:1|1:0,0:0:0:0:
254,289,129102,1,8,0:0:0:0:
334,285,129436,2,0,P|336:237|329:171,2,80,2|8|2,1:3|1:2|1:1,0:0:0:0:
328,326,130269,1,0,1:0:0:0:
355,355,130436,2,0,L|421:371,1,40,8|2,0:0|1:0,0:0:0:0:
431,351,130769,6,0,P|467:341|503:311,1,80,2|8,1:3|0:0,0:0:0:0:
467,241,131436,2,0,L|444:160,1,80,2|8,0:1|0:0,0:0:0:0:
460,127,131936,1,2,1:1:0:0:
460,127,132102,1,2,1:3:0:0:
392,84,132436,2,0,L|291:102,1,80,8|4,1:2|0:0,0:0:0:0:
292,132,132936,1,0,1:2:0:0:
292,132,133102,1,12,0:0:0:0:
231,78,133436,6,0,L|140:99,2,80,6|8|2,1:1|0:0|0:1,0:0:0:0:
245,40,134269,1,0,1:2:0:0:
245,40,134436,1,8,0:0:0:0:
167,19,134769,2,0,L|71:40,1,80,2|8,1:3|1:2,0:0:0:0:
9,24,135436,1,2,0:1:0:0:
9,103,135769,2,0,L|25:152,1,40,8|2,0:0|1:0,0:0:0:0:
59,153,136102,6,0,P|58:229|52:268,1,80,2|8,1:3|1:2,0:0:0:0:
32,264,136602,1,2,0:1:0:0:
41,302,136769,1,2,1:0:0:0:
111,337,137102,1,8,0:0:0:0:
183,301,137436,2,0,P|198:273|209:221,1,80,2|8,1:3|0:0,0:0:0:0:
196,155,138102,1,4,0:0:0:0:
196,155,138269,1,0,1:2:0:0:
196,155,138436,2,0,L|207:106,1,40,12|4,0:0|1:2,0:0:0:0:
182,82,138769,1,4,1:0:0:0:
