osu file format v14

[General]
AudioFilename: audio.mp3
AudioLeadIn: 0
PreviewTime: 42769
Countdown: 0
SampleSet: Soft
StackLeniency: 0.7
Mode: 0
LetterboxInBreaks: 0
WidescreenStoryboard: 0

[Editor]
Bookmarks: 21440,32106,42773,53440,64106,74773,85440,96106,106773,117440,128106,138773
DistanceSpacing: 1.2
BeatDivisor: 4
GridSize: 4
TimelineZoom: 1

[Metadata]
Title:timer
TitleUnicode:timer
Artist:Kola Kid
ArtistUnicode:Kola Kid
Creator:Mirash
Version:Hard
Source:
Tags:8bit Cash Machine Go! dance electronic chiptune
BeatmapID:2277127
BeatmapSetID:1089084

[Difficulty]
HPDrainRate:5
CircleSize:4
OverallDifficulty:6
ApproachRate:7
SliderMultiplier:1.2
SliderTickRate:1

[Events]
//Background and Video events
0,0,"f565f959387203.5a20286dbfca6.jpg",0,0
//Break Periods
//Storyboard Layer 0 (Background)
//Storyboard Layer 1 (Fail)
//Storyboard Layer 2 (Pass)
//Storyboard Layer 3 (Foreground)
//Storyboard Layer 4 (Overlay)
//Storyboard Sound Samples

[TimingPoints]
103,333.333333333333,4,2,1,50,1,0
21436,-100,4,2,1,60,0,0
42769,-100,4,2,1,70,0,0
64102,-100,4,2,1,50,0,0
74769,-100,4,2,1,60,0,0
85436,-100,4,2,1,40,0,0
91436,-133.333333333333,4,2,1,40,0,0
95602,-133.333333333333,4,2,1,50,0,0
95769,-100,4,2,1,50,0,0
96102,-100,4,2,1,70,0,0

[Colours]
Combo1 : 255,94,55
Combo2 : 173,255,95
Combo3 : 17,254,176
Combo4 : 255,88,100

[HitObjects]
71,91,20936,5,0,1:0:0:0:
117,145,21102,1,8,0:0:0:0:
177,97,21269,1,0,1:0:0:0:
225,150,21436,6,0,P|223:212|226:291,1,120,4|8,1:0|0:0,0:0:0:0:
287,323,21936,1,2,0:0:0:0:
287,323,22019,1,2,0:0:0:0:
287,323,22102,2,0,P|342:318|365:317,1,60,0|0,0:0|1:0,0:0:0:0:
403,272,22436,2,0,P|398:217|397:194,1,60,8|0,0:0|1:0,0:0:0:0:
334,176,22769,5,2,1:3:0:0:
383,123,22936,1,2,0:0:0:0:
359,55,23102,2,0,P|313:63|180:87,1,180,8|0,0:0|1:0,0:0:0:0:
125,41,23769,2,0,P|75:58|50:62,1,60,10|0,0:0|1:0,0:0:0:0:
34,123,24102,6,0,P|54:179|62:202,1,60,2|0,1:3|0:0,0:0:0:0:
118,213,24436,1,8,0:0:0:0:
133,282,24602,2,0,P|113:338|105:361,2,60,2|0|2,0:0|0:0|1:2,0:0:0:0:
200,257,25102,2,0,P|235:254|271:250,1,60,8|2,0:0|1:2,0:0:0:0:
297,189,25436,6,0,P|356:207|423:254,2,120,2|8|0,1:3|0:0|0:0,0:0:0:0:
254,130,26269,2,0,P|210:117|175:109,2,60,2|8|0,1:2|0:0|1:2,0:0:0:0:
323,111,26769,6,0,P|364:108|458:91,1,120,4|8,1:0|0:0,0:0:0:0:
499,154,27269,1,2,0:0:0:0:
499,154,27352,1,2,0:0:0:0:
499,154,27436,2,0,P|488:199|482:234,1,60,0|2,0:0|1:2,0:0:0:0:
413,218,27769,1,8,0:0:0:0:
424,289,27936,1,2,1:2:0:0:
409,359,28102,6,0,P|357:339|280:323,2,120,2|8|0,1:3|0:0|0:0,0:0:0:0:
424,289,28936,1,2,1:2:0:0:
357,262,29102,2,0,P|316:255|274:246,1,60,8|2,0:0|1:2,0:0:0:0:
234,286,29436,6,0,P|215:244|220:161,1,120,2|10,1:3|0:0,0:0:0:0:
269,122,29936,1,2,0:0:0:0:
269,122,30019,1,2,0:0:0:0:
269,122,30102,2,0,P|270:79|271:45,1,60,0|2,0:0|1:2,0:0:0:0:
214,15,30436,1,8,0:0:0:0:
214,15,30602,1,0,1:0:0:0:
143,28,30769,5,2,1:3:0:0:
40,128,31102,1,8,0:0:0:0:
147,224,31436,1,0,0:0:0:0:
147,224,31602,1,2,1:2:0:0:
147,224,31769,2,0,P|199:215|229:209,1,60,8|10,0:0|1:2,0:0:0:0:
258,164,32102,5,4,1:0:0:0:
315,207,32269,1,0,0:0:0:0:
369,160,32436,2,0,P|427:168|491:177,1,120,8|0,0:0|0:0,0:0:0:0:
499,105,32936,1,0,1:0:0:0:
428,92,33102,2,0,P|381:87|353:85,1,60,8|0,0:0|1:0,0:0:0:0:
309,44,33436,5,2,1:3:0:0:
261,97,33602,1,2,0:0:0:0:
261,97,33686,1,2,0:0:0:0:
261,97,33769,2,0,P|261:143|263:228,1,120,8|0,0:0|0:0,0:0:0:0:
217,273,34269,1,2,1:2:0:0:
250,336,34436,2,0,P|298:323|322:319,1,60,10|0,0:0|1:0,0:0:0:0:
376,342,34769,6,0,P|427:353|502:377,1,120,2|8,1:3|0:0,0:0:0:0:
504,302,35269,1,2,0:0:0:0:
455,248,35436,2,0,P|467:196|470:178,1,60,0|2,0:0|1:2,0:0:0:0:
420,134,35769,1,8,0:0:0:0:
420,134,35936,1,2,1:2:0:0:
366,182,36102,6,0,P|301:197|275:260,2,120,2|8|0,1:3|0:0|0:0,0:0:0:0:
420,134,36936,1,2,1:2:0:0:
358,97,37102,2,0,P|357:57|355:20,1,60,8|0,0:0|1:0,0:0:0:0:
287,12,37436,5,4,1:0:0:0:
217,27,37602,1,0,0:0:0:0:
149,53,37769,2,0,P|147:82|147:112,1,60,8|2,0:0|0:0,0:0:0:0:
148,185,38102,1,0,0:0:0:0:
154,264,38269,1,2,1:2:0:0:
154,264,38352,1,2,0:0:0:0:
154,264,38436,2,0,P|90:273|69:278,1,60,8|2,0:0|1:2,0:0:0:0:
41,321,38769,6,0,P|21:280|28:199,2,120,2|8|0,1:3|0:0|0:0,0:0:0:0:
95,368,39602,2,0,L|162:353,1,60,2|8,1:2|0:0,0:0:0:0:
210,310,39936,1,2,1:2:0:0:
266,265,40102,6,0,L|341:283,2,60,2|0|10,1:3|0:0|0:0,0:0:0:0:
226,204,40602,1,2,0:0:0:0:
183,145,40769,2,0,L|108:163,1,60,0|2,0:0|1:2,0:0:0:0:
77,213,41102,1,8,0:0:0:0:
16,172,41269,5,0,1:0:0:0:
16,172,41352,1,0,0:0:0:0:
16,172,41436,2,0,L|27:106,1,60,2|0,1:3|0:0,0:0:0:0:
70,56,41769,1,2,1:3:0:0:
183,144,42102,1,2,1:3:0:0:
253,128,42269,1,2,1:3:0:0:
323,112,42436,1,2,1:3:0:0:
339,119,42519,1,2,1:3:0:0:
355,126,42602,1,2,1:3:0:0:
424,106,42769,6,0,P|433:178|438:236,1,120,6|8,1:0|1:2,0:0:0:0:
375,262,43269,1,2,1:1:0:0:
368,333,43436,2,0,P|322:327|291:321,1,60,2|2,0:1|1:0,0:0:0:0:
254,276,43769,2,0,P|214:293|183:307,1,60,8|2,0:0|1:1,0:0:0:0:
130,321,44102,5,2,1:3:0:0:
66,287,44269,1,2,1:1:0:0:
76,215,44436,1,8,1:2:0:0:
147,190,44602,1,2,1:1:0:0:
147,190,44686,1,0,1:0:0:0:
147,190,44769,2,0,P|152:146|155:120,1,60,0|0,1:1|1:0,0:0:0:0:
115,69,45102,1,8,0:0:0:0:
152,7,45269,1,2,1:0:0:0:
218,35,45436,6,0,P|269:52|353:74,1,120,2|8,1:3|0:0,0:0:0:0:
404,59,45936,1,2,1:1:0:0:
447,116,46102,2,0,P|432:163|424:195,1,60,0|0,1:0|1:2,0:0:0:0:
372,218,46436,1,8,0:0:0:0:
400,283,46602,1,2,1:1:0:0:
450,334,46769,6,0,P|491:281|497:213,2,120,2|8|4,1:3|1:2|0:0,0:0:0:0:
385,365,47602,1,0,1:2:0:0:
385,365,47686,1,0,1:0:0:0:
385,365,47769,2,0,P|344:358|320:357,1,60,12|4,0:0|1:2,0:0:0:0:
254,368,48102,6,0,P|204:358|169:275,1,120,6|8,1:1|0:0,0:0:0:0:
215,248,48602,1,2,1:1:0:0:
215,248,48686,1,0,1:0:0:0:
215,248,48769,2,0,P|208:197|208:168,2,60,2|0|8,0:1|1:2|0:0,0:0:0:0:
283,269,49269,1,2,1:0:0:0:
338,222,49436,6,0,P|399:226|460:237,2,120,2|8|2,1:3|1:2|0:1,0:0:0:0:
287,170,50269,1,0,1:2:0:0:
324,108,50436,1,8,0:0:0:0:
390,135,50602,1,2,1:0:0:0:
458,113,50769,6,0,P|456:77|451:41,1,60,2|2,1:3|0:1,0:0:0:0:
390,16,51102,1,8,1:2:0:0:
321,38,51269,1,2,0:1:0:0:
321,38,51352,1,0,1:1:0:0:
321,38,51436,2,0,P|282:50|249:55,1,60,2|2,1:1|1:0,0:0:0:0:
217,108,51769,2,0,P|175:100|137:88,1,60,8|2,0:0|1:0,0:0:0:0:
92,67,52102,5,2,1:3:0:0:
68,135,52269,1,4,0:0:0:0:
134,163,52436,1,8,0:0:0:0:
208,194,52602,1,4,1:2:0:0:
208,194,52686,1,0,1:0:0:0:
208,194,52769,1,4,1:2:0:0:
176,258,52936,1,0,1:2:0:0:
108,233,53102,1,12,0:0:0:0:
41,206,53269,1,12,1:2:0:0:
30,277,53436,6,0,P|45:323|110:370,1,120,6|8,1:0|1:2,0:0:0:0:
147,313,53936,1,2,1:1:0:0:
217,324,54102,2,0,P|269:338|295:348,1,60,0|2,1:1|1:0,0:0:0:0:
341,367,54436,2,0,P|373:352|402:339,1,60,8|2,0:0|1:1,0:0:0:0:
425,276,54769,5,2,1:3:0:0:
490,246,54936,1,2,1:1:0:0:
459,181,55102,2,0,P|430:147|409:59,1,120,8|2,1:2|1:1,0:0:0:0:
359,22,55602,2,0,P|318:47|297:53,1,60,0|8,1:0|0:0,0:0:0:0:
246,10,55936,1,2,1:0:0:0:
201,66,56102,6,0,P|223:125|226:133,1,60,2|2,1:3|1:1,0:0:0:0:
279,167,56436,1,8,0:0:0:0:
258,240,56602,1,2,1:1:0:0:
258,240,56686,1,0,1:0:0:0:
258,240,56769,2,0,P|221:242|192:247,1,60,2|0,0:1|1:2,0:0:0:0:
136,209,57102,1,8,0:0:0:0:
79,253,57269,1,2,1:1:0:0:
40,191,57436,6,0,P|49:151|107:91,2,120,2|8|4,1:3|1:2|0:0,0:0:0:0:
34,262,58269,1,0,1:2:0:0:
83,314,58436,2,0,L|153:308,1,60,12|4,0:0|1:2,0:0:0:0:
198,262,58769,5,6,1:1:0:0:
260,315,58936,1,2,1:1:0:0:
260,315,59019,1,0,1:0:0:0:
260,315,59102,1,8,0:0:0:0:
314,267,59269,1,2,1:1:0:0:
259,219,59436,2,0,P|242:172|233:137,1,60,2|0,0:1|1:2,0:0:0:0:
190,108,59769,2,0,P|207:61|216:26,1,60,8|2,0:0|1:0,0:0:0:0:
271,14,60102,5,2,1:3:0:0:
326,75,60269,1,2,1:0:0:0:
326,75,60352,1,0,1:0:0:0:
326,75,60436,2,0,P|365:69|411:66,2,60,8|2|2,1:2|1:1|1:1,0:0:0:0:
301,143,60936,1,0,1:2:0:0:
351,193,61102,2,0,P|342:231|335:265,1,60,8|2,0:0|1:0,0:0:0:0:
289,305,61436,5,2,1:3:0:0:
338,356,61602,2,0,P|388:337|416:330,2,60,2|8|2,0:1|1:2|0:1,0:0:0:0:
269,379,62102,1,2,1:1:0:0:
211,335,62269,1,2,1:0:0:0:
156,287,62436,1,8,0:0:0:0:
85,302,62602,1,2,1:0:0:0:
25,260,62769,6,0,P|39:193|42:180,1,60,2|4,1:3|1:2,0:0:0:0:
105,178,63102,2,0,P|91:111|88:98,1,60,8|4,0:0|1:2,0:0:0:0:
48,61,63436,1,4,1:2:0:0:
110,26,63602,1,0,1:2:0:0:
110,26,63686,1,0,1:0:0:0:
110,26,63769,1,12,1:2:0:0:
159,78,63936,1,12,1:2:0:0:
217,36,64102,6,0,P|246:45|346:75,1,120,4|8,1:0|0:0,0:0:0:0:
340,142,64602,1,0,0:0:0:0:
355,212,64769,2,0,P|411:190|431:184,2,60,0|0|8,0:0|1:0|0:0,0:0:0:0:
312,270,65269,1,0,1:0:0:0:
248,235,65436,6,0,P|206:229|125:212,2,120,2|8|0,1:3|0:0|0:0,0:0:0:0:
312,270,66269,1,0,1:0:0:0:
324,341,66436,2,0,P|365:331|394:318,1,60,8|0,0:0|1:0,0:0:0:0:
450,346,66769,6,8,P|451:315|449:211,1,120,2|8,1:3|0:0,0:0:0:0:
411,165,67269,1,0,0:0:0:0:
477,136,67436,2,0,P|466:83|463:55,1,60,0|0,0:0|1:2,0:0:0:0:
396,55,67769,1,8,0:0:0:0:
396,55,67936,1,0,1:0:0:0:
332,22,68102,6,0,P|269:41|201:68,2,120,2|8|0,1:3|0:0|0:0,0:0:0:0:
396,55,68936,1,0,1:2:0:0:
368,121,69102,2,0,P|363:151|360:184,1,60,8|0,0:0|1:0,0:0:0:0:
318,239,69436,6,0,P|335:286|344:313,2,60,4|0|8,1:0|0:0|0:0,0:0:0:0:
248,218,69936,1,0,0:0:0:0:
190,174,70102,2,0,P|157:212|138:233,2,60,0|0|8,0:0|1:2|0:0,0:0:0:0:
174,103,70602,1,0,1:2:0:0:
169,30,70769,6,0,P|121:33|58:97,2,120,2|8|0,1:3|0:0|0:0,0:0:0:0:
232,64,71602,1,0,1:2:0:0:
286,111,71769,2,0,P|331:101|370:95,1,60,8|0,0:0|1:2,0:0:0:0:
402,54,72102,5,2,1:3:0:0:
469,79,72269,1,0,0:0:0:0:
453,149,72436,2,0,P|456:184|468:228,2,60,8|0|0,0:0|0:0|0:0,0:0:0:0:
383,129,72936,1,0,1:2:0:0:
354,195,73102,2,0,P|308:199|273:198,1,60,8|0,0:0|1:0,0:0:0:0:
256,260,73436,6,0,P|201:254|115:231,2,120,2|8|0,1:3|0:0|0:0,0:0:0:0:
292,322,74269,1,0,1:2:0:0:
362,307,74436,1,8,0:0:0:0:
430,327,74602,1,8,1:2:0:0:
500,313,74769,5,4,1:0:0:0:
428,188,75102,1,10,0:0:0:0:
428,188,75269,1,2,0:0:0:0:
428,188,75436,2,0,P|431:147|428:106,1,60,0|2,0:0|1:2,0:0:0:0:
361,108,75769,2,0,P|358:67|361:26,1,60,12|2,0:0|1:2,0:0:0:0:
292,18,76102,6,0,P|244:34|221:41,2,60,2|2|8,1:3|0:0|0:0,0:0:0:0:
358,48,76602,1,0,1:0:0:0:
423,19,76769,2,0,P|471:35|494:42,3,60,0|0|8|2,1:0|1:0|0:0|1:2,0:0:0:0:
491,108,77436,5,2,1:3:0:0:
379,199,77769,1,10,0:0:0:0:
379,199,77936,1,2,0:0:0:0:
379,199,78102,2,0,P|326:199|299:203,1,60,0|2,0:0|1:2,0:0:0:0:
256,236,78436,2,0,P|203:236|176:232,1,60,12|2,0:0|1:2,0:0:0:0:
139,191,78769,6,0,P|152:153|160:113,2,60,2|2|8,1:3|0:0|0:0,0:0:0:0:
83,237,79269,1,0,1:0:0:0:
26,281,79436,2,0,P|33:310|43:338,3,60,0|0|8|2,1:0|1:2|0:0|1:2,0:0:0:0:
114,352,80102,5,0,1:3:0:0:
209,243,80436,1,10,0:0:0:0:
209,243,80602,1,2,0:0:0:0:
209,243,80769,2,0,P|248:250|280:257,1,60,0|2,0:0|1:2,0:0:0:0:
310,312,81102,1,12,0:0:0:0:
378,290,81269,1,2,1:2:0:0:
422,233,81436,6,0,P|411:189|406:155,2,60,2|2|8,1:3|0:0|0:0,0:0:0:0:
487,263,81936,1,0,1:0:0:0:
444,320,82102,2,0,P|438:349|430:378,2,60,0|0|8,1:0|1:2|0:0,0:0:0:0:
378,290,82602,1,2,1:2:0:0:
357,359,82769,5,2,1:3:0:0:
259,253,83102,1,10,0:0:0:0:
259,253,83269,1,2,0:0:0:0:
259,253,83436,2,0,P|261:199|259:168,1,60,2|2,0:0|1:2,0:0:0:0:
195,161,83769,1,12,0:0:0:0:
210,90,83936,1,6,1:2:0:0:
269,50,84102,6,0,P|306:67|334:78,2,60,2|2|10,1:3|0:0|0:0,0:0:0:0:
208,10,84602,1,6,0:0:0:0:
148,50,84769,2,0,P|111:67|83:78,1,60,2|2,0:0|1:2,0:0:0:0:
22,90,85102,2,0,P|18:130|13:160,1,60,12|10,0:0|1:2,0:0:0:0:
11,222,85436,5,2,0:3:0:0:
134,304,85936,1,2,0:0:0:0:
134,304,86102,1,4,0:0:0:0:
196,231,86436,1,2,0:0:0:0:
196,231,86602,1,4,0:0:0:0:
327,290,87102,1,2,0:1:0:0:
432,191,87602,1,2,0:1:0:0:
471,329,88102,5,2,0:3:0:0:
348,247,88602,1,2,0:0:0:0:
348,247,88769,1,4,0:0:0:0:
286,320,89102,1,2,0:0:0:0:
286,320,89269,1,4,0:0:0:0:
155,261,89769,1,2,0:1:0:0:
50,360,90269,1,2,0:1:0:0:
10,221,90769,5,2,0:3:0:0:
98,184,91102,1,2,0:0:0:0:
98,184,91269,1,2,0:0:0:0:
98,184,91436,2,0,L|150:197,2,45.0000017166138,6|0|2,0:0|0:0|0:0,0:0:0:0:
98,147,91936,1,4,0:0:0:0:
100,111,92102,6,0,L|48:124,2,45.0000017166138,2|2|2,0:3|0:0|0:1,0:0:0:0:
109,76,92602,1,2,0:0:0:0:
116,40,92769,2,0,L|176:55,1,45.0000017166138,0|2,0:0|0:1,0:0:0:0:
194,42,93102,1,2,0:0:0:0:
257,76,93436,6,0,P|250:128|235:220,2,135.000005149841,2|0|0,0:1|3:0|3:0,0:0:0:0:
355,31,94769,6,0,L|352:6,2,22.5000008583069,2|0|0,0:0|0:0|0:0,0:0:0:0:
409,39,95102,6,0,L|406:16,2,22.5000008583069,2|0|0,0:0|0:0|0:0,0:0:0:0:
462,49,95436,6,0,P|464:97|466:111,1,45.0000017166138,2|0,0:0|1:0,0:0:0:0:
405,136,95769,1,8,0:0:0:0:
463,177,95936,1,0,1:0:0:0:
471,248,96102,6,0,P|428:261|343:288,1,120,6|8,1:0|1:2,0:0:0:0:
291,251,96602,1,2,1:1:0:0:
291,251,96686,1,0,1:0:0:0:
291,251,96769,2,0,P|297:207|299:174,1,60,2|2,0:1|1:0,0:0:0:0:
243,144,97102,1,8,0:0:0:0:
243,144,97269,1,2,1:1:0:0:
191,194,97436,6,0,P|130:211|62:222,2,120,2|8|2,1:3|1:2|1:1,0:0:0:0:
170,124,98269,1,0,1:0:0:0:
194,56,98436,1,8,0:0:0:0:
264,70,98602,1,2,1:0:0:0:
256,141,98769,6,0,P|266:207|280:280,1,120,2|8,1:3|0:0,0:0:0:0:
338,312,99269,1,0,1:1:0:0:
338,312,99352,1,0,1:1:0:0:
338,312,99436,1,2,0:1:0:0:
390,263,99602,1,0,1:2:0:0:
351,202,99769,2,0,P|344:158|339:133,1,60,8|2,0:0|1:1,0:0:0:0:
328,71,100102,6,0,P|382:73|461:82,2,120,2|8|4,1:3|1:2|1:2,0:0:0:0:
290,8,100936,1,0,1:2:0:0:
238,57,101102,2,0,P|186:70|163:76,1,60,12|4,0:0|1:2,0:0:0:0:
114,40,101436,5,6,1:1:0:0:
60,87,101602,1,2,1:1:0:0:
60,87,101686,1,0,1:0:0:0:
60,87,101769,2,0,P|62:133|63:154,1,60,8|2,0:0|1:1,0:0:0:0:
112,199,102102,1,2,0:1:0:0:
93,268,102269,1,0,1:2:0:0:
128,331,102436,2,0,P|165:312|197:301,1,60,8|2,0:0|1:0,0:0:0:0:
222,245,102769,6,0,P|274:265|349:281,2,120,2|8|2,1:3|1:2|1:1,0:0:0:0:
179,186,103602,1,0,1:2:0:0:
237,143,103769,2,0,P|243:106|245:68,1,60,8|2,0:0|1:0,0:0:0:0:
307,47,104102,5,2,1:3:0:0:
372,97,104269,1,2,1:1:0:0:
372,97,104352,1,0,1:0:0:0:
372,97,104436,1,8,1:2:0:0:
425,49,104602,1,2,1:1:0:0:
488,82,104769,2,0,P|475:137|472:164,1,60,0|2,1:1|1:0,0:0:0:0:
410,174,105102,2,0,P|423:229|426:256,1,60,8|2,0:0|1:0,0:0:0:0:
440,303,105436,5,2,1:3:0:0:
387,349,105602,1,4,0:0:0:0:
387,349,105686,1,0,1:0:0:0:
387,349,105769,1,8,0:0:0:0:
341,285,105936,2,0,P|291:296|221:306,1,120,4|0,1:2|1:2,0:0:0:0:
153,286,106436,1,12,0:0:0:0:
98,333,106602,1,12,1:2:0:0:
46,281,106769,6,0,P|61:218|76:148,1,120,6|8,1:0|1:2,0:0:0:0:
65,92,107269,1,2,1:1:0:0:
137,95,107436,1,2,0:1:0:0:
145,166,107602,1,2,1:0:0:0:
202,209,107769,2,0,P|232:192|261:178,1,60,8|2,0:0|1:1,0:0:0:0:
268,109,108102,6,0,P|320:125|388:134,1,120,2|8,1:3|1:2,0:0:0:0:
448,99,108602,1,0,1:1:0:0:
482,162,108769,1,0,1:1:0:0:
426,204,108936,1,2,1:0:0:0:
426,204,109019,1,0,1:0:0:0:
426,204,109102,2,0,P|431:253|431:278,1,60,8|2,0:0|1:0,0:0:0:0:
380,315,109436,5,2,1:3:0:0:
315,347,109602,1,2,1:1:0:0:
247,321,109769,2,0,P|248:291|252:261,1,60,8|2,0:0|1:1,0:0:0:0:
297,205,110102,1,2,0:1:0:0:
278,135,110269,1,0,1:2:0:0:
278,135,110352,1,0,1:0:0:0:
278,135,110436,2,0,P|248:138|218:140,1,60,8|2,0:0|1:1,0:0:0:0:
160,96,110769,6,0,P|87:122|54:171,2,120,2|8|4,1:3|1:2|1:2,0:0:0:0:
204,38,111602,1,0,1:2:0:0:
267,72,111769,2,0,P|301:78|335:79,1,60,12|4,0:0|1:2,0:0:0:0:
394,55,112102,5,6,1:1:0:0:
438,111,112269,1,2,1:1:0:0:
397,170,112436,1,8,0:0:0:0:
329,157,112602,1,2,1:1:0:0:
329,157,112686,1,0,1:0:0:0:
329,157,112769,2,0,P|323:196|320:222,1,60,2|0,0:1|1:2,0:0:0:0:
257,250,113102,1,8,0:0:0:0:
271,320,113269,1,2,1:0:0:0:
342,332,113436,6,0,P|398:316|462:296,2,120,2|8|2,1:3|1:2|0:1,0:0:0:0:
271,320,114269,1,0,1:2:0:0:
207,354,114436,2,0,P|170:347|143:343,1,60,8|2,0:0|1:0,0:0:0:0:
75,344,114769,6,0,P|82:294|89:204,1,120,2|8,1:3|1:2,0:0:0:0:
61,157,115269,1,2,1:0:0:0:
61,157,115352,1,0,1:0:0:0:
61,157,115436,2,0,P|60:113|56:80,1,60,2|2,1:1|1:0,0:0:0:0:
26,32,115769,1,8,0:0:0:0:
26,32,115936,1,2,1:0:0:0:
96,21,116102,6,0,P|141:32|166:35,1,60,2|4,1:3|0:0,0:0:0:0:
196,93,116436,2,0,P|263:90|323:79,1,120,8|4,0:0|1:2,0:0:0:0:
380,51,116936,1,0,1:2:0:0:
380,51,117019,1,0,1:0:0:0:
380,51,117102,2,0,P|395:97|403:120,1,60,12|12,0:0|1:2,0:0:0:0:
458,148,117436,6,0,P|436:211|423:272,1,120,6|8,1:0|1:2,0:0:0:0:
356,287,117936,1,2,1:1:0:0:
323,350,118102,2,0,P|272:352|215:295,1,120,2|8,0:1|0:0,0:0:0:0:
225,237,118602,1,2,1:1:0:0:
289,205,118769,6,0,P|284:159|287:118,1,60,2|2,1:3|1:1,0:0:0:0:
238,89,119102,1,8,1:2:0:0:
302,55,119269,1,2,1:1:0:0:
302,55,119352,1,0,1:0:0:0:
302,55,119436,2,0,P|334:61|365:66,2,60,2|0|8,1:1|1:0|0:0,0:0:0:0:
241,16,119936,1,2,1:0:0:0:
186,62,120102,6,0,P|180:113|161:196,1,120,2|8,1:3|0:0,0:0:0:0:
111,227,120602,1,2,1:1:0:0:
150,287,120769,2,0,P|190:276|220:270,2,60,2|0|8,0:1|1:2|0:0,0:0:0:0:
89,325,121269,1,2,1:1:0:0:
26,288,121436,6,0,P|37:253|46:219,1,60,2|0,1:3|0:0,0:0:0:0:
110,204,121769,2,0,P|102:161|95:83,1,120,8|4,1:2|0:0,0:0:0:0:
146,34,122269,1,0,1:2:0:0:
146,34,122352,1,0,1:0:0:0:
146,34,122436,2,0,P|183:41|213:47,1,60,12|4,0:0|1:2,0:0:0:0:
246,104,122769,5,6,1:1:0:0:
301,57,122936,1,2,1:1:0:0:
301,57,123019,1,0,1:0:0:0:
301,57,123102,2,0,P|330:51|359:45,1,60,8|2,0:0|1:1,0:0:0:0:
430,28,123436,1,2,0:1:0:0:
456,94,123602,1,0,1:2:0:0:
408,147,123769,2,0,P|401:187|396:220,1,60,8|2,0:0|1:0,0:0:0:0:
352,262,124102,6,0,P|389:295|459:321,2,120,2|8|2,1:3|1:2|1:1,0:0:0:0:
289,224,124936,1,0,1:2:0:0:
289,224,125019,1,0,1:0:0:0:
289,224,125102,2,0,P|253:224|215:232,1,60,8|2,0:0|1:0,0:0:0:0:
176,278,125436,5,2,1:3:0:0:
111,247,125602,1,2,1:1:0:0:
124,176,125769,1,8,1:2:0:0:
200,161,125936,1,2,1:1:0:0:
200,161,126019,1,0,1:0:0:0:
200,161,126102,2,0,P|192:110|187:80,1,60,0|0,1:1|1:0,0:0:0:0:
244,53,126436,1,8,0:0:0:0:
244,53,126602,1,2,1:0:0:0:
295,103,126769,6,0,P|361:97|437:80,1,120,2|8,1:3|1:2,0:0:0:0:
471,129,127269,1,4,1:2:0:0:
423,183,127436,2,0,P|387:189|351:192,1,60,4|0,1:2|1:2,0:0:0:0:
292,205,127769,1,12,0:0:0:0:
221,218,127936,1,12,1:2:0:0:
151,236,128102,6,0,P|113:211|89:131,2,120,6|8|2,1:0|1:2|0:1,0:0:0:0:
207,281,128936,1,2,1:0:0:0:
239,344,129102,2,0,P|275:343|311:336,1,60,8|2,0:0|1:1,0:0:0:0:
355,294,129436,5,2,1:3:0:0:
410,339,129602,1,2,1:1:0:0:
463,290,129769,1,8,1:2:0:0:
408,242,129936,1,2,1:1:0:0:
408,242,130019,1,0,1:0:0:0:
408,242,130102,2,0,P|402:188|402:165,1,60,2|0,1:1|1:0,0:0:0:0:
329,173,130436,2,0,P|335:119|335:96,1,60,8|2,0:0|1:0,0:0:0:0:
358,45,130769,6,0,P|318:40|237:73,1,120,2|8,1:3|0:0,0:0:0:0:
225,136,131269,1,2,1:1:0:0:
152,140,131436,2,0,P|150:106|145:69,1,60,2|0,0:1|1:2,0:0:0:0:
75,91,131769,2,0,P|71:120|69:150,1,60,8|2,0:0|1:1,0:0:0:0:
31,212,132102,5,2,1:3:0:0:
75,268,132269,1,4,0:0:0:0:
140,238,132436,2,0,P|202:257|266:274,1,120,8|4,1:2|1:2,0:0:0:0:
332,261,132936,1,0,1:2:0:0:
332,261,133019,1,0,1:0:0:0:
332,261,133102,1,12,0:0:0:0:
393,298,133269,1,4,1:2:0:0:
464,288,133436,6,0,P|449:239|442:207,1,60,6|2,1:1|1:1,0:0:0:0:
386,191,133769,2,0,P|403:142|419:67,1,120,8|2,0:0|0:1,0:0:0:0:
370,20,134269,1,0,1:2:0:0:
370,20,134352,1,0,1:0:0:0:
370,20,134436,2,0,P|311:26|297:26,1,60,8|2,0:0|1:0,0:0:0:0:
274,88,134769,6,0,P|212:83|153:65,2,120,2|8|2,1:3|1:2|1:1,0:0:0:0:
303,163,135602,1,0,1:2:0:0:
303,163,135686,1,0,1:0:0:0:
303,163,135769,2,0,P|299:207|296:234,1,60,8|2,0:0|1:0,0:0:0:0:
302,294,136102,5,2,1:3:0:0:
327,361,136269,1,2,1:1:0:0:
393,333,136436,1,8,1:2:0:0:
374,263,136602,1,2,1:1:0:0:
374,263,136686,1,0,1:1:0:0:
374,263,136769,2,0,P|377:233|379:203,1,60,2|2,1:1|1:0,0:0:0:0:
428,150,137102,1,8,0:0:0:0:
395,85,137269,1,2,1:0:0:0:
354,25,137436,6,0,P|301:38|218:55,1,120,2|8,1:3|1:2,0:0:0:0:
167,32,137936,1,4,1:2:0:0:
128,92,138102,1,4,1:2:0:0:
168,163,138269,1,0,1:2:0:0:
168,163,138352,1,0,1:0:0:0:
168,163,138436,2,0,P|174:214|175:239,1,60,12|4,1:2|1:2,0:0:0:0:
147,289,138769,1,4,1:0:0:0:
