osu file format v14

[General]
AudioFilename: audio.mp3
AudioLeadIn: 0
PreviewTime: 42769
Countdown: 0
SampleSet: Soft
StackLeniency: 0.7
Mode: 0
LetterboxInBreaks: 0
WidescreenStoryboard: 0

[Editor]
Bookmarks: 21440,32106,42773,53440,64106,74773,85440,96106,106773,117440,128106,138773
DistanceSpacing: 1.2
BeatDivisor: 4
GridSize: 4
TimelineZoom: 1.3

[Metadata]
Title:timer
TitleUnicode:timer
Artist:Kola Kid
ArtistUnicode:Kola Kid
Creator:Mirash
Version:Extra
Source:
Tags:8bit Cash Machine Go! dance electronic chiptune
BeatmapID:2277126
BeatmapSetID:1089084

[Difficulty]
HPDrainRate:7
CircleSize:5
OverallDifficulty:8
ApproachRate:9
SliderMultiplier:2
SliderTickRate:1

[Events]
//Background and Video events
0,0,"f565f959387203.5a20286dbfca6.jpg",0,0
//Break Periods
//Storyboard Layer 0 (Background)
//Storyboard Layer 1 (Fail)
//Storyboard Layer 2 (Pass)
//Storyboard Layer 3 (Foreground)
//Storyboard Layer 4 (Overlay)
//Storyboard Sound Samples

[TimingPoints]
103,333.333333333333,4,2,1,50,1,0
21436,-100,4,2,1,60,0,0
42769,-100,4,2,1,70,0,0
64102,-100,4,2,1,50,0,0
74769,-100,4,2,1,60,0,0
85436,-100,4,2,1,40,0,0
91436,-133.333333333333,4,2,1,40,0,0
94769,-100,4,2,1,40,0,0
95602,-100,4,2,1,50,0,0
96102,-100,4,2,1,70,0,0

[Colours]
Combo1 : 255,94,55
Combo2 : 173,255,95
Combo3 : 17,254,176
Combo4 : 255,88,100

[HitObjects]
80,89,20936,5,0,1:0:0:0:
132,147,21102,1,8,0:0:0:0:
198,104,21269,1,0,1:0:0:0:
446,235,21436,6,0,P|398:266|379:373,1,150,4|0,1:0|0:0,0:0:0:0:
391,369,21769,1,8,0:0:0:0:
462,373,21936,1,2,0:0:0:0:
455,349,22019,1,2,0:0:0:0:
447,325,22102,1,0,0:0:0:0:
323,277,22269,1,0,1:0:0:0:
216,382,22436,1,8,0:0:0:0:
286,369,22602,1,0,1:0:0:0:
35,152,22769,5,2,1:3:0:0:
10,226,22936,1,2,0:0:0:0:
80,247,23102,1,8,0:0:0:0:
110,178,23269,1,2,0:0:0:0:
102,154,23352,1,0,0:0:0:0:
94,129,23436,1,0,0:0:0:0:
87,105,23519,1,2,0:0:0:0:
80,81,23602,1,0,1:0:0:0:
115,18,23769,2,0,P|151:42|224:66,1,100,10|0,0:0|1:0,0:0:0:0:
490,146,24102,5,2,1:3:0:0:
501,237,24269,1,0,0:0:0:0:
406,201,24436,1,8,0:0:0:0:
313,73,24602,5,2,0:0:0:0:
269,185,24769,1,0,0:0:0:0:
385,171,24936,1,2,1:2:0:0:
442,69,25102,1,8,0:0:0:0:
392,13,25269,5,2,1:2:0:0:
384,36,25352,1,2,0:0:0:0:
376,60,25436,2,0,L|395:174,1,100,2|0,1:3|0:0,0:0:0:0:
253,298,25769,2,0,L|270:139,1,150,8|2,0:0|0:0,0:0:0:0:
260,125,26102,2,0,P|219:124|164:153,1,100,0|2,0:0|1:2,0:0:0:0:
49,184,26436,1,8,0:0:0:0:
103,299,26602,1,0,1:2:0:0:
234,260,26769,5,4,1:0:0:0:
171,135,26936,1,0,0:0:0:0:
36,182,27102,1,8,0:0:0:0:
100,313,27269,1,2,0:0:0:0:
181,210,27436,1,0,0:0:0:0:
114,170,27602,1,2,1:2:0:0:
92,242,27769,1,8,0:0:0:0:
160,283,27936,5,2,1:2:0:0:
172,304,28019,1,2,0:0:0:0:
183,326,28102,2,0,L|300:316,1,100,2|0,1:3|0:0,0:0:0:0:
318,234,28436,2,0,L|473:265,1,150,8|2,0:0|0:0,0:0:0:0:
476,285,28769,2,0,P|502:242|499:183,1,100,0|2,0:0|1:2,0:0:0:0:
437,95,29102,1,8,0:0:0:0:
353,167,29269,1,2,1:2:0:0:
389,342,29436,5,2,1:3:0:0:
473,270,29602,1,2,0:0:0:0:
371,243,29769,1,10,0:0:0:0:
267,327,29936,5,2,0:0:0:0:
165,300,30102,1,0,0:0:0:0:
249,228,30269,1,2,1:2:0:0:
360,262,30436,1,8,0:0:0:0:
355,286,30519,1,2,0:0:0:0:
351,310,30602,1,0,1:0:0:0:
347,334,30686,1,2,0:0:0:0:
343,358,30769,1,2,1:3:0:0:
412,345,30936,1,2,0:0:0:0:
312,205,31102,6,0,L|288:55,1,150,8|2,0:0|0:0,0:0:0:0:
272,36,31436,2,0,P|313:21|375:33,1,100,0|2,0:0|1:2,0:0:0:0:
461,119,31769,1,8,0:0:0:0:
388,219,31936,1,10,1:2:0:0:
221,224,32102,5,4,1:0:0:0:
148,145,32269,1,0,0:0:0:0:
201,44,32436,1,8,0:0:0:0:
267,77,32602,1,2,0:0:0:0:
266,102,32686,1,2,0:0:0:0:
265,126,32769,1,0,0:0:0:0:
87,58,32936,1,0,1:0:0:0:
281,66,33102,5,8,0:0:0:0:
280,91,33186,1,2,0:0:0:0:
279,115,33269,1,0,1:0:0:0:
278,140,33352,1,2,0:0:0:0:
275,165,33436,2,0,P|278:227|279:278,1,100,2|2,1:3|0:0,0:0:0:0:
204,273,33769,2,0,P|203:190|205:95,1,150,8|2,0:0|0:0,0:0:0:0:
200,98,34102,2,0,P|161:98|105:129,1,100,0|2,0:0|1:2,0:0:0:0:
67,276,34436,1,10,0:0:0:0:
136,312,34602,1,0,1:0:0:0:
137,205,34769,5,2,1:3:0:0:
11,212,34936,1,0,0:0:0:0:
94,187,35102,1,8,0:0:0:0:
189,364,35269,1,2,0:0:0:0:
262,368,35436,2,0,P|317:323|321:277,1,100,0|2,0:0|1:2,0:0:0:0:
322,297,35686,1,0,0:0:0:0:
322,297,35769,1,8,0:0:0:0:
258,191,35936,1,2,1:2:0:0:
365,126,36102,5,2,1:3:0:0:
430,233,36269,1,0,0:0:0:0:
322,297,36436,2,0,L|350:140,1,150,8|2,0:0|0:0,0:0:0:0:
365,126,36769,2,0,P|316:96|259:104,1,100,0|2,0:0|1:2,0:0:0:0:
213,202,37102,1,8,0:0:0:0:
113,139,37269,1,0,1:0:0:0:
178,26,37436,5,4,1:0:0:0:
285,98,37602,1,0,0:0:0:0:
216,216,37769,1,8,0:0:0:0:
99,142,37936,1,2,0:0:0:0:
82,71,38102,1,0,0:0:0:0:
154,92,38269,1,2,1:2:0:0:
160,116,38352,1,0,0:0:0:0:
168,139,38436,1,8,0:0:0:0:
27,123,38602,1,2,1:2:0:0:
235,65,38769,6,0,P|299:80|410:106,1,150,2|2,1:3|0:0,0:0:0:0:
405,93,39102,1,8,0:0:0:0:
448,152,39269,1,2,0:0:0:0:
375,164,39436,1,0,0:0:0:0:
271,257,39602,1,2,1:2:0:0:
246,253,39686,1,0,0:0:0:0:
221,249,39769,1,8,0:0:0:0:
97,331,39936,1,2,1:2:0:0:
58,275,40102,5,2,1:3:0:0:
151,291,40269,1,0,0:0:0:0:
135,384,40436,1,10,0:0:0:0:
42,368,40602,1,2,0:0:0:0:
202,346,40769,5,0,0:0:0:0:
324,311,40936,1,2,1:2:0:0:
289,189,41102,1,8,0:0:0:0:
167,224,41269,1,0,1:0:0:0:
268,287,41436,5,2,1:3:0:0:
268,287,41686,1,0,1:0:0:0:
268,287,41769,1,2,1:3:0:0:
268,287,42019,1,0,1:0:0:0:
268,287,42102,1,2,1:3:0:0:
268,287,42269,1,2,1:3:0:0:
268,287,42436,1,2,1:3:0:0:
268,287,42519,1,2,1:3:0:0:
268,287,42602,1,2,1:3:0:0:
355,352,42769,5,6,1:0:0:0:
380,321,42852,1,0,1:1:0:0:
415,300,42936,1,2,0:1:0:0:
453,289,43019,1,0,1:1:0:0:
492,284,43102,1,8,1:2:0:0:
468,217,43269,1,2,1:1:0:0:
368,156,43436,1,2,0:1:0:0:
384,192,43519,1,0,1:0:0:0:
392,230,43602,1,2,1:0:0:0:
475,67,43769,1,8,0:0:0:0:
459,103,43852,1,0,0:0:0:0:
451,141,43936,1,2,1:1:0:0:
362,71,44102,5,2,1:3:0:0:
321,66,44186,1,0,1:0:0:0:
281,66,44269,1,2,1:1:0:0:
236,73,44352,1,0,1:0:0:0:
193,87,44436,1,8,1:2:0:0:
143,155,44602,1,2,1:1:0:0:
128,239,44769,1,0,1:1:0:0:
169,244,44852,1,2,0:1:0:0:
209,244,44936,1,0,1:0:0:0:
254,237,45019,1,0,1:0:0:0:
297,223,45102,2,0,P|303:259|316:336,1,100,8|2,0:0|1:0,0:0:0:0:
166,352,45436,5,2,1:3:0:0:
49,286,45602,2,0,P|57:236|65:187,1,100,2|8,1:1|0:0,0:0:0:0:
46,99,45936,1,2,1:1:0:0:
119,48,46102,1,0,1:0:0:0:
160,66,46186,1,2,0:1:0:0:
203,77,46269,1,0,1:2:0:0:
247,82,46352,1,2,1:1:0:0:
292,84,46436,1,8,0:0:0:0:
389,49,46602,1,2,1:1:0:0:
382,170,46769,5,2,1:3:0:0:
274,207,46936,1,4,0:0:0:0:
273,80,47102,1,8,1:2:0:0:
393,36,47269,1,2,0:0:0:0:
338,119,47436,1,4,0:0:0:0:
338,119,47519,1,0,1:0:0:0:
338,119,47602,1,0,1:2:0:0:
185,101,47769,1,12,0:0:0:0:
174,235,47936,1,4,1:2:0:0:
326,264,48102,5,6,1:1:0:0:
447,225,48269,2,0,P|382:247|368:327,1,150,2|0,1:1|0:0,0:0:0:0:
366,345,48602,2,0,P|395:343|425:330,1,50,2|0,1:1|0:0,0:0:0:0:
238,263,48769,2,0,L|262:371,1,100,2|0,0:1|1:2,0:0:0:0:
259,360,49102,2,0,L|281:263,1,100,8|2,0:0|1:0,0:0:0:0:
138,116,49436,5,2,1:3:0:0:
152,158,49519,1,0,1:0:0:0:
166,200,49602,1,0,1:0:0:0:
180,242,49686,1,2,1:1:0:0:
196,283,49769,1,8,1:2:0:0:
96,270,49936,5,2,1:1:0:0:
112,229,50019,1,0,1:0:0:0:
126,187,50102,1,2,0:1:0:0:
140,145,50186,1,0,1:0:0:0:
154,103,50269,1,0,1:2:0:0:
72,44,50436,1,8,0:0:0:0:
31,164,50602,1,2,1:0:0:0:
255,222,50769,5,2,1:3:0:0:
298,211,50852,1,0,0:0:0:0:
342,200,50936,1,2,0:1:0:0:
408,236,51102,1,8,1:2:0:0:
392,306,51269,1,2,0:1:0:0:
349,295,51352,1,0,1:1:0:0:
305,284,51436,1,2,1:1:0:0:
271,115,51602,1,2,1:0:0:0:
314,126,51686,1,0,0:0:0:0:
358,137,51769,1,8,0:0:0:0:
421,95,51936,1,2,1:0:0:0:
255,35,52102,5,2,1:3:0:0:
212,50,52186,1,0,1:0:0:0:
169,65,52269,1,4,0:0:0:0:
127,80,52352,1,0,1:0:0:0:
84,96,52436,1,8,0:0:0:0:
20,125,52602,1,4,1:2:0:0:
89,106,52769,1,4,1:2:0:0:
132,90,52852,1,0,1:0:0:0:
174,75,52936,1,0,1:2:0:0:
217,60,53019,1,0,1:0:0:0:
260,45,53102,2,0,P|264:94|274:166,1,100,12|12,0:0|1:2,0:0:0:0:
230,254,53436,5,6,1:0:0:0:
372,270,53602,2,0,P|364:204|360:133,1,100,2|8,0:1|1:2,0:0:0:0:
230,254,53936,1,2,1:1:0:0:
375,136,54102,1,0,1:1:0:0:
379,181,54186,1,2,0:1:0:0:
382,225,54269,1,2,1:0:0:0:
386,269,54352,1,0,1:0:0:0:
389,314,54436,1,8,0:0:0:0:
448,378,54602,1,2,1:1:0:0:
485,273,54769,5,2,1:3:0:0:
378,228,54936,1,2,1:1:0:0:
332,333,55102,1,8,1:2:0:0:
396,295,55269,1,0,1:1:0:0:
393,250,55352,1,2,0:1:0:0:
389,206,55436,1,2,1:1:0:0:
386,162,55519,1,0,1:0:0:0:
382,117,55602,1,0,1:0:0:0:
373,43,55769,1,8,0:0:0:0:
373,43,55936,1,2,1:0:0:0:
294,138,56102,5,2,1:3:0:0:
389,206,56269,1,2,1:1:0:0:
470,122,56436,1,8,0:0:0:0:
373,43,56602,1,2,1:1:0:0:
389,206,56769,1,2,0:1:0:0:
433,143,56936,1,0,1:2:0:0:
356,135,57102,1,8,0:0:0:0:
312,202,57269,1,2,1:1:0:0:
388,307,57436,5,2,1:3:0:0:
432,301,57519,1,0,1:0:0:0:
470,277,57602,1,4,0:0:0:0:
498,241,57686,1,0,1:0:0:0:
506,196,57769,1,8,1:2:0:0:
317,263,57936,5,2,1:2:0:0:
361,269,58019,1,0,1:0:0:0:
399,293,58102,1,4,0:0:0:0:
427,329,58186,1,0,1:0:0:0:
435,374,58269,1,0,1:2:0:0:
212,277,58436,5,12,0:0:0:0:
267,204,58602,1,4,1:2:0:0:
279,360,58769,5,6,1:1:0:0:
234,361,58852,1,0,1:0:0:0:
188,363,58936,1,2,1:1:0:0:
143,365,59019,1,0,1:0:0:0:
98,368,59102,1,8,0:0:0:0:
31,304,59269,1,2,1:1:0:0:
108,260,59436,1,2,0:1:0:0:
34,202,59602,1,0,1:2:0:0:
45,158,59686,1,0,0:0:0:0:
55,114,59769,2,0,P|53:74|47:3,1,100,8|2,0:0|1:0,0:0:0:0:
191,65,60102,5,2,1:3:0:0:
186,198,60269,1,2,1:0:0:0:
321,137,60436,1,8,1:2:0:0:
364,127,60519,1,0,1:1:0:0:
405,109,60602,1,2,1:1:0:0:
444,86,60686,1,0,1:0:0:0:
481,61,60769,1,2,1:1:0:0:
417,26,60936,1,0,1:2:0:0:
490,140,61102,1,8,0:0:0:0:
479,184,61186,1,0,0:0:0:0:
475,228,61269,1,2,1:0:0:0:
262,306,61436,5,2,1:3:0:0:
209,211,61602,1,2,0:1:0:0:
318,215,61769,1,8,1:2:0:0:
171,282,61936,5,2,0:1:0:0:
268,155,62102,1,2,1:1:0:0:
340,294,62269,1,2,1:0:0:0:
252,359,62436,6,0,L|236:301,1,50,8|0,0:0|0:0,0:0:0:0:
145,177,62602,2,0,L|203:192,1,50,2|0,1:0|0:0,0:0:0:0:
356,175,62769,2,0,L|313:217,1,50,2|0,1:3|0:0,0:0:0:0:
284,268,62936,1,4,1:2:0:0:
284,268,63019,1,0,1:0:0:0:
284,268,63102,1,8,0:0:0:0:
284,268,63186,1,0,1:0:0:0:
284,268,63269,1,4,1:2:0:0:
284,268,63352,1,0,0:0:0:0:
284,268,63436,1,4,1:2:0:0:
284,268,63519,1,0,0:0:0:0:
284,268,63602,1,0,1:2:0:0:
284,268,63686,1,0,0:0:0:0:
284,268,63769,1,12,1:2:0:0:
313,338,63936,1,12,1:2:0:0:
424,249,64102,6,0,P|425:170|433:47,1,200,4|8,1:0|0:0,0:0:0:0:
365,28,64602,1,0,0:0:0:0:
261,154,64769,2,0,P|317:189|368:227,1,100,0|0,0:0|1:0,0:0:0:0:
268,56,65102,1,8,0:0:0:0:
268,56,65269,1,0,1:0:0:0:
85,160,65436,6,0,P|135:113|162:81,1,100,2|0,1:3|0:0,0:0:0:0:
8,110,65769,2,0,P|14:209|16:309,1,200,8|0,0:0|0:0,0:0:0:0:
79,334,66269,1,0,1:0:0:0:
144,256,66436,2,0,P|143:319|144:368,1,100,8|0,0:0|1:0,0:0:0:0:
217,192,66769,5,2,1:3:0:0:
91,201,66936,1,0,0:0:0:0:
229,286,67102,2,8,P|284:255|325:230,1,100,8|0,0:0|0:0,0:0:0:0:
203,116,67436,1,0,0:0:0:0:
150,170,67602,1,0,1:2:0:0:
217,192,67769,1,8,0:0:0:0:
319,121,67936,1,0,1:0:0:0:
118,71,68102,6,0,P|205:50|232:41,1,100,2|0,1:3|0:0,0:0:0:0:
301,2,68436,2,0,P|353:24|507:64,1,200,8|0,0:0|0:0,0:0:0:0:
497,135,68936,1,0,1:2:0:0:
327,216,69102,2,0,P|320:146|312:92,1,100,8|0,0:0|1:0,0:0:0:0:
416,210,69436,5,4,1:0:0:0:
340,302,69602,1,0,0:0:0:0:
239,208,69769,1,8,0:0:0:0:
315,116,69936,1,0,0:0:0:0:
342,185,70102,5,0,0:0:0:0:
240,143,70269,1,0,1:2:0:0:
321,52,70436,1,8,0:0:0:0:
423,94,70602,1,0,1:2:0:0:
239,122,70769,6,0,P|173:106|126:100,1,100,2|0,1:3|0:0,0:0:0:0:
80,32,71102,2,0,P|65:100|34:233,1,200,8|0,0:0|0:0,0:0:0:0:
72,288,71602,1,0,1:2:0:0:
205,240,71769,2,0,P|153:225|97:209,1,100,8|0,0:0|1:2,0:0:0:0:
197,354,72102,5,2,1:3:0:0:
289,316,72269,1,0,0:0:0:0:
205,261,72436,1,8,0:0:0:0:
384,335,72602,5,0,0:0:0:0:
292,297,72769,1,0,0:0:0:0:
376,242,72936,1,0,1:2:0:0:
246,360,73102,5,8,0:0:0:0:
226,189,73269,1,0,1:0:0:0:
396,237,73436,6,0,P|400:300|405:361,1,100,2|0,1:3|0:0,0:0:0:0:
475,251,73769,2,0,P|507:190|429:91,1,200,8|0,0:0|0:0,0:0:0:0:
366,157,74269,1,0,1:2:0:0:
366,157,74352,1,0,0:0:0:0:
366,157,74436,1,8,0:0:0:0:
292,82,74602,1,8,1:2:0:0:
380,2,74769,5,4,1:0:0:0:
380,2,75102,1,10,0:0:0:0:
346,61,75269,1,2,0:0:0:0:
284,24,75436,1,0,0:0:0:0:
250,83,75602,1,2,1:2:0:0:
74,174,75769,5,12,0:0:0:0:
117,248,75936,1,2,1:2:0:0:
195,201,76102,1,2,1:3:0:0:
239,276,76269,1,2,0:0:0:0:
447,207,76436,5,8,0:0:0:0:
389,265,76602,1,0,1:0:0:0:
398,293,76686,1,0,0:0:0:0:
409,320,76769,1,0,1:0:0:0:
467,273,76936,1,0,1:0:0:0:
328,290,77102,1,8,0:0:0:0:
365,371,77269,1,2,1:2:0:0:
502,191,77436,5,2,1:3:0:0:
502,191,77769,1,10,0:0:0:0:
438,171,77936,1,2,0:0:0:0:
387,214,78102,1,0,0:0:0:0:
323,194,78269,1,2,1:2:0:0:
261,82,78436,5,12,0:0:0:0:
183,57,78602,1,2,1:2:0:0:
121,109,78769,1,2,1:3:0:0:
44,85,78936,1,2,0:0:0:0:
110,15,79102,5,8,0:0:0:0:
165,60,79269,1,0,1:0:0:0:
193,51,79352,1,0,0:0:0:0:
222,43,79436,1,0,1:0:0:0:
288,71,79602,1,0,1:2:0:0:
351,37,79769,1,8,0:0:0:0:
418,68,79936,1,2,1:2:0:0:
258,310,80102,5,0,1:3:0:0:
258,310,80436,1,10,0:0:0:0:
215,236,80602,1,2,0:0:0:0:
301,240,80769,1,0,0:0:0:0:
258,310,80936,1,2,1:2:0:0:
164,192,81102,5,12,0:0:0:0:
345,183,81269,1,2,1:2:0:0:
259,327,81436,1,2,1:3:0:0:
255,237,81602,1,2,0:0:0:0:
278,160,81769,5,8,0:0:0:0:
210,125,81936,1,0,1:0:0:0:
217,96,82019,1,0,0:0:0:0:
225,67,82102,1,0,1:0:0:0:
177,15,82269,1,0,1:2:0:0:
305,43,82436,1,8,0:0:0:0:
278,160,82602,1,2,1:2:0:0:
60,128,82769,5,2,1:3:0:0:
60,128,83102,1,10,0:0:0:0:
122,218,83269,1,2,0:0:0:0:
114,257,83352,1,2,0:0:0:0:
106,296,83436,1,2,0:0:0:0:
205,237,83602,1,2,1:2:0:0:
33,247,83769,1,12,0:0:0:0:
189,132,83936,1,6,1:2:0:0:
193,331,84102,5,2,1:3:0:0:
129,373,84269,1,2,0:0:0:0:
106,296,84436,1,10,0:0:0:0:
261,249,84602,5,6,0:0:0:0:
325,207,84769,1,2,0:0:0:0:
348,284,84936,1,2,1:2:0:0:
458,378,85102,5,12,0:0:0:0:
509,341,85269,1,10,1:2:0:0:
482,315,85436,5,2,0:3:0:0:
421,345,85936,1,2,0:0:0:0:
421,345,86102,1,4,0:0:0:0:
355,320,86436,1,2,0:0:0:0:
355,320,86602,1,4,0:0:0:0:
315,261,87102,1,2,0:1:0:0:
331,197,87602,1,2,0:1:0:0:
30,315,88102,5,2,0:3:0:0:
91,345,88602,1,2,0:0:0:0:
91,345,88769,1,4,0:0:0:0:
157,320,89102,1,2,0:0:0:0:
157,320,89269,1,4,0:0:0:0:
197,261,89769,1,2,0:1:0:0:
181,197,90269,1,2,0:1:0:0:
261,11,90769,5,2,0:3:0:0:
257,82,91102,1,2,0:0:0:0:
257,82,91269,1,2,0:0:0:0:
257,82,91436,2,0,L|273:170,1,75.0000028610231,6|0,0:0|0:0,0:0:0:0:
349,173,91769,2,0,L|332:86,1,75.0000028610231,2|4,0:0|0:0,0:0:0:0:
381,44,92102,1,2,0:3:0:0:
381,44,92269,1,2,0:0:0:0:
381,44,92436,1,2,0:1:0:0:
381,44,92602,1,2,0:0:0:0:
430,93,92936,1,2,0:1:0:0:
430,93,93102,1,2,0:0:0:0:
292,160,93436,6,0,P|275:282|263:397,2,225.000008583069,2|0|0,0:1|3:0|3:0,0:0:0:0:
229,130,94769,2,0,L|194:143,6,25,2|0|0|0|0|0|0,0:0|0:0|0:0|0:0|0:0|0:0|0:0,0:0:0:0:
276,83,95102,2,0,L|311:96,6,25,2|0|0|0|0|0|0,0:0|0:0|0:0|0:0|0:0|0:0|0:0,0:0:0:0:
224,33,95436,2,0,L|189:46,2,25,2|0|0,0:0|0:0|0:0,0:0:0:0:
286,2,95602,5,0,1:0:0:0:
357,6,95769,1,8,0:0:0:0:
362,77,95936,1,0,1:0:0:0:
135,110,96102,6,0,P|146:180|154:248,1,100,6|2,1:0|0:1,0:0:0:0:
211,245,96436,1,8,1:2:0:0:
341,185,96602,1,2,1:1:0:0:
394,322,96769,1,2,0:1:0:0:
261,373,96936,1,2,1:0:0:0:
200,328,97102,1,8,0:0:0:0:
271,300,97269,1,2,1:1:0:0:
386,352,97436,5,2,1:3:0:0:
491,368,97602,1,2,1:1:0:0:
503,259,97769,1,8,1:2:0:0:
386,241,97936,1,2,1:1:0:0:
420,297,98102,1,2,1:1:0:0:
506,192,98269,1,0,1:0:0:0:
386,137,98436,1,8,0:0:0:0:
296,237,98602,1,2,1:0:0:0:
441,220,98769,5,2,1:3:0:0:
485,104,98936,1,2,1:1:0:0:
485,104,99019,1,0,0:0:0:0:
485,104,99102,1,8,0:0:0:0:
301,72,99269,1,0,1:1:0:0:
301,72,99352,1,2,0:1:0:0:
301,72,99436,1,2,0:1:0:0:
301,72,99519,1,0,1:0:0:0:
301,72,99602,1,0,1:2:0:0:
257,188,99769,1,8,0:0:0:0:
257,188,99852,1,0,0:0:0:0:
257,188,99936,1,2,1:1:0:0:
352,151,100102,5,2,1:3:0:0:
313,139,100186,1,0,1:0:0:0:
274,128,100269,1,4,0:0:0:0:
235,117,100352,1,0,1:0:0:0:
196,105,100436,1,8,1:2:0:0:
134,138,100602,1,2,1:2:0:0:
168,203,100769,1,4,1:2:0:0:
207,215,100852,1,0,1:0:0:0:
246,226,100936,1,0,1:2:0:0:
285,237,101019,1,4,0:0:0:0:
324,249,101102,2,0,P|327:300|334:361,1,100,12|4,0:0|1:2,0:0:0:0:
137,326,101436,5,6,1:1:0:0:
71,243,101602,1,2,1:1:0:0:
168,203,101769,1,8,0:0:0:0:
52,304,101936,5,2,1:1:0:0:
93,177,102102,1,2,0:1:0:0:
230,236,102269,1,0,1:2:0:0:
30,212,102436,5,8,0:0:0:0:
199,147,102602,1,2,1:0:0:0:
146,266,102769,1,2,1:3:0:0:
146,266,102852,1,0,1:0:0:0:
146,266,102936,1,0,1:0:0:0:
146,266,103019,1,2,1:1:0:0:
146,266,103102,1,8,1:2:0:0:
260,320,103269,1,2,1:1:0:0:
309,204,103436,1,2,1:1:0:0:
309,204,103519,1,0,1:0:0:0:
309,204,103602,1,0,1:2:0:0:
309,204,103686,1,0,1:0:0:0:
309,204,103769,2,0,P|250:178|206:150,1,100,8|2,0:0|1:0,0:0:0:0:
116,85,104102,5,2,1:3:0:0:
148,61,104186,1,0,1:0:0:0:
186,51,104269,1,2,0:1:0:0:
225,49,104352,1,0,1:0:0:0:
264,57,104436,1,8,1:2:0:0:
294,126,104602,1,2,1:1:0:0:
453,195,104769,1,0,1:1:0:0:
416,179,104852,1,2,0:1:0:0:
388,151,104936,1,2,1:0:0:0:
367,118,105019,1,0,1:0:0:0:
354,80,105102,1,8,0:0:0:0:
417,18,105269,1,2,1:0:0:0:
502,131,105436,5,2,1:3:0:0:
461,261,105602,1,4,0:0:0:0:
416,179,105769,1,8,0:0:0:0:
498,209,105936,5,4,1:2:0:0:
500,248,106019,1,0,1:0:0:0:
503,287,106102,1,4,0:0:0:0:
505,327,106186,1,0,1:0:0:0:
507,366,106269,1,0,1:2:0:0:
413,298,106436,1,12,0:0:0:0:
498,209,106602,1,12,1:2:0:0:
347,333,106769,5,6,1:0:0:0:
309,319,106852,1,0,1:1:0:0:
269,311,106936,1,2,0:1:0:0:
229,305,107019,1,0,1:1:0:0:
189,301,107102,1,8,1:2:0:0:
125,247,107269,1,2,1:1:0:0:
86,352,107436,1,2,0:1:0:0:
73,314,107519,1,0,0:0:0:0:
60,276,107602,1,2,1:0:0:0:
165,154,107769,1,8,0:0:0:0:
178,192,107852,1,0,0:0:0:0:
191,230,107936,1,2,1:1:0:0:
46,184,108102,5,2,1:3:0:0:
64,148,108186,1,0,1:0:0:0:
79,111,108269,1,2,1:1:0:0:
94,74,108352,1,0,1:0:0:0:
108,36,108436,1,8,1:2:0:0:
20,29,108602,5,0,1:1:0:0:
34,67,108686,1,2,0:1:0:0:
49,104,108769,1,0,1:1:0:0:
64,141,108852,1,0,1:0:0:0:
82,177,108936,1,2,1:0:0:0:
208,147,109102,1,8,0:0:0:0:
174,44,109269,1,2,1:0:0:0:
293,107,109436,6,0,P|266:192|255:235,1,100,2|2,1:3|1:1,0:0:0:0:
335,254,109769,1,8,0:0:0:0:
454,277,109936,1,2,1:1:0:0:
414,279,110019,1,0,1:0:0:0:
383,305,110102,1,2,0:1:0:0:
364,340,110186,1,0,1:0:0:0:
361,379,110269,1,0,1:2:0:0:
494,335,110436,1,8,0:0:0:0:
486,295,110519,1,0,0:0:0:0:
479,255,110602,1,2,1:1:0:0:
361,186,110769,5,2,1:3:0:0:
371,147,110852,1,0,1:0:0:0:
379,107,110936,1,4,0:0:0:0:
385,67,111019,1,0,1:0:0:0:
389,27,111102,1,8,1:2:0:0:
451,69,111269,1,2,1:2:0:0:
314,94,111436,1,4,1:2:0:0:
310,134,111519,1,0,1:0:0:0:
304,174,111602,1,0,1:2:0:0:
296,214,111686,1,0,1:0:0:0:
286,253,111769,2,0,P|288:317|286:368,1,100,12|4,0:0|1:2,0:0:0:0:
201,240,112102,5,6,1:1:0:0:
288,161,112269,1,2,1:1:0:0:
370,261,112436,1,8,0:0:0:0:
290,347,112602,1,2,1:1:0:0:
290,347,112686,1,0,0:0:0:0:
290,347,112769,1,2,0:1:0:0:
201,240,112936,1,0,1:2:0:0:
288,161,113102,1,8,0:0:0:0:
370,261,113269,1,2,1:0:0:0:
192,167,113436,5,2,1:3:0:0:
194,127,113519,1,0,1:0:0:0:
194,87,113602,1,0,1:0:0:0:
196,46,113686,1,2,1:1:0:0:
196,6,113769,1,8,1:2:0:0:
284,78,113936,1,2,1:1:0:0:
192,167,114102,1,2,0:1:0:0:
100,96,114269,1,0,1:2:0:0:
196,6,114436,1,8,0:0:0:0:
284,78,114602,1,2,1:0:0:0:
59,164,114769,5,2,1:3:0:0:
50,125,114852,1,0,1:0:0:0:
61,86,114936,1,2,0:1:0:0:
83,52,115019,1,0,1:0:0:0:
119,35,115102,1,8,1:2:0:0:
198,104,115269,1,2,1:0:0:0:
142,185,115436,1,2,1:1:0:0:
147,224,115519,1,0,1:0:0:0:
151,263,115602,1,2,1:0:0:0:
154,303,115686,1,0,1:0:0:0:
157,342,115769,2,0,P|229:330|279:328,1,100,8|2,0:0|1:0,0:0:0:0:
282,257,116102,5,2,1:3:0:0:
429,309,116269,1,4,0:0:0:0:
481,162,116436,1,8,0:0:0:0:
334,110,116602,1,4,0:0:0:0:
376,175,116769,5,4,1:2:0:0:
381,135,116852,1,0,1:0:0:0:
387,95,116936,1,0,1:2:0:0:
393,55,117019,1,0,1:0:0:0:
400,15,117102,1,12,0:0:0:0:
247,99,117269,1,12,1:2:0:0:
363,241,117436,1,6,1:0:0:0:
427,212,117602,1,2,0:1:0:0:
371,171,117769,1,8,1:2:0:0:
311,197,117936,1,2,1:1:0:0:
418,282,118102,5,2,0:1:0:0:
280,260,118269,1,2,1:0:0:0:
302,122,118436,1,8,0:0:0:0:
440,144,118602,1,2,1:1:0:0:
253,184,118769,5,2,1:3:0:0:
215,170,118852,1,0,1:0:0:0:
178,153,118936,1,2,1:1:0:0:
244,296,119102,1,8,1:2:0:0:
275,270,119186,1,0,0:0:0:0:
308,246,119269,1,2,1:1:0:0:
151,232,119436,1,2,1:1:0:0:
158,272,119519,1,0,0:0:0:0:
162,312,119602,1,0,1:0:0:0:
220,230,119769,5,8,0:0:0:0:
126,172,119936,1,2,1:0:0:0:
68,259,120102,1,2,1:3:0:0:
162,312,120269,1,2,1:1:0:0:
220,230,120436,1,8,0:0:0:0:
126,172,120602,1,2,1:1:0:0:
41,191,120769,5,2,0:1:0:0:
137,246,120936,1,0,1:2:0:0:
47,309,121102,2,0,P|49:244|47:190,1,100,8|2,0:0|1:1,0:0:0:0:
224,22,121436,6,0,P|219:88|211:241,1,200,2|8,1:3|1:2,0:0:0:0:
228,304,121936,1,2,0:0:0:0:
132,198,122102,1,4,0:0:0:0:
282,182,122269,1,0,1:2:0:0:
316,201,122352,1,0,1:0:0:0:
353,215,122436,1,12,0:0:0:0:
390,227,122519,1,0,1:0:0:0:
428,236,122602,1,4,1:2:0:0:
496,198,122769,5,6,1:1:0:0:
397,161,122936,1,2,1:1:0:0:
360,260,123102,1,8,0:0:0:0:
428,236,123269,5,2,1:1:0:0:
348,115,123436,1,2,0:1:0:0:
469,35,123602,1,0,1:2:0:0:
434,143,123769,5,8,0:0:0:0:
394,141,123852,1,0,0:0:0:0:
354,135,123936,1,2,1:0:0:0:
284,72,124102,1,2,1:3:0:0:
243,72,124186,1,0,1:0:0:0:
203,73,124269,1,0,1:0:0:0:
163,76,124352,1,2,1:1:0:0:
122,80,124436,2,0,P|56:101|25:231,1,200,8|2,1:2|1:1,0:0:0:0:
139,296,124936,1,0,1:2:0:0:
203,204,125102,2,0,P|137:208|99:204,1,100,8|2,0:0|1:0,0:0:0:0:
65,359,125436,5,2,1:3:0:0:
200,338,125602,1,2,1:1:0:0:
200,338,125686,1,0,0:0:0:0:
200,338,125769,1,8,1:2:0:0:
69,259,125936,1,2,1:1:0:0:
210,157,126102,1,0,1:1:0:0:
248,169,126186,1,2,0:1:0:0:
286,179,126269,1,0,1:0:0:0:
324,187,126352,1,2,0:1:0:0:
363,193,126436,2,0,P|429:197|467:193,1,100,8|2,0:0|1:0,0:0:0:0:
350,90,126769,5,2,1:3:0:0:
350,90,126852,1,0,1:0:0:0:
350,90,126936,1,4,1:2:0:0:
350,90,127019,1,0,1:0:0:0:
313,107,127102,5,8,1:2:0:0:
313,107,127186,1,0,1:0:0:0:
313,107,127269,1,4,1:2:0:0:
313,107,127352,1,2,0:0:0:0:
276,90,127436,5,4,1:2:0:0:
276,90,127519,1,0,1:0:0:0:
276,90,127602,1,0,1:2:0:0:
276,90,127686,1,4,0:0:0:0:
239,107,127769,5,12,0:0:0:0:
173,84,127936,1,12,1:2:0:0:
13,277,128102,5,6,1:0:0:0:
53,272,128186,1,0,1:1:0:0:
92,266,128269,1,2,0:1:0:0:
131,258,128352,1,0,1:1:0:0:
170,249,128436,1,8,1:2:0:0:
216,170,128602,1,2,1:1:0:0:
256,175,128686,1,0,1:0:0:0:
295,181,128769,1,2,0:1:0:0:
334,189,128852,1,0,1:0:0:0:
373,198,128936,1,2,1:0:0:0:
420,280,129102,1,8,0:0:0:0:
459,271,129186,1,0,0:0:0:0:
498,263,129269,1,2,1:1:0:0:
446,180,129436,5,2,1:3:0:0:
337,264,129602,1,2,1:1:0:0:
421,373,129769,1,8,1:2:0:0:
448,309,129936,1,2,1:1:0:0:
382,316,130102,1,2,1:1:0:0:
490,368,130269,5,0,1:0:0:0:
388,217,130436,1,8,0:0:0:0:
237,319,130602,1,2,1:0:0:0:
307,364,130769,5,2,1:3:0:0:
303,324,130852,1,0,1:0:0:0:
300,283,130936,1,2,1:1:0:0:
298,243,131019,1,0,1:0:0:0:
297,203,131102,1,8,0:0:0:0:
228,153,131269,1,2,1:1:0:0:
227,193,131352,1,0,1:0:0:0:
225,233,131436,1,2,0:1:0:0:
222,274,131519,1,0,1:0:0:0:
218,314,131602,1,0,1:2:0:0:
150,354,131769,1,8,0:0:0:0:
146,314,131852,1,0,0:0:0:0:
143,273,131936,1,2,1:1:0:0:
65,253,132102,5,2,1:3:0:0:
69,213,132186,1,0,1:0:0:0:
72,172,132269,1,4,0:0:0:0:
74,132,132352,1,0,1:0:0:0:
75,92,132436,1,8,1:2:0:0:
22,46,132602,1,2,1:2:0:0:
10,111,132769,1,4,1:2:0:0:
9,151,132852,1,0,1:0:0:0:
7,191,132936,1,0,1:2:0:0:
4,232,133019,1,0,1:0:0:0:
0,272,133102,2,0,P|11:330|19:378,1,100,12|4,0:0|1:2,0:0:0:0:
101,307,133436,5,6,1:1:0:0:
207,205,133602,1,2,1:1:0:0:
184,343,133769,1,8,0:0:0:0:
112,208,133936,1,2,1:1:0:0:
249,288,134102,5,2,0:1:0:0:
254,120,134269,1,0,1:2:0:0:
110,57,134436,1,8,0:0:0:0:
49,130,134602,1,2,1:0:0:0:
112,208,134769,5,2,1:3:0:0:
150,198,134852,1,0,1:0:0:0:
189,188,134936,1,0,1:0:0:0:
227,177,135019,1,2,1:1:0:0:
264,162,135102,1,8,1:2:0:0:
347,92,135269,1,2,1:1:0:0:
401,187,135436,1,2,1:1:0:0:
315,262,135602,1,0,1:2:0:0:
278,279,135686,1,0,0:0:0:0:
241,293,135769,1,8,0:0:0:0:
317,352,135936,1,2,1:0:0:0:
258,198,136102,5,2,1:3:0:0:
259,157,136186,1,0,1:0:0:0:
261,117,136269,1,2,1:1:0:0:
262,77,136352,1,0,1:0:0:0:
267,37,136436,1,8,1:2:0:0:
371,131,136602,1,2,1:1:0:0:
410,123,136686,1,0,1:1:0:0:
448,113,136769,1,2,1:1:0:0:
341,52,136936,1,2,1:0:0:0:
190,163,137102,1,8,0:0:0:0:
151,155,137186,1,2,0:0:0:0:
113,145,137269,1,2,1:0:0:0:
60,78,137436,5,2,1:3:0:0:
60,78,137519,1,0,1:0:0:0:
60,78,137602,1,4,1:2:0:0:
60,78,137686,1,0,1:0:0:0:
88,47,137769,5,8,1:2:0:0:
88,47,137852,1,0,1:0:0:0:
88,47,137936,1,4,1:2:0:0:
88,47,138019,1,2,0:0:0:0:
62,42,138102,5,4,1:2:0:0:
62,42,138186,1,0,0:0:0:0:
62,42,138269,1,0,1:2:0:0:
62,42,138352,1,0,0:0:0:0:
69,23,138436,5,12,1:2:0:0:
9,7,138602,1,4,1:2:0:0:
0,72,138769,1,4,1:0:0:0:
