osu file format v14

[General]
AudioFilename: audio.mp3
AudioLeadIn: 0
PreviewTime: 42769
Countdown: 0
SampleSet: Soft
StackLeniency: 0.7
Mode: 0
LetterboxInBreaks: 0
WidescreenStoryboard: 0

[Editor]
Bookmarks: 21440,32106,42773,53440,64106,74773,85440,96106,106773,117440,128106,138773
DistanceSpacing: 1.2
BeatDivisor: 2
GridSize: 4
TimelineZoom: 1

[Metadata]
Title:timer
TitleUnicode:timer
Artist:Kola Kid
ArtistUnicode:Kola Kid
Creator:Mirash
Version:Easy
Source:
Tags:8bit Cash Machine Go! dance electronic chiptune
BeatmapID:2277125
BeatmapSetID:1089084

[Difficulty]
HPDrainRate:3
CircleSize:3
OverallDifficulty:3
ApproachRate:4
SliderMultiplier:0.7
SliderTickRate:1

[Events]
//Background and Video events
0,0,"f565f959387203.5a20286dbfca6.jpg",0,0
//Break Periods
//Storyboard Layer 0 (Background)
//Storyboard Layer 1 (Fail)
//Storyboard Layer 2 (Pass)
//Storyboard Layer 3 (Foreground)
//Storyboard Layer 4 (Overlay)
//Storyboard Sound Samples

[TimingPoints]
103,333.333333333333,4,2,1,50,1,0
21436,-100,4,2,1,60,0,0
42769,-100,4,2,1,70,0,0
64102,-100,4,2,1,50,0,0
74769,-100,4,2,1,60,0,0
85436,-100,4,2,1,40,0,0
91436,-100,4,2,1,40,0,0
95602,-100,4,2,1,50,0,0
95769,-100,4,2,1,50,0,0
96102,-100,4,2,1,70,0,0

[Colours]
Combo1 : 255,94,55
Combo2 : 173,255,95
Combo3 : 17,254,176
Combo4 : 255,88,100

[HitObjects]
82,91,21102,5,8,0:0:0:0:
145,145,21436,2,0,P|200:132|229:124,1,70,4|8,1:0|0:0,0:0:0:0:
268,65,22102,2,0,P|329:86|421:100,1,140,2|2,0:0|1:3,0:0:0:0:
486,113,23102,1,8,0:0:0:0:
447,188,23436,1,0,0:0:0:0:
468,269,23769,1,10,0:0:0:0:
423,339,24102,6,0,P|385:320|334:308,2,70,2|8|2,1:3|0:0|0:0,0:0:0:0:
468,269,25102,1,8,0:0:0:0:
413,204,25436,2,0,P|347:221|250:238,2,140,2|2|4,1:3|0:0|1:0,0:0:0:0:
394,122,27102,5,8,0:0:0:0:
319,82,27436,2,0,P|278:103|246:129,1,70,2|8,0:0|0:0,0:0:0:0:
192,168,28102,2,0,P|139:160|94:148,1,70,2|8,1:3|0:0,0:0:0:0:
58,101,28769,1,2,0:0:0:0:
117,41,29102,1,8,0:0:0:0:
192,78,29436,6,0,P|268:73|308:60,2,70,2|10|2,1:3|0:0|0:0,0:0:0:0:
117,41,30436,1,8,0:0:0:0:
58,100,30769,2,0,P|71:156|73:253,1,140,2|2,1:3|0:0,0:0:0:0:
91,320,31769,1,8,0:0:0:0:
172,301,32102,6,0,P|166:263|163:209,2,70,4|8|2,1:0|0:0|0:0,0:0:0:0:
243,345,33102,1,8,0:0:0:0:
307,290,33436,2,0,P|336:295|389:310,1,70,2|8,1:3|0:0,0:0:0:0:
456,327,34102,2,0,P|461:298|476:245,1,70,2|10,0:0|0:0,0:0:0:0:
416,194,34769,5,2,1:3:0:0:
453,118,35102,1,8,0:0:0:0:
397,54,35436,1,2,0:0:0:0:
322,92,35769,1,8,0:0:0:0:
326,175,36102,2,0,P|320:265|292:312,1,140,2|2,1:3|0:0,0:0:0:0:
212,314,37102,1,8,0:0:0:0:
147,259,37436,6,0,L|164:162,1,70,4|8,1:0|0:0,0:0:0:0:
98,131,38102,2,0,L|115:34,1,70,2|8,0:0|0:0,0:0:0:0:
184,22,38769,1,2,1:3:0:0:
225,94,39102,1,8,0:0:0:0:
296,137,39436,2,0,L|379:113,1,70,2|8,0:0|0:0,0:0:0:0:
421,177,40102,5,2,1:3:0:0:
344,211,40436,2,0,L|235:244,1,70,10|2,0:0|0:0,0:0:0:0:
198,260,41102,1,8,0:0:0:0:
117,285,41436,1,2,1:3:0:0:
125,201,41769,1,2,1:3:0:0:
205,177,42102,1,2,1:3:0:0:
277,231,42436,1,2,1:3:0:0:
282,314,42769,6,0,P|364:290|403:250,1,140,6|2,1:0|0:1,0:0:0:0:
346,188,43769,1,8,0:0:0:0:
394,124,44102,2,0,L|471:151,2,70,2|8|2,1:3|1:2|1:1,0:0:0:0:
348,53,45102,1,8,0:0:0:0:
271,88,45436,6,0,L|179:102,1,70,2|8,1:3|0:0,0:0:0:0:
133,49,46102,2,0,L|41:63,1,70,2|8,0:1|0:0,0:0:0:0:
10,124,46769,2,0,P|28:196|35:278,1,140,2|4,1:3|0:0,0:0:0:0:
105,307,47769,1,12,0:0:0:0:
179,268,48102,6,0,P|219:273|275:268,2,70,6|8|2,1:1|0:0|0:1,0:0:0:0:
127,201,49102,1,8,0:0:0:0:
200,160,49436,2,0,P|205:81|208:42,1,70,2|8,1:3|1:2,0:0:0:0:
284,115,50102,2,0,P|286:149|288:184,1,70,2|8,0:1|0:0,0:0:0:0:
356,234,50769,5,2,1:3:0:0:
434,204,51102,1,8,1:2:0:0:
459,123,51436,1,2,1:1:0:0:
417,50,51769,1,8,0:0:0:0:
337,77,52102,2,0,P|258:77|185:81,1,140,2|4,1:3|0:0,0:0:0:0:
123,39,53102,1,12,0:0:0:0:
46,72,53436,6,0,P|62:149|62:166,1,70,6|8,1:0|1:2,0:0:0:0:
121,198,54102,1,2,0:1:0:0:
76,269,54436,1,8,0:0:0:0:
120,340,54769,2,0,P|181:341|219:337,1,70,2|8,1:3|1:2,0:0:0:0:
233,268,55436,2,0,P|294:266|332:270,1,70,2|8,1:1|0:0,0:0:0:0:
369,318,56102,5,2,1:3:0:0:
398,239,56436,2,0,P|378:187|369:148,2,70,8|2|8,0:0|0:1|0:0,0:0:0:0:
470,281,57436,2,0,P|492:228|479:127,1,140,2|4,1:3|0:0,0:0:0:0:
419,96,58436,1,12,0:0:0:0:
337,116,58769,6,0,L|261:126,1,70,6|8,1:1|0:0,0:0:0:0:
216,191,59436,2,0,L|140:201,1,70,2|8,1:1|0:0,0:0:0:0:
70,234,60102,2,0,P|29:187|21:152,2,70,2|8|2,1:3|1:2|0:1,0:0:0:0:
137,284,61102,1,8,0:0:0:0:
216,256,61436,6,0,L|284:278,1,70,2|8,1:3|1:2,0:0:0:0:
333,344,62102,1,2,1:1:0:0:
401,294,62436,1,8,0:0:0:0:
352,225,62769,2,0,P|349:177|354:72,1,140,2|4,1:3|0:0,0:0:0:0:
287,31,63769,1,2,0:0:0:0:
224,86,64102,6,0,P|166:92|124:86,2,70,4|8|0,1:0|0:0|0:0,0:0:0:0:
272,154,65102,1,8,0:0:0:0:
221,221,65436,2,0,P|214:285|211:323,2,70,2|8|0,1:3|0:0|0:0,0:0:0:0:
145,184,66436,1,8,0:0:0:0:
75,230,66769,6,0,P|21:198|9:127,1,140,2|0,1:3|0:0,0:0:0:0:
38,47,67769,1,8,0:0:0:0:
105,96,68102,2,0,L|179:106,1,70,2|8,1:3|0:0,0:0:0:0:
245,60,68769,2,0,L|319:70,1,70,0|8,0:0|0:0,0:0:0:0:
397,59,69436,6,0,P|392:122|391:221,1,140,4|0,1:0|0:0,0:0:0:0:
387,282,70436,1,8,0:0:0:0:
307,310,70769,2,0,P|268:296|228:288,1,70,2|8,1:3|0:0,0:0:0:0:
190,222,71436,2,0,P|202:177|209:137,1,70,0|8,0:0|0:0,0:0:0:0:
164,81,72102,5,2,1:3:0:0:
217,16,72436,1,8,0:0:0:0:
294,48,72769,1,0,0:0:0:0:
288,131,73102,1,8,0:0:0:0:
206,154,73436,2,0,P|199:188|168:299,1,140,2|0,1:3|0:0,0:0:0:0:
223,355,74436,1,8,0:0:0:0:
302,327,74769,5,4,1:0:0:0:
305,243,75102,2,0,L|385:264,2,70,10|0|12,0:0|0:0|0:0,0:0:0:0:
222,225,76102,2,0,P|236:155|237:129,1,70,2|8,1:3|0:0,0:0:0:0:
266,78,76769,1,0,0:0:0:0:
217,9,77102,1,8,0:0:0:0:
142,48,77436,5,2,1:3:0:0:
78,102,77769,2,0,L|-2:123,2,70,10|0|12,0:0|0:0|0:0,0:0:0:0:
131,166,78769,2,0,P|134:214|133:244,1,70,2|8,1:3|0:0,0:0:0:0:
106,315,79436,1,0,0:0:0:0:
170,368,79769,1,8,0:0:0:0:
240,322,80102,5,0,1:3:0:0:
248,238,80436,2,0,P|246:185|247:156,2,70,10|0|12,0:0|0:0|0:0,0:0:0:0:
318,283,81436,1,2,1:3:0:0:
375,222,81769,2,0,P|427:231|466:236,1,70,8|0,0:0|0:0,0:0:0:0:
496,167,82436,1,8,0:0:0:0:
484,83,82769,5,2,1:3:0:0:
403,107,83102,2,0,L|332:93,2,70,10|2|12,0:0|0:0|0:0,0:0:0:0:
421,24,84102,1,2,1:3:0:0:
338,6,84436,2,0,L|253:21,1,70,10|2,0:0|0:0,0:0:0:0:
223,88,85102,1,12,0:0:0:0:
142,64,85436,5,2,0:3:0:0:
23,183,86102,1,4,0:0:0:0:
127,314,86769,1,0,0:0:0:0:
179,248,87102,2,0,L|304:270,1,105,2|2,0:1|0:1,0:0:0:0:
369,175,88102,5,2,0:3:0:0:
427,332,88769,1,4,0:0:0:0:
260,354,89436,1,0,0:0:0:0:
195,300,89769,2,0,L|70:322,1,105,2|2,0:1|0:1,0:0:0:0:
17,215,90769,5,2,0:3:0:0:
75,155,91102,2,0,L|163:177,2,70,2|6|2,0:0|0:0|0:0,0:0:0:0:
32,82,92102,1,2,0:3:0:0:
89,20,92436,2,0,L|212:49,1,105,2|2,0:1|0:1,0:0:0:0:
256,192,93436,12,2,94769,2:0:0:0:
354,150,96102,6,0,P|339:201|330:242,1,70,6|8,1:0|1:2,0:0:0:0:
300,294,96769,2,0,P|243:279|206:263,1,70,2|8,0:1|0:0,0:0:0:0:
177,211,97436,1,2,1:3:0:0:
106,255,97769,1,8,1:2:0:0:
22,250,98102,2,0,P|35:187|43:150,1,70,2|8,1:1|0:0,0:0:0:0:
26,97,98769,5,2,1:3:0:0:
107,75,99102,2,0,P|116:32|121:-14,2,70,8|2|8,0:0|0:1|0:0,0:0:0:0:
107,159,100102,2,0,P|128:212|145:306,1,140,2|4,1:3|0:0,0:0:0:0:
216,336,101102,1,12,0:0:0:0:
254,259,101436,5,6,1:1:0:0:
335,279,101769,1,8,0:0:0:0:
394,220,102102,2,0,P|382:159|380:126,1,70,2|8,0:1|0:0,0:0:0:0:
397,68,102769,2,0,P|438:66|482:62,2,70,2|8|2,1:3|1:2|0:1,0:0:0:0:
320,33,103769,1,8,0:0:0:0:
250,79,104102,6,0,P|248:132|249:176,1,70,2|8,1:3|1:2,0:0:0:0:
299,215,104769,1,2,1:1:0:0:
244,279,105102,1,8,0:0:0:0:
160,266,105436,2,0,P|110:233|104:147,1,140,2|4,1:3|0:0,0:0:0:0:
64,81,106436,1,12,0:0:0:0:
138,42,106769,6,0,L|223:57,1,70,6|8,1:0|1:2,0:0:0:0:
276,101,107436,2,0,L|361:116,1,70,2|8,0:1|0:0,0:0:0:0:
419,75,108102,1,2,1:3:0:0:
465,145,108436,1,8,1:2:0:0:
398,196,108769,2,0,P|373:254|362:286,1,70,2|8,1:1|0:0,0:0:0:0:
316,324,109436,5,2,1:3:0:0:
390,362,109769,2,0,P|425:366|463:367,2,70,8|2|8,0:0|0:1|0:0,0:0:0:0:
385,277,110769,2,0,P|295:276|225:288,1,140,2|4,1:3|0:0,0:0:0:0:
161,284,111769,1,12,0:0:0:0:
128,205,112102,6,0,P|138:149|142:120,1,70,6|8,1:1|0:0,0:0:0:0:
122,53,112769,1,2,0:1:0:0:
203,33,113102,1,8,0:0:0:0:
226,113,113436,2,0,P|231:147|237:181,1,70,2|8,1:3|1:2,0:0:0:0:
290,247,114102,1,2,0:1:0:0:
363,205,114436,1,8,0:0:0:0:
420,266,114769,6,0,P|470:269|520:268,2,70,2|8|2,1:3|1:2|1:1,0:0:0:0:
352,316,115769,1,8,0:0:0:0:
276,279,116102,2,0,P|220:287|138:333,1,140,2|4,1:3|0:0,0:0:0:0:
70,288,117102,1,12,0:0:0:0:
110,214,117436,6,0,P|134:148|141:120,1,70,6|8,1:0|1:2,0:0:0:0:
104,69,118102,1,2,0:1:0:0:
172,19,118436,1,8,0:0:0:0:
216,90,118769,2,0,P|226:123|239:155,2,70,2|8|2,1:3|1:2|1:1,0:0:0:0:
266,23,119769,1,8,0:0:0:0:
339,62,120102,6,0,P|376:106|387:139,1,70,2|8,1:3|0:0,0:0:0:0:
443,173,120769,2,0,P|426:226|406:256,1,70,2|8,0:1|0:0,0:0:0:0:
445,318,121436,2,0,P|390:344|289:349,1,140,2|4,1:3|0:0,0:0:0:0:
239,309,122436,1,12,0:0:0:0:
185,244,122769,6,0,P|136:261|116:273,2,70,6|8|2,1:1|0:0|0:1,0:0:0:0:
221,168,123769,1,8,0:0:0:0:
288,218,124102,1,2,1:3:0:0:
356,168,124436,1,8,1:2:0:0:
327,89,124769,1,2,0:1:0:0:
244,75,125102,1,8,0:0:0:0:
171,117,125436,6,0,P|106:113|69:109,1,70,2|8,1:3|1:2,0:0:0:0:
17,102,126102,2,0,P|21:155|21:183,1,70,2|8,1:1|0:0,0:0:0:0:
28,255,126769,2,0,P|98:242|178:233,1,140,2|4,1:3|0:0,0:0:0:0:
230,287,127769,1,12,0:0:0:0:
306,252,128102,5,6,1:0:0:0:
368,308,128436,1,8,1:2:0:0:
443,270,128769,1,2,0:1:0:0:
442,186,129102,1,8,0:0:0:0:
371,140,129436,2,0,P|374:89|375:57,1,70,2|8,1:3|1:2,0:0:0:0:
310,16,130102,1,2,1:1:0:0:
246,71,130436,1,8,0:0:0:0:
250,154,130769,6,0,P|198:149|156:142,2,70,2|8|2,1:3|0:0|0:1,0:0:0:0:
298,222,131769,1,8,0:0:0:0:
225,263,132102,2,0,P|164:262|78:200,1,140,2|4,1:3|0:0,0:0:0:0:
67,144,133102,1,12,0:0:0:0:
79,60,133436,6,0,L|173:77,1,70,6|8,1:1|0:0,0:0:0:0:
227,45,134102,2,0,L|321:62,1,70,2|8,0:1|0:0,0:0:0:0:
365,104,134769,1,2,1:3:0:0:
429,50,135102,2,0,L|523:67,2,70,8|2|8,1:2|0:1|0:0,0:0:0:0:
359,2,136102,5,2,1:3:0:0:
296,57,136436,2,0,L|307:132,1,70,8|2,1:2|1:1,0:0:0:0:
252,191,137102,2,0,L|263:266,1,70,8|2,0:0|1:3,0:0:0:0:
266,344,137769,1,8,0:0:0:0:
182,353,138102,1,4,0:0:0:0:
98,359,138436,1,12,0:0:0:0:
14,365,138769,1,4,1:0:0:0:
