osu file format v14

[General]
AudioFilename: audio.mp3
AudioLeadIn: 0
PreviewTime: 1501
Countdown: 1
SampleSet: None
StackLeniency: 0.3
Mode: 0
LetterboxInBreaks: 0
WidescreenStoryboard: 0

[Editor]
DistanceSpacing: 1
BeatDivisor: 4
GridSize: 32
TimelineZoom: 3

[Metadata]
Title:the Earth is counting on you
TitleUnicode:the Earth is counting on you
Artist:Kola Kid
ArtistUnicode:Kola Kid
Creator:h4d0uk3n1
Version:tMb's hyper
Source:
Tags:chiptune 8-bit 8bit contra 88 teaMblack19
BeatmapID:1430977
BeatmapSetID:673494

[Difficulty]
HPDrainRate:5.5
CircleSize:3.5
OverallDifficulty:7.5
ApproachRate:9
SliderMultiplier:1.6
SliderTickRate:1

[Events]
//Background and Video events
0,0,"goodluck.jpg",0,0
//Break Periods
//Storyboard Layer 0 (Background)
//Storyboard Layer 1 (Fail)
//Storyboard Layer 2 (Pass)
//Storyboard Layer 3 (Foreground)
//Storyboard Sound Samples

[TimingPoints]
4644,285.714285714286,4,3,0,80,1,0
22930,-117.647058823529,4,3,0,65,0,0
41216,-100,4,3,0,65,0,0
59501,-100,4,3,0,80,0,0
77787,-166.666666666667,4,3,0,50,0,0

[Colours]
Combo1 : 128,128,255
Combo2 : 128,255,255
Combo3 : 255,255,128
Combo4 : 255,128,255

[HitObjects]
304,262,4643,5,4,0:0:0:0:
224,255,4786,1,0,0:0:0:0:
193,182,4929,2,0,P|231:174|268:189,1,80,0|0,0:0|0:0,0:0:0:0:
128,237,5215,2,0,B|110:201|110:201|114:162,1,80,2|0,1:3|0:0,0:0:0:0:
161,97,5501,2,0,L|200:100,3,40,0|0|0|0,0:0|0:0|0:0|0:0,0:0:0:0:
81,90,5787,5,4,0:0:0:0:
35,155,5930,1,4,0:0:0:0:
117,318,6073,2,0,L|123:238,1,80,0|0,0:0|0:0,0:0:0:0:
266,195,6358,2,0,B|227:202|227:202|190:188,1,80,2|0,1:3|0:0,0:0:0:0:
365,214,6644,1,0,0:0:0:0:
220,282,6787,1,0,0:0:0:0:
234,122,6930,5,4,0:0:0:0:
234,122,7073,1,4,0:0:0:0:
290,65,7215,2,0,P|326:50|365:58,1,80,0|0,0:0|0:0,0:0:0:0:
510,104,7501,2,0,B|473:89|473:89|434:97,1,80,2|0,1:3|0:0,0:0:0:0:
443,180,7786,1,8,0:0:0:0:
443,180,7929,1,8,0:0:0:0:
507,294,8072,6,0,L|513:214,1,80,4|4,0:0|0:0,0:0:0:0:
367,141,8358,1,0,0:0:0:0:
373,220,8501,2,0,L|379:299,1,80,0|0,0:0|0:0,0:0:0:0:
255,252,8786,1,0,0:0:0:0:
223,179,8929,2,0,B|261:171|261:171|298:185,1,80,2|0,1:3|0:0,0:0:0:0:
207,319,9215,5,4,0:0:0:0:
127,308,9358,1,4,0:0:0:0:
99,234,9501,2,0,P|138:229|174:244,1,80,0|0,0:0|0:0,0:0:0:0:
30,274,9786,2,0,B|19:236|19:236|30:198,1,80,2|0,1:3|0:0,0:0:0:0:
50,119,10072,2,0,L|89:115,3,40,0|0|0|0,0:0|0:0|0:0|0:0,0:0:0:0:
169,108,10358,5,4,0:0:0:0:
204,36,10501,1,4,0:0:0:0:
135,179,10644,2,0,L|141:258,1,80,0|0,0:0|0:0,0:0:0:0:
292,287,10929,2,0,B|253:280|253:280|216:293,1,80,2|0,1:3|0:0,0:0:0:0:
362,327,11215,1,0,0:0:0:0:
248,202,11358,1,0,0:0:0:0:
151,341,11501,5,4,0:0:0:0:
151,341,11644,1,4,0:0:0:0:
75,305,11787,2,0,L|68:225,1,80,0|0,0:0|0:0,0:0:0:0:
57,69,12072,2,0,B|70:106|70:106|63:145,1,80,2|0,1:3|0:0,0:0:0:0:
0,195,12358,1,8,0:0:0:0:
0,195,12501,1,8,0:0:0:0:
139,58,12644,6,0,L|218:51,1,80,4|4,0:0|0:0,0:0:0:0:
367,108,12930,1,0,0:0:0:0:
367,108,13072,2,0,L|287:101,1,80,0|0,0:0|0:0,0:0:0:0:
97,210,13358,1,0,0:0:0:0:
170,177,13501,2,0,B|207:163|207:163|245:169,1,80,2|0,1:3|0:0,0:0:0:0:
222,323,13786,5,4,0:0:0:0:
214,243,13929,1,4,0:0:0:0:
287,275,14072,2,0,P|300:312|295:351,1,80,0|0,0:0|0:0,0:0:0:0:
320,203,14358,2,0,B|357:189|357:189|397:195,1,80,2|0,1:3|0:0,0:0:0:0:
458,282,14643,2,0,L|462:243,3,40,0|0|0|0,0:0|0:0|0:0|0:0,0:0:0:0:
473,162,14929,5,4,0:0:0:0:
484,82,15072,1,4,0:0:0:0:
313,123,15215,2,0,L|319:202,1,80,0|0,0:0|0:0,0:0:0:0:
364,51,15501,2,0,B|326:37|326:37|287:42,1,80,2|0,1:3|0:0,0:0:0:0:
116,50,15786,1,0,0:0:0:0:
230,105,15929,1,0,0:0:0:0:
84,187,16072,5,4,0:0:0:0:
84,187,16216,1,4,0:0:0:0:
156,220,16358,2,0,L|162:299,1,80,0|0,0:0|0:0,0:0:0:0:
20,353,16644,2,0,B|57:337|57:337|95:348,1,80,2|0,1:3|0:0,0:0:0:0:
173,384,16930,1,8,0:0:0:0:
173,384,17072,1,8,0:0:0:0:
52,260,17216,6,0,L|45:180,1,80,4|4,0:0|0:0,0:0:0:0:
153,43,17501,1,0,0:0:0:0:
146,122,17644,2,0,L|139:201,1,80,0|0,0:0|0:0,0:0:0:0:
226,302,17930,1,0,0:0:0:0:
227,222,18073,2,0,B|231:181|231:181|260:150,1,80,2|0,1:3|0:0,0:0:0:0:
386,208,18358,5,4,0:0:0:0:
307,217,18501,1,4,0:0:0:0:
336,143,18644,2,0,P|375:127|416:133,1,80,0|0,0:0|0:0,0:0:0:0:
388,284,18930,2,0,B|376:247|376:247|386:207,1,80,2|0,1:3|0:0,0:0:0:0:
442,60,19216,2,0,L|457:23,3,40,0|0|0|0,0:0|0:0|0:0|0:0,0:0:0:0:
411,131,19501,5,4,0:0:0:0:
462,191,19644,1,4,0:0:0:0:
362,67,19787,2,0,L|282:71,1,80,0|0,0:0|0:0,0:0:0:0:
196,175,20073,2,0,B|189:137|189:137|207:100,1,80,2|0,1:3|0:0,0:0:0:0:
271,149,20358,1,0,0:0:0:0:
159,35,20501,1,0,0:0:0:0:
318,0,20644,5,4,0:0:0:0:
318,0,20787,1,4,0:0:0:0:
362,67,20930,2,0,L|356:153,1,80,0|0,0:0|0:0,0:0:0:0:
342,304,21216,2,0,B|357:266|357:266|352:227,1,80,2|0,1:3|0:0,0:0:0:0:
288,183,21501,1,8,0:0:0:0:
288,183,21644,1,8,0:0:0:0:
194,265,21787,6,0,L|273:258,1,80,4|4,0:0|0:0,0:0:0:0:
127,192,22073,1,0,0:0:0:0:
127,192,22216,2,0,L|206:185,1,80,0|0,0:0|0:0,0:0:0:0:
48,196,22501,1,0,0:0:0:0:
14,272,22644,2,0,B|54:281|54:281|91:268,1,80,2|0,1:3|0:0,0:0:0:0:
83,128,22930,5,4,0:0:0:0:
83,128,23073,1,0,0:0:0:0:
182,43,23216,2,0,P|176:76|158:104,1,68.0000012969971,0|0,0:0|0:0,0:0:0:0:
36,59,23501,2,0,B|67:45|67:45|102:48,1,68.0000012969971,2|0,1:3|0:0,0:0:0:0:
264,52,23787,2,0,L|304:56,3,34.0000006484985,0|0|0|0,0:0|0:0|0:0|0:0,0:0:0:0:
186,47,24073,5,4,0:0:0:0:
186,47,24216,1,4,0:0:0:0:
273,198,24358,2,0,L|267:130,1,68.0000012969971,0|0,0:0|0:0,0:0:0:0:
229,262,24644,2,0,B|258:277|258:277|295:274,1,68.0000012969971,2|0,1:3|0:0,0:0:0:0:
372,250,24930,1,0,0:0:0:0:
449,223,25073,1,0,0:0:0:0:
387,173,25216,5,4,0:0:0:0:
387,173,25358,1,4,0:0:0:0:
433,305,25501,2,0,L|427:372,1,68.0000012969971,0|0,0:0|0:0,0:0:0:0:
449,223,25787,2,0,B|483:217|483:217|514:229,1,68.0000012969971,2|0,1:3|0:0,0:0:0:0:
372,250,26073,1,8,0:0:0:0:
372,250,26216,1,8,0:0:0:0:
296,216,26358,6,0,L|288:140,1,68.0000012969971,4|4,0:0|0:0,0:0:0:0:
223,102,26644,1,0,0:0:0:0:
158,146,26787,2,0,L|150:225,1,68.0000012969971,0|0,0:0|0:0,0:0:0:0:
85,259,27073,1,0,0:0:0:0:
19,214,27216,2,0,B|8:181|8:181|16:148,1,68.0000012969971,2|0,1:3|0:0,0:0:0:0:
82,6,27501,5,4,0:0:0:0:
82,6,27644,1,4,0:0:0:0:
42,74,27787,2,0,P|74:84|107:80,1,68.0000012969971,0|0,0:0|0:0,0:0:0:0:
187,80,28073,2,0,B|179:115|179:115|185:146,1,68.0000012969971,2|0,1:3|0:0,0:0:0:0:
241,201,28358,2,0,L|274:198,3,34.0000006484985,0|0|0|0,0:0|0:0|0:0|0:0,0:0:0:0:
359,196,28644,5,4,0:0:0:0:
359,196,28787,1,4,0:0:0:0:
421,86,28930,2,0,L|426:154,1,68.0000012969971,0|0,0:0|0:0,0:0:0:0:
385,19,29216,2,0,B|417:6|417:6|449:14,1,68.0000012969971,2|0,1:3|0:0,0:0:0:0:
498,191,29501,1,0,0:0:0:0:
430,235,29644,1,0,0:0:0:0:
346,89,29787,5,4,0:0:0:0:
346,89,29930,1,4,0:0:0:0:
339,167,30073,2,0,L|334:238,1,68.0000012969971,0|0,0:0|0:0,0:0:0:0:
320,377,30358,2,0,B|332:347|332:347|326:312,1,68.0000012969971,2|0,1:3|0:0,0:0:0:0:
262,265,30644,1,8,0:0:0:0:
262,265,30787,1,8,0:0:0:0:
401,284,30930,6,0,L|480:278,1,68.0000012969971,4|4,0:0|0:0,0:0:0:0:
464,202,31216,1,0,0:0:0:0:
458,124,31358,2,0,L|389:128,1,68.0000012969971,0|0,0:0|0:0,0:0:0:0:
310,135,31643,1,0,0:0:0:0:
276,63,31786,2,0,B|309:53|309:53|341:61,1,68.0000012969971,2|0,1:3|0:0,0:0:0:0:
286,215,32072,5,4,0:0:0:0:
286,215,32215,1,4,0:0:0:0:
170,150,32358,2,0,P|203:140|236:149,1,68.0000012969971,0|0,0:0|0:0,0:0:0:0:
99,196,32644,2,0,B|87:162|87:162|95:124,1,68.0000012969971,2|0,1:3|0:0,0:0:0:0:
204,220,32930,2,0,L|206:253,3,34.0000006484985,0|0|0|0,0:0|0:0|0:0|0:0,0:0:0:0:
211,335,33216,5,4,0:0:0:0:
211,335,33358,1,4,0:0:0:0:
60,319,33501,2,0,L|128:325,1,68.0000012969971,0|0,0:0|0:0,0:0:0:0:
26,246,33787,2,0,B|20:212|20:212|29:179,1,68.0000012969971,2|0,1:3|0:0,0:0:0:0:
114,45,34073,1,0,0:0:0:0:
71,113,34216,1,0,0:0:0:0:
37,42,34358,5,4,0:0:0:0:
37,42,34501,1,4,0:0:0:0:
149,117,34644,2,0,L|217:115,1,68.0000012969971,0|0,0:0|0:0,0:0:0:0:
200,258,34930,2,0,B|191:225|191:225|199:191,1,68.0000012969971,2|0,1:3|0:0,0:0:0:0:
244,329,35216,1,8,0:0:0:0:
244,329,35358,1,8,0:0:0:0:
324,321,35501,6,0,L|392:316,1,68.0000012969971,4|4,0:0|0:0,0:0:0:0:
413,239,35787,1,0,0:0:0:0:
373,169,35930,2,0,L|302:173,1,68.0000012969971,0|0,0:0|0:0,0:0:0:0:
256,109,36216,1,0,0:0:0:0:
300,41,36358,2,0,B|332:30|332:30|366:38,1,68.0000012969971,2|0,1:3|0:0,0:0:0:0:
260,113,36644,5,4,0:0:0:0:
260,113,36787,1,4,0:0:0:0:
133,173,36930,2,0,P|166:177|198:166,1,68.0000012969971,0|0,0:0|0:0,0:0:0:0:
163,31,37216,2,0,B|151:65|151:65|157:96,1,68.0000012969971,2|0,1:3|0:0,0:0:0:0:
218,246,37501,2,0,L|251:242,3,34.0000006484985,0|0|0|0,0:0|0:0|0:0|0:0,0:0:0:0:
139,257,37787,5,4,0:0:0:0:
139,257,37930,1,4,0:0:0:0:
49,196,38073,2,0,L|54:263,1,68.0000012969971,0|0,0:0|0:0,0:0:0:0:
196,142,38358,2,0,B|176:113|176:113|145:101,1,68.0000012969971,2|0,1:3|0:0,0:0:0:0:
70,121,38644,1,0,0:0:0:0:
124,177,38787,1,0,0:0:0:0:
249,75,38930,5,4,0:0:0:0:
249,75,39073,1,4,0:0:0:0:
302,135,39216,2,0,L|299:212,1,68.0000012969971,0|0,0:0|0:0,0:0:0:0:
289,347,39501,2,0,B|300:316|300:316|295:281,1,68.0000012969971,2|0,1:3|0:0,0:0:0:0:
228,238,39787,1,8,0:0:0:0:
228,238,39930,1,8,0:0:0:0:
369,245,40073,6,0,L|374:177,1,68.0000012969971,4|4,0:0|0:0,0:0:0:0:
440,133,40358,1,0,0:0:0:0:
502,180,40501,2,0,L|507:247,1,68.0000012969971,0|0,0:0|0:0,0:0:0:0:
438,285,40787,1,0,0:0:0:0:
369,245,40930,2,0,B|337:235|337:235|304:244,1,68.0000012969971,2|0,1:3|0:0,0:0:0:0:
143,338,41216,5,4,0:0:0:0:
149,258,41358,1,4,0:0:0:0:
154,178,41501,2,0,L|158:98,1,80,0|0,0:0|0:0,0:0:0:0:
75,293,41787,1,2,1:3:0:0:
68,213,41930,1,0,0:0:0:0:
61,133,42073,2,0,L|58:93,3,40,0|0|0|0,0:0|0:0|0:0|0:0,0:0:0:0:
117,35,42358,5,4,0:0:0:0:
191,64,42501,1,4,0:0:0:0:
204,222,42644,2,0,L|198:143,1,80,0|0,0:0|0:0,0:0:0:0:
268,104,42930,1,2,1:3:0:0:
268,104,43073,1,0,0:0:0:0:
191,247,43216,2,0,L|185:167,1,80,0|0,0:0|0:0,0:0:0:0:
343,126,43501,5,4,0:0:0:0:
309,198,43644,2,0,L|275:270,1,80,4|0,0:0|0:0,0:0:0:0:
103,146,43929,5,0,0:0:0:0:
183,139,44072,2,0,L|262:132,1,80,2|0,1:3|0:0,0:0:0:0:
241,343,44358,5,8,0:0:0:0:
195,277,44501,2,0,L|149:211,1,80,8|4,0:0|0:0,0:0:0:0:
57,82,44787,5,4,0:0:0:0:
103,146,44930,1,0,0:0:0:0:
72,219,45073,2,0,L|66:301,1,80,0|0,0:0|0:0,0:0:0:0:
149,211,45358,1,0,0:0:0:0:
183,139,45501,2,0,L|188:59,1,80,2|0,1:3|0:0,0:0:0:0:
249,4,45787,5,4,0:0:0:0:
317,40,45930,1,4,0:0:0:0:
324,197,46073,2,0,P|312:157|320:121,1,80,0|0,0:0|0:0,0:0:0:0:
388,76,46358,1,2,1:3:0:0:
395,156,46501,1,0,0:0:0:0:
324,273,46644,2,0,L|284:270,3,40,0|0|0|0,0:0|0:0|0:0|0:0,0:0:0:0:
203,262,46930,5,4,0:0:0:0:
250,198,47073,1,4,0:0:0:0:
130,145,47216,2,0,L|133:224,1,80,0|0,0:0|0:0,0:0:0:0:
199,100,47501,1,2,1:3:0:0:
199,100,47644,1,0,0:0:0:0:
114,177,47787,2,0,L|118:256,1,80,0|0,0:0|0:0,0:0:0:0:
296,234,48073,5,4,0:0:0:0:
304,154,48216,2,0,L|311:74,1,80,4|0,0:0|0:0,0:0:0:0:
213,259,48501,5,0,0:0:0:0:
205,179,48644,2,0,L|198:99,1,80,2|0,1:3|0:0,0:0:0:0:
376,275,48930,5,8,0:0:0:0:
388,195,49073,2,0,L|396:115,1,80,8|4,0:0|0:0,0:0:0:0:
406,36,49358,5,4,0:0:0:0:
471,82,49501,1,0,0:0:0:0:
332,64,49644,2,0,L|252:56,1,80,0|0,0:0|0:0,0:0:0:0:
102,126,49930,1,0,0:0:0:0:
170,172,50073,2,0,B|186:136|186:136|180:95,1,80,2|0,1:3|0:0,0:0:0:0:
23,100,50358,5,4,0:0:0:0:
29,179,50501,1,4,0:0:0:0:
36,259,50644,2,0,L|42:338,1,80,0|0,0:0|0:0,0:0:0:0:
170,172,50930,1,2,1:3:0:0:
166,252,51073,1,0,0:0:0:0:
162,331,51216,2,0,L|160:371,3,40,0|0|0|0,0:0|0:0|0:0|0:0,0:0:0:0:
237,294,51501,5,4,0:0:0:0:
315,273,51644,1,4,0:0:0:0:
460,295,51787,2,0,P|424:312|385:311,1,80,0|0,0:0|0:0,0:0:0:0:
410,232,52073,1,2,1:3:0:0:
410,232,52216,1,0,0:0:0:0:
463,326,52358,2,0,P|427:342|388:340,1,80,0|0,0:0|0:0,0:0:0:0:
393,154,52644,5,4,0:0:0:0:
313,165,52787,2,0,P|276:177|250:207,1,80,4|0,0:0|0:0,0:0:0:0:
181,341,53073,5,0,0:0:0:0:
239,287,53216,2,0,P|255:252|254:212,1,80,2|0,1:3|0:0,0:0:0:0:
155,83,53501,5,8,0:0:0:0:
184,158,53644,2,0,P|209:188|245:203,1,80,8|4,0:0|0:0,0:0:0:0:
332,92,53930,5,4,0:0:0:0:
260,124,54073,1,0,0:0:0:0:
327,169,54216,2,0,P|331:212|319:250,1,80,0|0,0:0|0:0,0:0:0:0:
402,138,54501,1,0,0:0:0:0:
464,189,54644,2,0,B|472:227|472:227|459:266,1,80,2|0,1:3|0:0,0:0:0:0:
480,113,54930,5,4,0:0:0:0:
487,33,55073,1,4,0:0:0:0:
412,64,55216,2,0,L|332:69,1,80,0|0,0:0|0:0,0:0:0:0:
261,20,55501,1,2,1:3:0:0:
255,99,55644,1,0,0:0:0:0:
249,178,55787,2,0,L|246:217,3,40,0|0|0|0,0:0|0:0|0:0|0:0,0:0:0:0:
181,129,56073,5,4,0:0:0:0:
113,85,56216,1,4,0:0:0:0:
46,203,56358,2,0,P|84:192|110:163,1,80,0|0,0:0|0:0,0:0:0:0:
40,123,56644,1,2,1:3:0:0:
40,123,56787,1,0,0:0:0:0:
66,234,56930,2,0,P|102:220|128:190,1,80,0|0,0:0|0:0,0:0:0:0:
203,68,57216,5,4,0:0:0:0:
208,145,57358,2,0,L|214:224,1,80,4|0,0:0|0:0,0:0:0:0:
372,212,57644,5,0,0:0:0:0:
366,134,57786,2,0,L|359:54,1,80,2|0,1:3|0:0,0:0:0:0:
215,225,58073,5,8,0:0:0:0:
293,219,58216,1,8,0:0:0:0:
359,54,58358,6,0,L|319:57,3,40,4|0|4|0,0:0|0:0|0:0|0:0,0:0:0:0:
366,134,58644,2,0,L|405:130,3,40,0|0|0|0,0:0|0:0|0:0|0:0,0:0:0:0:
372,212,58930,2,0,L|332:215,3,40,0|0|0|0,0:0|0:0|0:0|0:0,0:0:0:0:
251,221,59216,6,0,L|231:222,6,20,2|0|0|0|0|0|0,0:3|0:0|0:0|0:0|0:0|0:0|0:0,0:0:0:0:
286,146,59501,5,4,0:0:0:0:
294,66,59644,1,4,0:0:0:0:
224,26,59787,2,0,P|212:63|220:103,1,80,0|0,0:0|0:0,0:0:0:0:
436,119,60073,2,0,B|398:104|398:104|360:113,1,80,2|0,1:3|0:0,0:0:0:0:
286,146,60358,2,0,L|283:185,3,40,0|0|0|0,0:0|0:0|0:0|0:0,0:0:0:0:
294,66,60644,5,4,0:0:0:0:
224,26,60787,1,4,0:0:0:0:
73,121,60930,2,0,L|153:127,1,80,0|0,0:0|0:0,0:0:0:0:
180,279,61215,2,0,B|172:240|172:240|184:202,1,80,2|0,1:3|0:0,0:0:0:0:
216,355,61501,1,0,0:0:0:0:
94,237,61644,1,0,0:0:0:0:
266,208,61787,5,4,0:0:0:0:
266,208,61930,1,4,0:0:0:0:
332,253,62073,2,0,P|342:288|329:331,1,80,0|0,0:0|0:0,0:0:0:0:
408,214,62358,2,0,B|421:177|421:177|407:136,1,80,2|0,1:3|0:0,0:0:0:0:
329,0,62644,1,8,0:0:0:0:
329,0,62787,1,8,0:0:0:0:
367,68,62930,6,0,P|329:79|291:71,1,80,4|4,0:0|0:0,0:0:0:0:
211,81,63216,1,0,0:0:0:0:
257,145,63358,2,0,P|218:159|180:152,1,80,0|0,0:0|0:0,0:0:0:0:
101,164,63644,1,0,0:0:0:0:
147,230,63787,2,0,B|111:248|111:248|72:238,1,80,2|0,1:3|0:0,0:0:0:0:
195,290,64073,5,4,0:0:0:0:
274,305,64216,1,4,0:0:0:0:
328,245,64358,2,0,P|302:230|251:230,1,80,0|0,0:0|0:0,0:0:0:0:
101,164,64644,2,0,B|137:147|137:147|176:155,1,80,2|0,1:3|0:0,0:0:0:0:
68,238,64930,2,0,L|20:244,3,40,0|0|0|0,0:0|0:0|0:0|0:0,0:0:0:0:
147,230,65215,5,4,0:0:0:0:
101,164,65358,1,4,0:0:0:0:
194,298,65501,2,0,L|273:304,1,80,0|0,0:0|0:0,0:0:0:0:
307,177,65787,2,0,B|295:138|295:138|307:101,1,80,2|0,1:3|0:0,0:0:0:0:
335,251,66073,1,0,0:0:0:0:
217,128,66215,1,0,0:0:0:0:
357,39,66358,5,4,0:0:0:0:
357,39,66501,1,4,0:0:0:0:
217,128,66644,2,0,L|137:124,1,80,0|0,0:0|0:0,0:0:0:0:
0,178,66930,2,0,B|39:192|39:192|75:179,1,80,2|0,1:3|0:0,0:0:0:0:
43,107,67216,1,8,0:0:0:0:
43,107,67358,1,8,0:0:0:0:
34,272,67501,6,0,L|28:351,1,80,4|4,0:0|0:0,0:0:0:0:
165,254,67787,1,0,0:0:0:0:
165,254,67930,2,0,L|113:315,1,80,0|0,0:0|0:0,0:0:0:0:
352,364,68216,1,0,0:0:0:0:
285,319,68358,2,0,B|245:307|245:307|210:323,1,80,2|0,1:3|0:0,0:0:0:0:
359,287,68644,5,4,0:0:0:0:
366,209,68787,1,4,0:0:0:0:
293,242,68930,2,0,P|279:278|284:318,1,80,0|0,0:0|0:0,0:0:0:0:
262,169,69215,2,0,B|225:155|225:155|186:169,1,80,2|0,1:3|0:0,0:0:0:0:
120,213,69501,2,0,L|123:252,3,40,0|0|0|0,0:0|0:0|0:0|0:0,0:0:0:0:
112,136,69787,5,4,0:0:0:0:
103,56,69930,1,4,0:0:0:0:
270,89,70073,2,0,L|262:171,1,80,0|0,0:0|0:0,0:0:0:0:
228,18,70358,2,0,B|265:4|265:4|305:13,1,80,2|0,1:3|0:0,0:0:0:0:
472,34,70644,1,0,0:0:0:0:
353,81,70787,1,0,0:0:0:0:
507,167,70930,5,4,0:0:0:0:
507,167,71073,1,4,0:0:0:0:
429,198,71215,2,0,L|424:277,1,80,0|0,0:0|0:0,0:0:0:0:
273,317,71501,2,0,B|309:302|309:302|348:311,1,80,2|0,1:3|0:0,0:0:0:0:
420,362,71787,1,8,0:0:0:0:
420,362,71930,1,8,0:0:0:0:
342,226,72073,6,0,P|303:218|266:231,1,80,4|4,0:0|0:0,0:0:0:0:
255,152,72358,1,0,0:0:0:0:
250,72,72501,2,0,P|287:60|326:68,1,80,0|0,0:0|0:0,0:0:0:0:
182,115,72787,1,0,0:0:0:0:
112,77,72930,2,0,B|73:65|73:65|36:80,1,80,2|0,1:3|0:0,0:0:0:0:
84,234,73215,5,4,0:0:0:0:
163,228,73358,1,4,0:0:0:0:
117,162,73501,2,0,P|78:153|41:166,1,80,0|0,0:0|0:0,0:0:0:0:
81,310,73787,2,0,B|93:270|93:270|83:233,1,80,2|0,1:3|0:0,0:0:0:0:
13,93,74073,2,0,L|0:55,3,40,0|0|0|0,0:0|0:0|0:0|0:0,0:0:0:0:
41,166,74358,5,4,0:0:0:0:
3,236,74501,1,4,0:0:0:0:
91,102,74644,2,0,L|170:106,1,80,0|0,0:0|0:0,0:0:0:0:
251,126,74930,2,0,B|258:86|258:86|239:51,1,80,2|0,1:3|0:0,0:0:0:0:
195,182,75215,1,0,0:0:0:0:
337,79,75358,1,0,0:0:0:0:
163,28,75501,5,4,0:0:0:0:
163,28,75644,1,4,0:0:0:0:
110,89,75787,2,0,L|115:168,1,80,0|0,0:0|0:0,0:0:0:0:
131,325,76073,2,0,B|115:286|115:286|120:248,1,80,2|0,1:3|0:0,0:0:0:0:
194,205,76358,1,8,0:0:0:0:
194,205,76501,1,8,0:0:0:0:
353,196,76644,6,0,L|273:200,1,80,4|4,0:0|0:0,0:0:0:0:
360,280,76930,1,0,0:0:0:0:
360,280,77073,2,0,L|444:274,1,80,0|0,0:0|0:0,0:0:0:0:
348,98,77358,1,0,0:0:0:0:
267,100,77501,2,0,B|227:114|227:114|190:104,1,80,2|0,1:3|0:0,0:0:0:0:
87,31,77787,6,0,B|122:46|155:29|155:29|188:12|225:30,1,143.999995605469,4|0,0:0|0:0,0:0:0:0:
226,30,78501,2,0,P|246:42|262:60,1,47.9999985351563,0|0,0:0|0:0,0:0:0:0:
196,196,78786,1,0,0:0:0:0:
196,196,78930,6,0,P|180:150|191:105,1,95.9999970703126,0|0,0:0|0:0,0:0:0:0:
358,154,79358,2,0,L|309:151,1,47.9999985351563,0|0,0:0|0:0,0:0:0:0:
262,148,79644,1,0,0:0:0:0:
47,97,79930,1,0,0:0:0:0:
47,97,80073,6,0,L|142:101,1,95.9999970703126,0|0,0:0|0:0,0:0:0:0:
190,105,80501,1,0,0:0:0:0:
110,231,80787,1,0,0:0:0:0:
277,285,81073,1,0,0:0:0:0:
277,285,81216,6,0,B|290:238|290:238|276:192,1,95.9999970703126,0|0,0:0|0:0,0:0:0:0:
110,231,81644,2,0,L|157:235,1,47.9999985351563,0|0,0:0|0:0,0:0:0:0:
205,240,81930,1,0,0:0:0:0:
368,254,82216,1,0,0:0:0:0:
368,254,82358,6,0,B|387:221|427:214|427:214|466:233|472:265,1,143.999995605469,4|0,0:0|0:0,0:0:0:0:
472,264,83072,2,0,P|474:287|470:311,1,47.9999985351563,0|0,0:0|0:0,0:0:0:0:
387,143,83358,1,0,0:0:0:0:
387,143,83501,6,0,P|433:134|476:153,1,95.9999970703126,0|0,0:0|0:0,0:0:0:0:
310,172,83930,2,0,L|304:124,1,47.9999985351563,0|0,0:0|0:0,0:0:0:0:
300,76,84216,1,0,0:0:0:0:
310,258,84501,1,0,0:0:0:0:
310,258,84644,6,0,L|300:353,1,95.9999970703126,0|0,0:0|0:0,0:0:0:0:
300,353,85073,1,0,0:0:0:0:
229,247,85358,1,0,0:0:0:0:
383,114,85644,1,0,0:0:0:0:
383,114,85787,6,0,P|348:84|300:83,1,95.9999970703126,0|0,0:0|0:0,0:0:0:0:
310,258,86216,2,0,L|314:210,1,47.9999985351563,0|0,0:0|0:0,0:0:0:0:
320,162,86501,1,0,0:0:0:0:
100,135,86787,1,0,0:0:0:0:
243,142,86930,6,0,B|211:125|176:142|176:142|140:157|104:139,1,143.999995605469,2|0,0:3|0:0,0:0:0:0:
104,139,87644,2,0,L|108:186,1,47.9999985351563,0|0,0:0|0:0,0:0:0:0:
215,216,87928,1,0,0:0:0:0:
215,216,88072,6,0,L|206:311,1,95.9999970703126,0|0,0:0|0:0,0:0:0:0:
294,298,88501,2,0,L|298:250,1,47.9999985351563,0|0,0:0|0:0,0:0:0:0:
298,250,88785,1,0,0:0:0:0:
129,295,89071,1,0,0:0:0:0:
129,295,89215,6,0,P|130:342|158:379,1,95.9999970703126,0|0,0:0|0:0,0:0:0:0:
158,379,89644,1,0,0:0:0:0:
302,254,89930,1,0,0:0:0:0:
223,110,90216,1,0,0:0:0:0:
223,110,90358,6,0,L|228:206,1,95.9999970703126,0|0,0:0|0:0,0:0:0:0:
303,111,90787,2,0,L|306:63,1,47.9999985351563,0|0,0:0|0:0,0:0:0:0:
306,63,91073,1,0,0:0:0:0:
84,111,91358,1,0,0:0:0:0:
84,111,91501,6,0,B|131:102|131:102|177:119|177:119|223:110,1,143.999995605469,4|0,0:0|0:0,0:0:0:0:
223,110,92215,2,0,L|218:157,1,47.9999985351563,0|0,0:0|0:0,0:0:0:0:
390,269,92501,1,0,0:0:0:0:
390,269,92644,6,0,P|408:226|400:180,1,95.9999970703126,0|0,0:0|0:0,0:0:0:0:
273,221,93073,2,0,L|320:215,1,47.9999985351563,0|0,0:0|0:0,0:0:0:0:
320,215,93358,1,0,0:0:0:0:
193,139,93644,1,0,0:0:0:0:
193,139,93787,6,0,L|187:234,1,95.9999970703126,0|0,0:0|0:0,0:0:0:0:
187,234,94216,1,0,0:0:0:0:
115,104,94501,1,0,0:0:0:0:
376,137,94787,1,0,0:0:0:0:
295,140,94930,6,0,L|271:141,11,23.9999992675781,0|0|0|0|0|0|0|0|0|0|0|0,0:0|0:0|0:0|0:0|0:0|0:0|0:0|0:0|0:0|0:0|0:0|0:0,0:0:0:0:
332,66,95787,6,0,L|343:65,8,11.9999996337891,2|0|0|0|0|0|0|0|0,0:3|0:0|0:0|0:0|0:0|0:0|0:0|0:0|0:0,0:0:0:0:
