osu file format v14

[General]
AudioFilename: audio.mp3
AudioLeadIn: 0
PreviewTime: 1501
Countdown: 1
SampleSet: None
StackLeniency: 0.4
Mode: 0
LetterboxInBreaks: 0
WidescreenStoryboard: 0

[Editor]
Bookmarks: 4644,22930,41216,59501,77787,96072
DistanceSpacing: 1
BeatDivisor: 2
GridSize: 4
TimelineZoom: 1.399999

[Metadata]
Title:the Earth is counting on you
TitleUnicode:the Earth is counting on you
Artist:Kola Kid
ArtistUnicode:Kola Kid
Creator:h4d0uk3n1
Version:normal
Source:
Tags:chiptune 8-bit 8bit contra 88 teaMblack19
BeatmapID:1427283
BeatmapSetID:673494

[Difficulty]
HPDrainRate:4.5
CircleSize:2
OverallDifficulty:4.5
ApproachRate:5.5
SliderMultiplier:0.86
SliderTickRate:2

[Events]
//Background and Video events
0,0,"goodluck.jpg",0,0
//Break Periods
2,78700,81233
2,83272,85804
2,87843,90376
2,92415,93804
//Storyboard Layer 0 (Background)
//Storyboard Layer 1 (Fail)
//Storyboard Layer 2 (Pass)
//Storyboard Layer 3 (Foreground)
//Storyboard Sound Samples

[TimingPoints]
4644,285.714285714286,4,3,0,80,1,0
22929,-100,4,3,0,65,0,0
59501,-100,4,3,0,80,0,0
77786,-100,4,3,0,50,0,0
77929,-100,4,3,0,5,0,0
78501,-100,4,3,0,50,0,0
82501,-100,4,3,0,5,0,0
83072,-100,4,3,0,50,0,0
87072,-100,4,3,0,5,0,0
87644,-100,4,3,0,50,0,0
91644,-100,4,3,0,5,0,0
92215,-100,4,3,0,50,0,0

[Colours]
Combo1 : 115,107,154
Combo2 : 12,255,225
Combo3 : 255,214,135
Combo4 : 255,33,124

[HitObjects]
56,41,4643,6,0,L|156:49,1,86,4|4,0:0|0:0,0:0:0:0:
228,57,5215,1,2,1:3:0:0:
303,98,5501,2,0,L|386:93,1,43,0|0,0:0|0:0,0:0:0:0:
388,91,5786,2,0,L|384:208,1,86,4|0,0:0|0:0,0:0:0:0:
383,263,6358,1,2,1:3:0:0:
314,315,6644,1,0,0:0:0:0:
232,287,6929,6,0,L|112:283,1,86,4|0,0:0|0:0,0:0:0:0:
59,280,7501,1,2,1:3:0:0:
54,194,7786,2,0,L|52:131,1,43,8|8,0:0|0:0,0:0:0:0:
80,117,8072,2,0,P|95:56|147:22,2,129,4|0|2,0:0|0:0|1:3,0:0:0:0:
166,106,9215,6,0,P|204:141|277:149,1,86,4|0,0:0|0:0,0:0:0:0:
321,147,9786,1,2,1:3:0:0:
398,109,10072,2,0,L|466:114,1,43,0|0,0:0|0:0,0:0:0:0:
474,139,10358,2,0,P|459:179|459:222,1,86,4|0,0:0|0:0,0:0:0:0:
496,299,10929,1,2,1:3:0:0:
426,349,11215,1,0,0:0:0:0:
345,317,11501,6,0,L|229:313,1,86,4|0,0:0|0:0,0:0:0:0:
173,310,12072,1,2,1:3:0:0:
165,224,12358,2,0,L|160:157,1,43,8|8,0:0|0:0,0:0:0:0:
157,138,12644,2,0,P|102:122|54:38,2,129,4|0|2,0:0|0:0|1:3,0:0:0:0:
240,118,13786,6,0,P|295:107|362:117,1,86,4|0,0:0|0:0,0:0:0:0:
407,134,14358,1,2,1:3:0:0:
403,219,14644,2,0,L|400:275,1,43,0|0,0:0|0:0,0:0:0:0:
398,304,14929,2,0,L|275:321,1,86,4|0,0:0|0:0,0:0:0:0:
226,325,15501,1,2,1:3:0:0:
150,283,15786,1,0,0:0:0:0:
163,197,16072,6,0,L|179:87,1,86,4|0,0:0|0:0,0:0:0:0:
186,26,16644,1,2,1:3:0:0:
271,34,16929,2,0,L|340:39,1,43,8|8,0:0|0:0,0:0:0:0:
344,67,17215,2,0,L|507:60,2,129,4|0|2,0:0|0:0|1:3,0:0:0:0:
277,121,18358,6,0,L|187:114,1,86,4|0,0:0|0:0,0:0:0:0:
140,183,18929,1,2,1:3:0:0:
175,261,19215,2,0,L|219:264,1,43,0|0,0:0|0:0,0:0:0:0:
253,287,19501,2,0,L|362:283,1,86,4|0,0:0|0:0,0:0:0:0:
424,278,20072,1,2,1:3:0:0:
462,200,20358,1,0,0:0:0:0:
439,116,20644,6,0,L|313:106,1,86,4|0,0:0|0:0,0:0:0:0:
267,101,21215,1,2,1:3:0:0:
217,171,21501,2,0,L|151:176,1,43,8|8,0:0|0:0,0:0:0:0:
131,179,21786,2,0,P|142:248|111:323,2,129,4|0|2,0:0|0:0|1:3,0:0:0:0:
96,99,22929,6,0,P|106:52|144:17,1,86,4|0,0:0|0:0,0:0:0:0:
216,15,23501,1,2,1:3:0:0:
295,48,23786,1,0,0:0:0:0:
273,130,24072,2,0,P|276:173|299:209,2,86,4|0|2,0:0|0:0|1:3,0:0:0:0:
358,146,24929,1,0,0:0:0:0:
429,193,25215,6,0,L|426:298,1,86,4|0,0:0|0:0,0:0:0:0:
424,365,25786,1,2,1:3:0:0:
338,374,26072,1,8,0:0:0:0:
264,329,26358,2,0,L|113:319,2,129,4|0|2,0:0|0:0|1:3,0:0:0:0:
344,295,27501,6,0,L|353:192,1,86,4|0,0:0|0:0,0:0:0:0:
358,123,28072,1,2,1:3:0:0:
272,111,28358,1,0,0:0:0:0:
186,99,28644,2,0,L|178:-7,2,86,4|0|2,0:0|0:0|1:3,0:0:0:0:
193,185,29501,1,0,0:0:0:0:
220,266,29786,6,0,P|213:316|180:364,1,86,4|0,0:0|0:0,0:0:0:0:
116,380,30358,1,2,1:3:0:0:
45,330,30644,1,8,0:0:0:0:
54,244,30929,2,0,L|71:87,2,129,4|0|2,0:0|0:0|1:3,0:0:0:0:
122,293,32072,6,0,L|227:297,1,86,4|0,0:0|0:0,0:0:0:0:
294,300,32644,1,2,1:3:0:0:
346,232,32929,1,0,0:0:0:0:
395,161,33215,2,0,L|508:150,2,86,4|0|2,0:0|0:0|1:3,0:0:0:0:
341,93,34072,1,0,0:0:0:0:
255,87,34358,6,0,L|154:81,1,86,4|0,0:0|0:0,0:0:0:0:
83,74,34929,1,2,1:3:0:0:
37,146,35215,1,8,0:0:0:0:
76,223,35501,2,0,P|75:275|7:341,2,129,4|0|2,0:0|0:0|1:3,0:0:0:0:
123,151,36644,6,0,L|225:145,1,86,4|0,0:0|0:0,0:0:0:0:
278,196,37215,1,2,1:3:0:0:
278,282,37501,1,0,0:0:0:0:
322,355,37786,2,0,L|431:362,2,86,4|0|2,0:0|0:0|1:3,0:0:0:0:
235,357,38644,1,0,0:0:0:0:
150,373,38929,6,0,P|83:357|50:320,1,86,4|0,0:0|0:0,0:0:0:0:
47,264,39501,1,2,1:3:0:0:
101,196,39786,1,8,0:0:0:0:
50,124,40072,2,0,P|16:72|31:11,2,129,4|0|2,0:0|0:0|1:3,0:0:0:0:
136,117,41215,6,0,L|243:110,1,86,4|0,0:0|0:0,0:0:0:0:
307,107,41786,1,2,1:3:0:0:
392,101,42072,1,0,0:0:0:0:
477,94,42358,2,0,P|486:43|478:-7,2,86,4|0|2,0:0|0:0|1:3,0:0:0:0:
441,172,43215,1,0,0:0:0:0:
355,183,43501,6,0,L|348:286,1,86,4|0,0:0|0:0,0:0:0:0:
342,354,44072,1,2,1:3:0:0:
256,348,44358,1,8,0:0:0:0:
170,342,44644,2,0,L|29:333,2,129,4|0|2,0:0|0:0|1:3,0:0:0:0:
217,271,45786,6,0,P|253:241|295:225,1,86,4|0,0:0|0:0,0:0:0:0:
376,226,46358,1,2,1:3:0:0:
415,149,46644,1,0,0:0:0:0:
404,63,46929,2,0,L|509:54,2,86,4|0|2,0:0|0:0|1:3,0:0:0:0:
318,69,47786,1,0,0:0:0:0:
236,41,48072,6,0,L|136:37,1,86,4|0,0:0|0:0,0:0:0:0:
63,34,48644,1,2,1:3:0:0:
15,105,48929,1,8,0:0:0:0:
36,188,49215,2,0,P|35:247|14:333,2,129,4|0|2,0:0|0:0|1:3,0:0:0:0:
97,127,50358,6,0,P|145:115|194:119,1,86,4|0,0:0|0:0,0:0:0:0:
261,148,50929,1,2,1:3:0:0:
341,118,51215,1,0,0:0:0:0:
421,148,51501,2,0,P|470:147|506:130,2,86,4|0|2,0:0|0:0|1:3,0:0:0:0:
355,203,52358,1,0,0:0:0:0:
289,258,52644,6,0,P|240:259|204:276,1,86,4|0,0:0|0:0,0:0:0:0:
154,342,53215,1,2,1:3:0:0:
68,347,53501,1,8,0:0:0:0:
11,282,53786,2,0,L|0:154,2,129,4|0|2,0:0|0:0|1:3,0:0:0:0:
94,263,54929,6,0,P|131:285|153:332,1,86,4|0,0:0|0:0,0:0:0:0:
230,358,55501,1,2,1:3:0:0:
315,365,55786,1,0,0:0:0:0:
370,299,56072,2,0,L|480:292,2,86,4|0|2,0:0|0:0|1:3,0:0:0:0:
340,218,56929,1,0,0:0:0:0:
374,139,57215,6,0,P|366:73|343:43,1,86,4|0,0:0|0:0,0:0:0:0:
277,22,57786,1,2,1:3:0:0:
203,67,58072,1,8,0:0:0:0:
195,152,58358,2,0,B|189:239|189:239|111:274|111:274|102:370,1,258,4|2,0:0|0:3,0:0:0:0:
16,360,59501,6,0,L|26:250,1,86,4|0,0:0|0:0,0:0:0:0:
31,188,60072,1,2,1:3:0:0:
102,127,60358,2,0,L|98:67,1,43,0|0,0:0|0:0,0:0:0:0:
95,39,60644,2,0,P|134:58|182:67,1,86,4|0,0:0|0:0,0:0:0:0:
261,53,61215,1,2,1:3:0:0:
333,6,61501,1,0,0:0:0:0:
415,31,61786,6,0,L|419:133,1,86,4|0,0:0|0:0,0:0:0:0:
426,202,62358,1,2,1:3:0:0:
341,219,62644,2,0,L|264:233,1,43,8|8,0:0|0:0,0:0:0:0:
256,234,62929,2,0,L|109:219,2,129,4|0|2,0:0|0:0|1:3,0:0:0:0:
293,311,64072,6,0,L|392:321,1,86,4|0,0:0|0:0,0:0:0:0:
463,332,64644,1,2,1:3:0:0:
504,256,64929,2,0,L|497:185,1,43,0|0,0:0|0:0,0:0:0:0:
496,169,65215,2,0,P|447:170|400:138,1,86,4|0,0:0|0:0,0:0:0:0:
391,70,65786,1,2,1:3:0:0:
309,42,66072,1,0,0:0:0:0:
223,50,66358,6,0,L|131:60,1,86,4|0,0:0|0:0,0:0:0:0:
105,139,66929,1,2,1:3:0:0:
154,209,67215,2,0,L|199:203,1,43,8|8,0:0|0:0,0:0:0:0:
233,226,67501,2,0,P|295:227|340:271,2,129,4|0|2,0:0|0:0|1:3,0:0:0:0:
263,306,68644,6,0,P|220:311|181:295,1,86,4|0,0:0|0:0,0:0:0:0:
148,215,69215,1,2,1:3:0:0:
158,129,69501,2,0,L|166:64,1,43,0|0,0:0|0:0,0:0:0:0:
170,43,69786,2,0,P|222:59|284:44,1,86,4|0,0:0|0:0,0:0:0:0:
334,28,70358,1,2,1:3:0:0:
408,70,70644,1,0,0:0:0:0:
405,155,70929,6,0,L|403:255,1,86,4|0,0:0|0:0,0:0:0:0:
400,327,71501,1,2,1:3:0:0:
316,345,71786,2,0,L|256:359,1,43,8|8,0:0|0:0,0:0:0:0:
231,361,72072,2,0,P|170:355|107:384,2,129,4|0|2,0:0|0:0|1:3,0:0:0:0:
244,276,73215,6,0,P|245:223|266:183,1,86,4|0,0:0|0:0,0:0:0:0:
331,148,73786,1,2,1:3:0:0:
414,167,74072,2,0,L|481:161,1,43,0|0,0:0|0:0,0:0:0:0:
500,159,74358,2,0,L|502:59,1,86,4|0,0:0|0:0,0:0:0:0:
433,20,74929,1,2,1:3:0:0:
354,55,75215,1,0,0:0:0:0:
272,83,75501,6,0,L|161:80,1,86,4|0,0:0|0:0,0:0:0:0:
100,75,76072,1,2,1:3:0:0:
23,114,76358,2,0,L|20:166,1,43,8|8,0:0|0:0,0:0:0:0:
16,199,76644,2,0,P|79:191|130:228,2,129,4|0|2,0:0|0:0|1:3,0:0:0:0:
58,274,77786,6,0,P|97:315|276:314,1,215,4|0,0:0|0:0,0:0:0:0:
470,150,82358,6,0,P|421:197|259:194,1,215,4|0,0:0|0:0,0:0:0:0:
122,33,86929,6,0,P|113:107|178:244,1,215,2|0,0:3|0:0,0:0:0:0:
412,133,91501,6,0,P|409:236|320:341,1,215,4|0,0:0|0:0,0:0:0:0:
256,69,94929,6,0,B|253:114|272:154|272:154|266:201|247:233|247:233|258:278|256:321,1,258,0|2,0:0|0:3,0:0:0:0:
