osu file format v14

[General]
AudioFilename: audio.mp3
AudioLeadIn: 0
PreviewTime: 1501
Countdown: 1
SampleSet: None
StackLeniency: 0.4
Mode: 0
LetterboxInBreaks: 0
WidescreenStoryboard: 0

[Editor]
Bookmarks: 4644,22930,41216,59501,77787,96072
DistanceSpacing: 1
BeatDivisor: 2
GridSize: 4
TimelineZoom: 1.199999

[Metadata]
Title:the Earth is counting on you
TitleUnicode:the Earth is counting on you
Artist:Kola Kid
ArtistUnicode:Kola Kid
Creator:h4d0uk3n1
Version:advanced
Source:
Tags:chiptune 8-bit 8bit contra 88 teaMblack19
BeatmapID:1450929
BeatmapSetID:673494

[Difficulty]
HPDrainRate:5
CircleSize:2.2
OverallDifficulty:5
ApproachRate:7
SliderMultiplier:1
SliderTickRate:1

[Events]
//Background and Video events
0,0,"goodluck.jpg",0,0
//Break Periods
2,78700,81458
2,83272,86029
2,87843,90601
2,92415,94029
//Storyboard Layer 0 (Background)
//Storyboard Layer 1 (Fail)
//Storyboard Layer 2 (Pass)
//Storyboard Layer 3 (Foreground)
//Storyboard Sound Samples

[TimingPoints]
4644,285.714285714286,4,3,0,80,1,0
22929,-105.263157894737,4,3,0,65,0,0
59501,-100,4,3,0,80,0,0
77786,-105.263157894737,4,3,0,50,0,0
77929,-105.263157894737,4,3,0,5,0,0
78501,-105.263157894737,4,3,0,50,0,0
82501,-105.263157894737,4,3,0,5,0,0
83072,-105.263157894737,4,3,0,50,0,0
87072,-105.263157894737,4,3,0,5,0,0
87644,-105.263157894737,4,3,0,50,0,0
91644,-105.263157894737,4,3,0,5,0,0
92215,-105.263157894737,4,3,0,50,0,0

[Colours]
Combo1 : 115,107,154
Combo2 : 12,255,225
Combo3 : 255,214,135
Combo4 : 255,33,124

[HitObjects]
98,67,4643,6,0,L|93:137,1,50,4|4,0:0|0:0,0:0:0:0:
91,167,4929,2,0,P|149:164|205:215,1,100,0|2,0:0|1:3,0:0:0:0:
245,263,5501,2,0,L|253:339,1,50,0|0,0:0|0:0,0:0:0:0:
259,361,5786,6,0,L|332:365,1,50,4|4,0:0|0:0,0:0:0:0:
359,368,6072,2,0,P|375:305|431:273,1,100,0|2,0:0|1:3,0:0:0:0:
499,271,6644,2,0,L|501:191,1,50,0|0,0:0|0:0,0:0:0:0:
479,176,6929,6,0,L|476:115,1,50,4|4,0:0|0:0,0:0:0:0:
472,75,7215,2,0,P|394:73|342:41,1,100,0|2,0:0|1:3,0:0:0:0:
279,33,7786,2,0,L|193:40,1,50,8|8,0:0|0:0,0:0:0:0:
178,41,8072,6,0,L|172:111,1,50,4|4,0:0|0:0,0:0:0:0:
174,141,8358,1,0,0:0:0:0:
174,141,8501,2,0,L|36:148,1,100,0|0,0:0|0:0,0:0:0:0:
24,150,8929,1,2,1:3:0:0:
13,249,9215,6,0,L|8:307,1,50,4|4,0:0|0:0,0:0:0:0:
3,348,9501,2,0,L|120:353,1,100,0|2,0:0|1:3,0:0:0:0:
194,311,10072,2,0,L|252:313,1,50,0|0,0:0|0:0,0:0:0:0:
284,342,10358,2,0,L|342:344,1,50,4|4,0:0|0:0,0:0:0:0:
376,316,10644,6,0,P|374:260|400:205,1,100,0|2,0:0|1:3,0:0:0:0:
479,175,11215,2,0,L|487:96,1,50,0|0,0:0|0:0,0:0:0:0:
490,75,11501,6,0,L|415:81,1,50,4|4,0:0|0:0,0:0:0:0:
399,49,11786,2,0,L|279:44,1,100,0|2,0:0|1:3,0:0:0:0:
270,141,12358,2,0,L|330:143,1,50,8|8,0:0|0:0,0:0:0:0:
370,146,12644,6,0,L|375:208,1,50,4|4,0:0|0:0,0:0:0:0:
385,244,12929,1,0,0:0:0:0:
385,244,13072,2,0,P|327:294|328:343,1,100,0|0,0:0|0:0,0:0:0:0:
335,362,13501,1,2,1:3:0:0:
235,372,13786,6,0,L|172:380,1,50,4|4,0:0|0:0,0:0:0:0:
141,353,14072,2,0,L|2:345,1,100,0|2,0:0|1:3,0:0:0:0:
27,247,14644,2,0,L|96:251,1,50,0|0,0:0|0:0,0:0:0:0:
126,254,14929,2,0,L|122:167,1,50,4|4,0:0|0:0,0:0:0:0:
120,153,15215,6,0,P|182:156|232:113,1,100,0|2,0:0|1:3,0:0:0:0:
250,44,15786,2,0,L|322:39,1,50,0|0,0:0|0:0,0:0:0:0:
350,39,16072,2,0,L|347:107,1,50,4|4,0:0|0:0,0:0:0:0:
347,139,16358,6,0,L|488:151,1,100,0|2,0:0|1:3,0:0:0:0:
453,247,16929,2,0,L|458:316,1,50,8|8,0:0|0:0,0:0:0:0:
461,347,17215,6,0,L|374:355,1,50,4|4,0:0|0:0,0:0:0:0:
361,357,17501,1,0,0:0:0:0:
361,357,17644,2,0,P|315:300|258:291,1,100,0|0,0:0|0:0,0:0:0:0:
241,288,18072,1,2,1:3:0:0:
250,188,18358,6,0,L|257:123,1,50,4|4,0:0|0:0,0:0:0:0:
263,88,18644,2,0,P|204:81|154:45,1,100,0|2,0:0|1:3,0:0:0:0:
69,64,19215,2,0,L|70:131,1,50,0|0,0:0|0:0,0:0:0:0:
45,158,19501,6,0,L|41:219,1,50,4|4,0:0|0:0,0:0:0:0:
76,243,19786,2,0,L|201:254,1,100,0|2,0:0|1:3,0:0:0:0:
226,338,20358,2,0,L|291:336,1,50,0|0,0:0|0:0,0:0:0:0:
310,299,20644,6,0,L|375:297,1,50,4|4,0:0|0:0,0:0:0:0:
409,295,20929,2,0,L|419:154,1,100,0|2,0:0|1:3,0:0:0:0:
474,113,21501,2,0,L|472:44,1,50,8|8,0:0|0:0,0:0:0:0:
469,13,21786,6,0,L|404:19,1,50,4|4,0:0|0:0,0:0:0:0:
369,26,22072,1,0,0:0:0:0:
369,26,22215,2,0,P|348:76|289:105,1,100,0|0,0:0|0:0,0:0:0:0:
260,100,22644,1,2,1:3:0:0:
205,177,22929,6,0,L|73:173,1,94.9999974632264,4|0,0:0|0:0,0:0:0:0:
55,252,23501,1,2,1:3:0:0:
111,328,23786,2,0,L|177:330,1,47.4999987316132,0|0,0:0|0:0,0:0:0:0:
198,303,24072,2,0,L|329:296,1,94.9999974632264,4|0,0:0|0:0,0:0:0:0:
388,296,24644,1,2,1:3:0:0:
427,210,24929,1,0,0:0:0:0:
357,145,25215,6,0,P|339:91|350:25,1,94.9999974632264,4|0,0:0|0:0,0:0:0:0:
253,16,25786,1,2,1:3:0:0:
202,96,26072,1,8,0:0:0:0:
107,103,26358,2,0,L|-35:112,2,142.49999619484,4|0|2,0:0|0:0|1:3,0:0:0:0:
160,181,27501,6,0,L|275:188,1,94.9999974632264,4|0,0:0|0:0,0:0:0:0:
349,194,28072,1,2,1:3:0:0:
430,242,28358,2,0,L|436:304,1,47.4999987316132,0|0,0:0|0:0,0:0:0:0:
439,336,28644,2,0,P|386:342|342:381,1,94.9999974632264,4|0,0:0|0:0,0:0:0:0:
273,314,29215,1,2,1:3:0:0:
179,333,29501,1,0,0:0:0:0:
171,238,29786,6,0,L|164:133,1,94.9999974632264,4|0,0:0|0:0,0:0:0:0:
159,47,30358,1,2,1:3:0:0:
243,91,30644,1,8,0:0:0:0:
310,23,30929,2,0,L|458:14,2,142.49999619484,4|0|2,0:0|0:0|1:3,0:0:0:0:
334,113,32072,6,0,P|309:161|264:183,1,94.9999974632264,4|0,0:0|0:0,0:0:0:0:
226,263,32644,1,2,1:3:0:0:
131,273,32929,2,0,L|139:338,1,47.4999987316132,0|0,0:0|0:0,0:0:0:0:
141,367,33215,2,0,L|269:372,1,94.9999974632264,4|0,0:0|0:0,0:0:0:0:
330,374,33786,1,2,1:3:0:0:
413,328,34072,1,0,0:0:0:0:
406,233,34358,6,0,L|398:121,1,94.9999974632264,4|0,0:0|0:0,0:0:0:0:
311,102,34929,1,2,1:3:0:0:
242,167,35215,1,8,0:0:0:0:
147,174,35501,2,0,L|0:187,2,142.49999619484,4|0|2,0:0|0:0|1:3,0:0:0:0:
209,245,36644,6,0,L|322:252,1,94.9999974632264,4|0,0:0|0:0,0:0:0:0:
398,258,37215,1,2,1:3:0:0:
462,187,37501,2,0,L|456:110,1,47.4999987316132,0|0,0:0|0:0,0:0:0:0:
454,92,37786,2,0,P|381:85|344:59,1,94.9999974632264,4|0,0:0|0:0,0:0:0:0:
303,0,38358,1,2,1:3:0:0:
208,13,38644,1,0,0:0:0:0:
201,107,38929,6,0,L|195:214,1,94.9999974632264,4|0,0:0|0:0,0:0:0:0:
189,297,39501,1,2,1:3:0:0:
266,351,39786,1,8,0:0:0:0:
358,329,40072,2,0,L|366:179,2,142.49999619484,4|0|2,0:0|0:0|1:3,0:0:0:0:
266,351,41215,6,0,P|205:350|164:334,1,94.9999974632264,4|0,0:0|0:0,0:0:0:0:
99,278,41786,1,2,1:3:0:0:
109,183,42072,2,0,L|117:112,1,47.4999987316132,0|0,0:0|0:0,0:0:0:0:
120,88,42358,2,0,P|179:95|238:61,1,94.9999974632264,4|0,0:0|0:0,0:0:0:0:
277,14,42929,1,2,1:3:0:0:
371,20,43215,1,0,0:0:0:0:
379,114,43501,6,0,L|389:220,1,94.9999974632264,4|0,0:0|0:0,0:0:0:0:
398,303,44072,1,2,1:3:0:0:
331,371,44358,1,8,0:0:0:0:
242,336,44644,2,0,P|151:336|72:369,2,142.49999619484,4|0|2,0:0|0:0|1:3,0:0:0:0:
292,255,45786,6,0,P|340:270|385:260,1,94.9999974632264,4|0,0:0|0:0,0:0:0:0:
343,174,46358,1,2,1:3:0:0:
247,172,46644,2,0,L|199:171,1,47.4999987316132,0|0,0:0|0:0,0:0:0:0:
163,202,46929,2,0,L|43:207,1,94.9999974632264,4|0,0:0|0:0,0:0:0:0:
28,292,47501,1,2,1:3:0:0:
87,365,47786,1,0,0:0:0:0:
170,320,48072,6,0,L|290:315,1,94.9999974632264,4|0,0:0|0:0,0:0:0:0:
360,314,48644,1,2,1:3:0:0:
387,222,48929,1,8,0:0:0:0:
307,167,49215,2,0,P|296:121|328:26,2,142.49999619484,4|0|2,0:0|0:0|1:3,0:0:0:0:
229,226,50358,6,0,L|109:231,1,94.9999974632264,4|0,0:0|0:0,0:0:0:0:
82,310,50929,1,2,1:3:0:0:
175,325,51215,2,0,L|235:322,1,47.4999987316132,0|0,0:0|0:0,0:0:0:0:
263,347,51501,2,0,L|392:352,1,94.9999974632264,4|0,0:0|0:0,0:0:0:0:
452,356,52072,1,2,1:3:0:0:
507,278,52358,1,0,0:0:0:0:
458,196,52644,6,0,P|454:143|470:89,1,94.9999974632264,4|0,0:0|0:0,0:0:0:0:
385,49,53215,1,2,1:3:0:0:
308,105,53501,1,8,0:0:0:0:
213,108,53786,2,0,L|56:114,2,142.49999619484,4|0|2,0:0|0:0|1:3,0:0:0:0:
235,200,54929,6,0,P|230:263|206:310,1,94.9999974632264,4|0,0:0|0:0,0:0:0:0:
297,344,55501,1,2,1:3:0:0:
388,320,55786,2,0,L|384:265,1,47.4999987316132,0|0,0:0|0:0,0:0:0:0:
382,224,56072,2,0,P|353:185|346:132,1,94.9999974632264,4|0,0:0|0:0,0:0:0:0:
366,46,56644,1,2,1:3:0:0:
274,23,56929,1,0,0:0:0:0:
201,84,57215,6,0,L|79:92,1,94.9999974632264,4|0,0:0|0:0,0:0:0:0:
11,96,57786,1,2,1:3:0:0:
24,190,58072,1,8,0:0:0:0:
94,253,58358,2,0,P|-19:251|53:338,1,284.999992389679,4|2,0:0|0:3,0:0:0:0:
150,360,59501,6,0,L|215:354,1,50,4|4,0:0|0:0,0:0:0:0:
249,351,59786,2,0,P|270:300|331:269,1,100,0|2,0:0|1:3,0:0:0:0:
405,277,60358,2,0,L|465:280,1,50,0|0,0:0|0:0,0:0:0:0:
505,282,60644,6,0,L|508:207,1,50,4|4,0:0|0:0,0:0:0:0:
510,182,60929,2,0,P|467:154|446:100,1,100,0|2,0:0|1:3,0:0:0:0:
451,10,61501,2,0,L|372:16,1,50,0|0,0:0|0:0,0:0:0:0:
351,16,61786,6,0,L|340:84,1,50,4|4,0:0|0:0,0:0:0:0:
333,114,62072,2,0,P|283:115|241:141,1,100,0|2,0:0|1:3,0:0:0:0:
312,211,62644,6,0,L|318:269,1,50,8|8,0:0|0:0,0:0:0:0:
323,310,62929,2,0,L|250:316,1,50,4|4,0:0|0:0,0:0:0:0:
223,321,63215,1,0,0:0:0:0:
223,321,63358,2,0,P|194:259|127:228,1,100,0|0,0:0|0:0,0:0:0:0:
121,229,63786,1,2,1:3:0:0:
130,129,64072,6,0,L|137:68,1,50,4|4,0:0|0:0,0:0:0:0:
143,29,64358,2,0,P|189:46|220:84,1,100,0|2,0:0|1:3,0:0:0:0:
320,86,64929,2,0,L|376:87,1,50,0|0,0:0|0:0,0:0:0:0:
420,89,65215,6,0,L|425:172,1,50,4|4,0:0|0:0,0:0:0:0:
395,181,65501,2,0,L|389:311,1,100,0|2,0:0|1:3,0:0:0:0:
290,288,66072,2,0,L|292:238,1,50,0|0,0:0|0:0,0:0:0:0:
295,187,66358,6,0,L|223:192,1,50,4|4,0:0|0:0,0:0:0:0:
200,166,66644,2,0,L|66:163,1,100,0|2,0:0|1:3,0:0:0:0:
0,158,67215,2,0,L|11:86,1,50,8|8,0:0|0:0,0:0:0:0:
14,58,67501,6,0,L|79:53,1,50,4|4,0:0|0:0,0:0:0:0:
108,30,67786,1,0,0:0:0:0:
108,30,67929,2,0,L|217:37,1,100,0|0,0:0|0:0,0:0:0:0:
258,40,68358,1,2,1:3:0:0:
259,140,68644,6,0,L|261:199,1,50,4|4,0:0|0:0,0:0:0:0:
264,238,68929,2,0,P|311:251|351:292,1,100,0|2,0:0|1:3,0:0:0:0:
261,340,69501,2,0,L|173:353,1,50,0|0,0:0|0:0,0:0:0:0:
169,320,69786,6,0,L|91:317,1,50,4|4,0:0|0:0,0:0:0:0:
68,314,70072,2,0,P|58:230|24:205,1,100,0|2,0:0|1:3,0:0:0:0:
65,122,70644,2,0,L|73:70,1,50,0|0,0:0|0:0,0:0:0:0:
81,23,70929,6,0,L|147:31,1,50,4|4,0:0|0:0,0:0:0:0:
180,36,71215,2,0,P|182:96|220:167,1,100,0|2,0:0|1:3,0:0:0:0:
274,195,71786,2,0,L|269:257,1,50,8|8,0:0|0:0,0:0:0:0:
266,295,72072,6,0,L|205:300,1,50,4|4,0:0|0:0,0:0:0:0:
173,271,72358,1,0,0:0:0:0:
173,271,72501,2,0,L|55:261,1,100,0|0,0:0|0:0,0:0:0:0:
23,255,72929,1,2,1:3:0:0:
37,155,73215,6,0,L|47:94,1,50,4|4,0:0|0:0,0:0:0:0:
56,56,73501,2,0,P|122:65|193:39,1,100,0|2,0:0|1:3,0:0:0:0:
247,23,74072,2,0,L|307:25,1,50,0|0,0:0|0:0,0:0:0:0:
347,26,74358,6,0,L|353:100,1,50,4|4,0:0|0:0,0:0:0:0:
358,125,74644,2,0,L|475:136,1,100,0|2,0:0|1:3,0:0:0:0:
462,234,75215,2,0,L|403:228,1,50,0|0,0:0|0:0,0:0:0:0:
362,224,75501,6,0,L|364:306,1,50,4|4,0:0|0:0,0:0:0:0:
366,323,75786,2,0,L|257:334,1,100,0|2,0:0|1:3,0:0:0:0:
172,368,76358,2,0,L|99:362,1,50,8|8,0:0|0:0,0:0:0:0:
72,358,76644,6,0,L|80:296,1,50,4|4,0:0|0:0,0:0:0:0:
62,261,76929,1,0,0:0:0:0:
62,261,77072,2,0,P|62:204|13:147,1,100,0|0,0:0|0:0,0:0:0:0:
1,136,77501,1,2,1:3:0:0:
57,58,77786,6,0,B|113:31|171:54|171:54|229:76|288:57,1,237.499993658066,4|0,0:0|0:0,0:0:0:0:
412,224,82358,6,0,B|356:251|298:228|298:228|240:206|181:225,1,237.499993658066,4|0,0:0|0:0,0:0:0:0:
169,354,86929,6,0,P|160:284|12:200,1,237.499993658066,2|0,0:3|0:0,0:0:0:0:
267,30,91501,6,0,P|273:109|368:238,1,237.499993658066,4|0,0:0|0:0,0:0:0:0:
291,142,94929,6,0,P|270:253|202:162,1,284.999992389679,0|2,0:0|0:3,0:0:0:0:
