osu file format v14

[General]
AudioFilename: audio.mp3
AudioLeadIn: 0
PreviewTime: 75683
Countdown: 0
SampleSet: Normal
StackLeniency: 0.7
Mode: 1
LetterboxInBreaks: 0
WidescreenStoryboard: 0

[Editor]
Bookmarks: 18934,28392,37850,47308,56766,66224,75683,85141,94599,104057,113515,122973,132431,141889,151348,160806,170264,179722
DistanceSpacing: 1.5
BeatDivisor: 4
GridSize: 4
TimelineZoom: 2.3

[Metadata]
Title:spaceman
TitleUnicode:spaceman
Artist:Kola Kid
ArtistUnicode:Kola Kid
Creator:Gamelan4
Version:muzukashii
Source:osu!
Tags:fa featured artist rave to the grave chiptune breakcore electronic instrumental 8bit 8-bit Etsu HiroK mpg mg mappers' guild
BeatmapID:2319190
BeatmapSetID:1108777

[Difficulty]
HPDrainRate:6
CircleSize:5
OverallDifficulty:5
ApproachRate:5
SliderMultiplier:1.4
SliderTickRate:1

[Events]
//Background and Video events
0,0,"legomanuwu.jpg",0,0
//Break Periods
//Storyboard Layer 0 (Background)
//Storyboard Layer 1 (Fail)
//Storyboard Layer 2 (Pass)
//Storyboard Layer 3 (Foreground)
//Storyboard Layer 4 (Overlay)
//Storyboard Sound Samples

[TimingPoints]
18,295.566502463054,4,1,0,75,1,0
18,-133.333333333333,4,1,0,75,0,0
18897,-125,4,1,0,80,0,0
28355,-117.647058823529,4,1,0,85,0,0
37776,-111.111111111111,4,1,0,90,0,0
56692,-105.263157894737,4,1,0,95,0,0
75609,-117.647058823529,4,1,0,85,0,0
94525,-105.263157894737,4,1,0,95,0,0
132431,-100,4,1,0,100,0,1
151348,-100,4,1,0,100,0,0
151569,-111.111111111111,4,1,0,90,0,0
160732,-117.647058823529,4,1,0,85,0,0
170190,-125,4,1,0,80,0,0
179648,-133.333333333333,4,1,0,75,0,0

[HitObjects]
247,199,18,5,8,0:0:0:0:
272,192,313,1,0,0:0:0:0:
272,192,904,1,8,0:0:0:0:
268,196,1791,1,0,0:0:0:0:
252,192,1939,1,0,0:0:0:0:
268,196,2086,1,0,0:0:0:0:
276,182,2382,1,8,0:0:0:0:
276,182,2678,1,0,0:0:0:0:
265,191,3269,1,8,0:0:0:0:
265,191,3712,1,0,0:0:0:0:
265,191,4008,1,0,0:0:0:0:
265,191,4303,1,8,0:0:0:0:
263,185,4747,1,8,0:0:0:0:
263,185,5042,1,0,0:0:0:0:
263,185,5633,1,8,0:0:0:0:
263,185,6520,1,0,0:0:0:0:
263,185,6668,1,0,0:0:0:0:
263,185,6816,1,0,0:0:0:0:
263,185,7111,1,8,0:0:0:0:
263,185,7407,1,0,0:0:0:0:
263,185,7998,1,8,0:0:0:0:
263,185,8441,1,0,0:0:0:0:
263,185,8737,1,0,0:0:0:0:
263,185,8884,1,8,0:0:0:0:
263,185,9180,1,0,0:0:0:0:
263,185,9476,1,8,0:0:0:0:
263,185,9771,1,0,0:0:0:0:
263,185,10362,1,8,0:0:0:0:
270,170,11249,1,0,0:0:0:0:
270,170,11397,1,0,0:0:0:0:
270,170,11545,1,0,0:0:0:0:
270,170,11840,1,8,0:0:0:0:
270,170,12136,1,0,0:0:0:0:
270,170,12727,1,8,0:0:0:0:
270,170,13170,1,0,0:0:0:0:
270,170,13466,1,0,0:0:0:0:
270,170,13761,1,8,0:0:0:0:
270,170,14205,1,8,0:0:0:0:
270,170,14500,1,0,0:0:0:0:
270,170,15091,1,8,0:0:0:0:
270,170,15978,1,0,0:0:0:0:
270,170,16126,1,0,0:0:0:0:
270,170,16274,1,0,0:0:0:0:
270,170,16569,1,8,0:0:0:0:
270,170,16865,1,0,0:0:0:0:
270,170,17456,1,8,0:0:0:0:
270,170,17899,5,8,0:0:0:0:
270,170,18195,1,8,0:0:0:0:
270,170,18343,1,0,0:0:0:0:
270,170,18638,1,0,0:0:0:0:
320,193,18712,1,0,0:0:0:0:
249,198,18786,1,0,0:0:0:0:
270,170,18934,1,8,0:0:0:0:
270,170,19229,1,0,0:0:0:0:
270,170,19377,1,8,0:0:0:0:
270,170,19525,1,0,0:0:0:0:
270,170,19820,1,0,0:0:0:0:
270,170,19968,1,8,0:0:0:0:
270,170,20412,1,0,0:0:0:0:
245,177,20707,1,0,0:0:0:0:
270,170,20855,1,0,0:0:0:0:
354,170,21003,1,8,0:0:0:0:
270,170,21151,1,8,0:0:0:0:
270,170,21298,5,0,0:0:0:0:
270,170,21594,1,0,0:0:0:0:
270,170,21742,1,8,0:0:0:0:
270,170,21889,1,0,0:0:0:0:
270,170,22185,1,0,0:0:0:0:
270,170,22333,1,8,0:0:0:0:
270,170,22628,1,8,0:0:0:0:
270,170,22776,1,0,0:0:0:0:
270,170,22924,1,8,0:0:0:0:
270,170,23072,1,0,0:0:0:0:
270,170,23219,1,8,0:0:0:0:
270,170,23367,1,0,0:0:0:0:
293,168,23663,1,8,0:0:0:0:
293,168,23958,1,0,0:0:0:0:
293,168,24106,1,8,0:0:0:0:
293,168,24254,1,0,0:0:0:0:
293,168,24550,1,0,0:0:0:0:
293,168,24697,1,8,0:0:0:0:
293,168,25141,1,0,0:0:0:0:
235,157,25436,1,8,0:0:0:0:
293,168,25584,1,0,0:0:0:0:
272,180,25732,1,8,0:0:0:0:
281,152,25880,1,8,0:0:0:0:
293,168,26027,5,0,0:0:0:0:
293,168,26323,1,0,0:0:0:0:
293,168,26471,1,8,0:0:0:0:
293,168,26618,1,0,0:0:0:0:
293,168,26914,1,0,0:0:0:0:
293,168,27062,1,8,0:0:0:0:
293,168,27357,1,8,0:0:0:0:
293,168,27505,1,0,0:0:0:0:
293,168,27653,1,0,0:0:0:0:
293,168,27801,1,8,0:0:0:0:
293,168,28096,1,8,0:0:0:0:
293,168,28392,1,8,0:0:0:0:
270,170,28687,1,0,0:0:0:0:
270,170,28835,1,8,0:0:0:0:
270,170,28983,1,0,0:0:0:0:
270,170,29279,1,0,0:0:0:0:
270,170,29426,1,8,0:0:0:0:
270,170,29870,1,0,0:0:0:0:
270,170,30313,1,0,0:0:0:0:
293,176,30461,1,8,0:0:0:0:
295,179,30609,1,8,0:0:0:0:
270,170,30756,5,0,0:0:0:0:
270,170,31052,1,0,0:0:0:0:
270,170,31200,1,8,0:0:0:0:
270,170,31348,1,0,0:0:0:0:
270,170,31643,1,0,0:0:0:0:
270,170,31791,1,8,0:0:0:0:
270,170,32086,1,8,0:0:0:0:
270,170,32234,1,0,0:0:0:0:
270,170,32382,1,8,0:0:0:0:
270,170,32530,1,0,0:0:0:0:
270,170,32678,1,8,0:0:0:0:
270,170,32825,1,0,0:0:0:0:
293,168,33121,1,8,0:0:0:0:
293,168,33417,1,0,0:0:0:0:
293,168,33564,1,8,0:0:0:0:
293,168,33712,1,0,0:0:0:0:
293,168,34008,1,0,0:0:0:0:
293,168,34155,1,8,0:0:0:0:
293,168,34599,1,0,0:0:0:0:
337,192,34894,1,0,0:0:0:0:
293,168,35042,5,8,0:0:0:0:
281,180,35190,1,0,0:0:0:0:
317,173,35338,1,8,0:0:0:0:
293,168,35485,1,8,0:0:0:0:
293,168,35781,1,0,0:0:0:0:
293,168,35929,1,8,0:0:0:0:
293,168,36077,1,0,0:0:0:0:
293,168,36372,1,0,0:0:0:0:
305,170,36668,1,8,0:0:0:0:
305,170,36742,1,8,0:0:0:0:
293,168,36816,1,8,0:0:0:0:
293,168,36963,1,0,0:0:0:0:
293,168,37111,1,0,0:0:0:0:
293,168,37259,1,8,0:0:0:0:
293,168,37850,1,12,0:0:0:0:
293,168,38146,1,8,0:0:0:0:
278,162,38293,1,0,0:0:0:0:
293,168,38589,1,8,0:0:0:0:
279,173,38737,1,0,0:0:0:0:
286,156,38884,1,8,0:0:0:0:
298,165,38958,1,8,0:0:0:0:
298,166,39032,1,8,0:0:0:0:
282,157,39180,1,8,0:0:0:0:
311,181,39328,1,0,0:0:0:0:
290,165,39476,1,0,0:0:0:0:
286,156,39623,1,8,0:0:0:0:
282,157,40215,1,0,0:0:0:0:
351,158,40510,1,8,0:0:0:0:
286,156,40658,1,0,0:0:0:0:
282,157,40953,1,8,0:0:0:0:
304,151,41101,1,0,0:0:0:0:
282,157,41249,1,0,0:0:0:0:
309,157,41397,1,8,0:0:0:0:
286,156,41545,1,0,0:0:0:0:
237,172,41618,1,0,0:0:0:0:
286,163,41692,1,0,0:0:0:0:
282,157,41840,1,8,0:0:0:0:
282,157,41988,1,8,0:0:0:0:
282,157,42136,1,0,0:0:0:0:
269,172,42579,1,0,0:0:0:0:
271,182,42875,1,8,0:0:0:0:
271,182,43022,1,0,0:0:0:0:
282,167,43318,1,8,0:0:0:0:
282,167,43466,1,0,0:0:0:0:
251,167,43614,1,8,0:0:0:0:
251,167,43687,1,8,0:0:0:0:
251,167,43761,1,8,0:0:0:0:
302,205,43909,1,8,0:0:0:0:
271,182,44057,1,0,0:0:0:0:
337,193,44205,1,0,0:0:0:0:
238,227,44352,1,8,0:0:0:0:
282,157,44944,1,0,0:0:0:0:
351,158,45239,1,8,0:0:0:0:
286,156,45387,1,0,0:0:0:0:
222,142,45461,1,0,0:0:0:0:
315,173,45535,1,0,0:0:0:0:
282,157,45683,1,8,0:0:0:0:
304,151,45830,1,0,0:0:0:0:
286,185,45978,1,0,0:0:0:0:
309,157,46126,5,8,0:0:0:0:
286,163,46421,1,0,0:0:0:0:
282,157,46569,1,8,0:0:0:0:
282,157,47013,1,8,0:0:0:0:
293,168,47308,1,12,0:0:0:0:
293,168,47604,1,8,0:0:0:0:
278,162,47751,1,0,0:0:0:0:
293,168,48047,1,8,0:0:0:0:
279,173,48195,1,0,0:0:0:0:
286,156,48343,1,8,0:0:0:0:
298,165,48417,1,8,0:0:0:0:
298,166,48490,1,8,0:0:0:0:
282,157,48638,1,8,0:0:0:0:
311,181,48786,1,0,0:0:0:0:
290,165,48934,1,0,0:0:0:0:
286,156,49082,1,8,0:0:0:0:
282,157,49673,1,0,0:0:0:0:
351,158,49968,1,8,0:0:0:0:
286,156,50116,1,0,0:0:0:0:
282,157,50412,1,8,0:0:0:0:
304,151,50559,1,0,0:0:0:0:
282,157,50707,1,0,0:0:0:0:
309,157,50855,1,8,0:0:0:0:
286,156,51003,1,0,0:0:0:0:
237,172,51077,1,0,0:0:0:0:
286,163,51151,1,0,0:0:0:0:
282,157,51298,1,8,0:0:0:0:
282,157,51446,1,8,0:0:0:0:
282,157,51594,1,0,0:0:0:0:
269,172,52037,1,0,0:0:0:0:
271,182,52333,1,8,0:0:0:0:
271,182,52481,1,0,0:0:0:0:
282,167,52776,1,8,0:0:0:0:
282,167,52924,1,0,0:0:0:0:
251,167,53072,1,8,0:0:0:0:
251,167,53146,1,8,0:0:0:0:
251,167,53219,1,8,0:0:0:0:
302,205,53367,1,0,0:0:0:0:
251,167,53663,1,0,0:0:0:0:
271,182,53811,1,8,0:0:0:0:
348,172,53958,1,8,0:0:0:0:
343,171,54032,1,8,0:0:0:0:
343,171,54106,1,8,0:0:0:0:
284,168,54254,1,8,0:0:0:0:
282,157,54402,1,0,0:0:0:0:
351,158,54697,1,8,0:0:0:0:
286,156,54845,1,0,0:0:0:0:
282,157,55141,1,8,0:0:0:0:
304,151,55288,1,0,0:0:0:0:
343,175,55362,1,0,0:0:0:0:
286,185,55436,1,0,0:0:0:0:
309,157,55584,5,8,0:0:0:0:
286,163,55880,1,8,0:0:0:0:
282,157,56027,1,8,0:0:0:0:
282,157,56175,1,4,0:0:0:0:
293,168,56766,1,12,0:0:0:0:
293,168,57062,1,8,0:0:0:0:
278,162,57210,1,0,0:0:0:0:
293,168,57505,1,8,0:0:0:0:
279,173,57653,1,0,0:0:0:0:
286,156,57801,1,8,0:0:0:0:
298,165,57875,1,8,0:0:0:0:
298,166,57949,1,8,0:0:0:0:
282,157,58096,1,8,0:0:0:0:
311,181,58244,1,0,0:0:0:0:
286,156,58392,1,0,0:0:0:0:
290,165,58540,1,8,0:0:0:0:
282,157,59131,1,0,0:0:0:0:
351,158,59426,1,8,0:0:0:0:
286,156,59574,1,0,0:0:0:0:
282,157,59870,1,8,0:0:0:0:
304,151,60017,1,0,0:0:0:0:
282,157,60165,1,0,0:0:0:0:
309,157,60313,1,8,0:0:0:0:
286,156,60461,1,0,0:0:0:0:
237,172,60535,1,0,0:0:0:0:
286,163,60609,1,0,0:0:0:0:
282,157,60756,1,8,0:0:0:0:
282,157,60904,1,8,0:0:0:0:
282,157,61052,1,0,0:0:0:0:
269,172,61495,5,0,0:0:0:0:
271,182,61791,1,8,0:0:0:0:
282,167,61939,1,0,0:0:0:0:
271,182,62234,1,8,0:0:0:0:
282,167,62382,1,0,0:0:0:0:
251,167,62530,1,8,0:0:0:0:
251,167,62604,1,8,0:0:0:0:
251,167,62678,1,8,0:0:0:0:
302,205,62825,1,0,0:0:0:0:
271,182,63121,1,0,0:0:0:0:
238,227,63269,1,8,0:0:0:0:
348,172,63417,1,8,0:0:0:0:
343,171,63490,1,8,0:0:0:0:
343,171,63564,1,8,0:0:0:0:
284,168,63712,1,8,0:0:0:0:
282,157,63860,1,0,0:0:0:0:
351,158,64155,1,8,0:0:0:0:
286,156,64303,1,0,0:0:0:0:
222,142,64377,1,0,0:0:0:0:
315,173,64451,1,0,0:0:0:0:
282,157,64599,1,8,0:0:0:0:
337,167,64747,1,0,0:0:0:0:
309,157,65042,5,8,0:0:0:0:
286,163,65338,1,0,0:0:0:0:
282,157,65485,1,8,0:0:0:0:
295,134,65929,1,8,0:0:0:0:
293,168,66224,1,12,0:0:0:0:
293,168,66520,1,8,0:0:0:0:
278,162,66668,1,0,0:0:0:0:
293,168,66963,1,8,0:0:0:0:
279,173,67111,1,0,0:0:0:0:
286,156,67259,1,8,0:0:0:0:
298,165,67333,1,8,0:0:0:0:
298,166,67407,1,8,0:0:0:0:
282,157,67554,1,0,0:0:0:0:
311,181,67702,1,0,0:0:0:0:
290,165,67850,1,8,0:0:0:0:
286,156,67998,1,0,0:0:0:0:
279,173,68146,1,8,0:0:0:0:
282,157,68589,1,0,0:0:0:0:
351,158,68884,1,8,0:0:0:0:
286,156,69032,1,0,0:0:0:0:
282,157,69328,1,8,0:0:0:0:
304,151,69476,1,0,0:0:0:0:
282,157,69623,1,0,0:0:0:0:
309,157,69771,1,8,0:0:0:0:
286,156,69919,1,0,0:0:0:0:
237,172,69993,1,0,0:0:0:0:
286,163,70067,1,0,0:0:0:0:
282,157,70215,1,8,0:0:0:0:
282,157,70362,1,8,0:0:0:0:
282,157,70510,1,0,0:0:0:0:
269,172,70953,5,0,0:0:0:0:
271,182,71249,1,8,0:0:0:0:
271,182,71397,1,0,0:0:0:0:
282,167,71692,1,8,0:0:0:0:
282,167,71840,1,0,0:0:0:0:
251,167,71988,1,8,0:0:0:0:
251,167,72062,1,8,0:0:0:0:
251,167,72136,1,8,0:0:0:0:
302,205,72284,1,0,0:0:0:0:
271,182,72579,1,0,0:0:0:0:
238,227,72727,1,8,0:0:0:0:
348,172,72875,1,8,0:0:0:0:
343,171,72949,1,8,0:0:0:0:
343,171,73022,1,8,0:0:0:0:
284,168,73170,1,8,0:0:0:0:
308,163,73318,1,0,0:0:0:0:
351,158,73614,1,8,0:0:0:0:
286,156,73761,1,0,0:0:0:0:
282,157,74057,1,8,0:0:0:0:
304,151,74205,1,0,0:0:0:0:
343,175,74279,1,0,0:0:0:0:
286,185,74352,1,0,0:0:0:0:
309,157,74500,1,8,0:0:0:0:
286,163,74796,1,0,0:0:0:0:
286,156,74944,1,8,0:0:0:0:
304,154,75387,1,8,0:0:0:0:
285,178,75683,1,0,0:0:0:0:
227,194,75830,1,8,0:0:0:0:
282,157,76126,1,8,0:0:0:0:
241,192,76421,1,8,0:0:0:0:
266,177,76717,1,8,0:0:0:0:
248,177,77013,1,0,0:0:0:0:
248,177,77456,1,8,0:0:0:0:
307,157,78047,1,0,0:0:0:0:
311,168,78195,1,8,0:0:0:0:
311,168,78490,1,8,0:0:0:0:
311,168,78786,1,8,0:0:0:0:
311,168,79082,1,0,0:0:0:0:
311,168,79377,1,0,0:0:0:0:
311,168,79673,1,0,0:0:0:0:
311,168,79820,1,8,0:0:0:0:
311,168,79968,1,0,0:0:0:0:
305,165,80412,1,0,0:0:0:0:
305,165,80559,1,8,0:0:0:0:
305,165,80855,1,8,0:0:0:0:
305,165,81151,1,8,0:0:0:0:
305,165,81446,1,8,0:0:0:0:
305,165,81742,1,0,0:0:0:0:
305,165,82185,1,8,0:0:0:0:
305,165,82776,1,0,0:0:0:0:
305,165,82924,1,8,0:0:0:0:
305,165,83219,1,8,0:0:0:0:
305,165,83515,1,8,0:0:0:0:
305,165,83811,1,8,0:0:0:0:
305,165,84106,1,0,0:0:0:0:
305,165,84402,1,0,0:0:0:0:
305,165,84550,1,8,0:0:0:0:
285,178,85141,1,0,0:0:0:0:
227,194,85288,1,8,0:0:0:0:
282,157,85584,1,8,0:0:0:0:
241,192,85880,1,8,0:0:0:0:
253,177,86027,1,0,0:0:0:0:
266,177,86175,1,8,0:0:0:0:
248,177,86471,1,0,0:0:0:0:
248,177,86914,1,8,0:0:0:0:
307,157,87505,1,0,0:0:0:0:
311,168,87653,1,8,0:0:0:0:
311,168,87949,1,8,0:0:0:0:
311,168,88244,1,8,0:0:0:0:
253,177,88392,1,0,0:0:0:0:
311,168,88540,1,8,0:0:0:0:
311,168,88835,1,0,0:0:0:0:
311,168,89131,1,0,0:0:0:0:
311,168,89279,1,8,0:0:0:0:
311,168,89426,1,0,0:0:0:0:
305,165,89870,1,0,0:0:0:0:
305,165,90017,1,8,0:0:0:0:
305,165,90313,1,8,0:0:0:0:
305,165,90609,1,8,0:0:0:0:
253,177,90756,1,0,0:0:0:0:
305,165,90904,1,8,0:0:0:0:
305,165,91200,1,0,0:0:0:0:
305,165,91643,1,8,0:0:0:0:
305,165,92234,1,0,0:0:0:0:
305,165,92382,1,8,0:0:0:0:
305,165,92678,1,8,0:0:0:0:
305,165,92973,1,8,0:0:0:0:
253,177,93121,1,0,0:0:0:0:
305,165,93269,1,8,0:0:0:0:
305,165,93564,1,0,0:0:0:0:
305,165,93860,1,0,0:0:0:0:
305,165,94008,1,8,0:0:0:0:
291,170,94599,5,4,0:0:0:0:
288,170,94894,1,8,0:0:0:0:
300,173,95042,1,0,0:0:0:0:
324,173,95338,1,8,0:0:0:0:
300,179,95485,1,0,0:0:0:0:
285,201,95633,1,0,0:0:0:0:
438,185,95781,1,8,0:0:0:0:
297,185,95855,1,8,0:0:0:0:
297,185,95929,1,8,0:0:0:0:
270,162,96077,1,0,0:0:0:0:
278,156,96224,1,8,0:0:0:0:
291,187,96372,1,0,0:0:0:0:
240,150,96520,1,8,0:0:0:0:
272,167,96963,5,0,0:0:0:0:
278,164,97259,1,8,0:0:0:0:
285,175,97407,1,0,0:0:0:0:
244,167,97702,1,8,0:0:0:0:
272,167,97850,1,0,0:0:0:0:
272,167,97998,1,0,0:0:0:0:
272,167,98146,1,8,0:0:0:0:
278,164,98293,1,8,0:0:0:0:
275,166,98367,1,8,0:0:0:0:
275,166,98441,1,8,0:0:0:0:
280,169,98589,1,8,0:0:0:0:
281,180,98737,1,0,0:0:0:0:
299,210,98884,1,8,0:0:0:0:
381,195,99032,1,0,0:0:0:0:
326,193,99328,1,0,0:0:0:0:
317,159,99623,1,8,0:0:0:0:
324,173,99771,1,0,0:0:0:0:
285,201,100067,1,8,0:0:0:0:
438,185,100215,1,0,0:0:0:0:
297,185,100362,1,8,0:0:0:0:
297,185,100436,1,8,0:0:0:0:
270,162,100510,1,8,0:0:0:0:
303,170,100658,1,0,0:0:0:0:
291,187,100806,1,0,0:0:0:0:
276,161,100953,1,8,0:0:0:0:
276,161,101101,1,0,0:0:0:0:
256,152,101249,1,8,0:0:0:0:
266,147,101692,1,0,0:0:0:0:
301,169,101988,1,8,0:0:0:0:
325,161,102136,1,0,0:0:0:0:
330,158,102431,1,8,0:0:0:0:
317,169,102579,1,0,0:0:0:0:
317,169,102653,1,0,0:0:0:0:
317,169,102727,1,0,0:0:0:0:
356,174,102875,1,8,0:0:0:0:
295,152,103170,1,0,0:0:0:0:
295,152,103318,1,8,0:0:0:0:
295,152,103761,1,8,0:0:0:0:
329,164,104057,1,4,0:0:0:0:
288,170,104352,1,8,0:0:0:0:
300,173,104500,1,0,0:0:0:0:
324,173,104796,1,8,0:0:0:0:
300,179,104944,1,0,0:0:0:0:
285,201,105091,1,0,0:0:0:0:
438,185,105239,1,8,0:0:0:0:
297,185,105313,1,8,0:0:0:0:
297,185,105387,1,8,0:0:0:0:
270,162,105535,1,0,0:0:0:0:
278,156,105683,1,8,0:0:0:0:
291,187,105830,1,0,0:0:0:0:
240,150,105978,1,8,0:0:0:0:
272,167,106421,5,0,0:0:0:0:
278,164,106717,1,8,0:0:0:0:
285,175,106865,1,0,0:0:0:0:
244,167,107160,1,8,0:0:0:0:
272,167,107308,1,0,0:0:0:0:
272,167,107456,1,0,0:0:0:0:
272,167,107604,1,8,0:0:0:0:
278,164,107751,1,8,0:0:0:0:
275,166,107825,1,8,0:0:0:0:
275,166,107899,1,8,0:0:0:0:
280,169,108047,1,8,0:0:0:0:
281,180,108195,1,0,0:0:0:0:
299,210,108343,1,8,0:0:0:0:
381,195,108490,1,0,0:0:0:0:
326,193,108786,1,0,0:0:0:0:
317,159,109082,1,8,0:0:0:0:
324,173,109229,1,0,0:0:0:0:
285,201,109525,1,8,0:0:0:0:
438,185,109673,1,0,0:0:0:0:
297,185,109820,1,8,0:0:0:0:
297,185,109894,1,8,0:0:0:0:
270,162,109968,1,8,0:0:0:0:
278,169,110116,1,8,0:0:0:0:
291,187,110264,1,0,0:0:0:0:
276,161,110412,1,8,0:0:0:0:
276,161,110559,1,0,0:0:0:0:
256,152,110707,1,8,0:0:0:0:
0,101,111151,6,0,B|164:227|119:29|516:196,1,531.999985794068
311,164,112924,5,8,0:0:0:0:
333,168,112998,1,8,0:0:0:0:
311,164,113072,1,8,0:0:0:0:
310,219,113219,1,8,0:0:0:0:
274,171,113367,1,8,0:0:0:0:
266,165,113515,1,4,0:0:0:0:
288,170,113811,1,8,0:0:0:0:
300,173,113958,1,0,0:0:0:0:
324,173,114254,1,8,0:0:0:0:
300,179,114402,1,0,0:0:0:0:
285,201,114550,1,0,0:0:0:0:
438,185,114697,1,8,0:0:0:0:
297,185,114771,1,8,0:0:0:0:
297,185,114845,1,8,0:0:0:0:
270,162,114993,1,0,0:0:0:0:
273,153,115141,1,8,0:0:0:0:
397,169,115288,1,0,0:0:0:0:
335,169,115436,1,8,0:0:0:0:
272,167,115880,1,0,0:0:0:0:
278,164,116175,1,8,0:0:0:0:
285,175,116323,1,0,0:0:0:0:
244,167,116618,1,8,0:0:0:0:
272,167,116766,1,0,0:0:0:0:
272,167,116914,1,0,0:0:0:0:
272,167,117062,1,8,0:0:0:0:
278,164,117210,1,8,0:0:0:0:
275,166,117284,1,8,0:0:0:0:
275,166,117357,1,8,0:0:0:0:
280,169,117505,1,8,0:0:0:0:
281,180,117653,1,0,0:0:0:0:
299,210,117801,1,8,0:0:0:0:
381,195,117949,1,0,0:0:0:0:
326,193,118244,1,0,0:0:0:0:
317,159,118540,1,8,0:0:0:0:
324,173,118687,1,0,0:0:0:0:
285,201,118983,1,8,0:0:0:0:
438,185,119131,1,0,0:0:0:0:
297,185,119279,1,8,0:0:0:0:
297,185,119352,1,8,0:0:0:0:
270,162,119426,1,8,0:0:0:0:
303,170,119574,1,8,0:0:0:0:
291,187,119722,1,0,0:0:0:0:
292,167,119870,1,8,0:0:0:0:
331,167,120017,1,0,0:0:0:0:
276,161,120165,1,8,0:0:0:0:
266,147,120609,1,0,0:0:0:0:
301,169,120904,1,8,0:0:0:0:
301,145,121052,1,0,0:0:0:0:
330,158,121348,1,8,0:0:0:0:
317,169,121495,1,0,0:0:0:0:
317,169,121569,1,0,0:0:0:0:
317,169,121643,1,0,0:0:0:0:
356,174,121791,1,8,0:0:0:0:
295,152,122086,1,0,0:0:0:0:
295,152,122234,1,8,0:0:0:0:
295,152,122678,1,8,0:0:0:0:
329,164,122973,1,4,0:0:0:0:
288,170,123269,1,8,0:0:0:0:
300,173,123417,1,0,0:0:0:0:
324,173,123712,1,8,0:0:0:0:
300,179,123860,1,0,0:0:0:0:
285,201,124008,1,0,0:0:0:0:
438,185,124155,1,8,0:0:0:0:
297,185,124229,1,8,0:0:0:0:
297,185,124303,1,8,0:0:0:0:
270,162,124451,1,0,0:0:0:0:
230,157,124599,1,8,0:0:0:0:
292,205,124747,1,0,0:0:0:0:
276,186,124894,1,8,0:0:0:0:
272,167,125338,1,0,0:0:0:0:
278,164,125633,1,8,0:0:0:0:
285,175,125781,1,0,0:0:0:0:
244,167,126077,1,8,0:0:0:0:
272,167,126224,1,0,0:0:0:0:
272,167,126372,1,0,0:0:0:0:
272,167,126520,1,8,0:0:0:0:
278,164,126668,1,8,0:0:0:0:
275,166,126742,1,8,0:0:0:0:
275,166,126816,1,8,0:0:0:0:
280,169,126963,1,8,0:0:0:0:
281,180,127111,1,0,0:0:0:0:
299,210,127259,1,8,0:0:0:0:
381,195,127407,1,0,0:0:0:0:
326,193,127702,1,0,0:0:0:0:
317,159,127998,1,8,0:0:0:0:
324,173,128146,1,0,0:0:0:0:
285,201,128441,1,8,0:0:0:0:
438,185,128589,1,0,0:0:0:0:
297,185,128737,1,8,0:0:0:0:
297,185,128811,1,8,0:0:0:0:
270,162,128884,1,8,0:0:0:0:
303,170,129032,1,0,0:0:0:0:
291,187,129180,1,0,0:0:0:0:
309,167,129328,1,8,0:0:0:0:
276,161,129623,1,8,0:0:0:0:
266,147,130067,1,0,0:0:0:0:
301,169,130362,1,8,0:0:0:0:
301,145,130510,1,0,0:0:0:0:
330,158,130806,1,8,0:0:0:0:
317,169,130953,1,0,0:0:0:0:
317,169,131027,1,0,0:0:0:0:
317,169,131101,1,0,0:0:0:0:
356,174,131249,1,8,0:0:0:0:
295,152,131545,1,0,0:0:0:0:
295,152,131692,1,8,0:0:0:0:
295,152,132136,1,8,0:0:0:0:
329,164,132431,1,4,0:0:0:0:
284,122,132727,1,8,0:0:0:0:
284,122,132875,1,0,0:0:0:0:
287,190,133170,1,8,0:0:0:0:
315,141,133318,1,0,0:0:0:0:
315,141,133466,1,8,0:0:0:0:
315,141,133540,1,8,0:0:0:0:
318,147,133614,1,8,0:0:0:0:
303,185,133761,1,0,0:0:0:0:
325,153,133909,1,8,0:0:0:0:
325,153,134057,1,8,0:0:0:0:
299,134,134205,1,0,0:0:0:0:
299,157,134352,1,8,0:0:0:0:
285,126,134796,1,0,0:0:0:0:
326,140,135091,1,8,0:0:0:0:
326,140,135239,1,0,0:0:0:0:
310,132,135535,1,8,0:0:0:0:
310,132,135683,1,0,0:0:0:0:
310,132,135830,1,8,0:0:0:0:
304,166,135904,1,8,0:0:0:0:
304,166,135978,1,8,0:0:0:0:
285,126,136126,1,0,0:0:0:0:
285,126,136274,1,8,0:0:0:0:
285,126,136421,1,0,0:0:0:0:
285,126,136569,1,8,0:0:0:0:
285,126,136717,1,0,0:0:0:0:
294,140,136791,1,0,0:0:0:0:
294,140,136865,1,0,0:0:0:0:
285,126,137160,1,0,0:0:0:0:
284,122,137456,1,8,0:0:0:0:
284,122,137604,1,0,0:0:0:0:
287,190,137899,1,8,0:0:0:0:
315,141,138047,1,0,0:0:0:0:
315,141,138195,1,8,0:0:0:0:
315,141,138269,1,8,0:0:0:0:
318,147,138343,1,8,0:0:0:0:
303,185,138490,1,0,0:0:0:0:
325,153,138638,1,8,0:0:0:0:
325,153,138786,1,8,0:0:0:0:
299,134,138934,1,0,0:0:0:0:
293,163,139082,1,8,0:0:0:0:
311,172,139525,1,0,0:0:0:0:
300,170,139673,1,8,0:0:0:0:
300,170,139747,1,8,0:0:0:0:
300,170,139820,1,8,0:0:0:0:
300,183,139968,1,0,0:0:0:0:
310,195,140116,1,0,0:0:0:0:
310,195,140190,1,0,0:0:0:0:
310,195,140264,1,0,0:0:0:0:
303,173,140412,1,0,0:0:0:0:
391,191,140559,1,8,0:0:0:0:
329,143,140707,1,0,0:0:0:0:
372,176,140855,1,8,0:0:0:0:
328,164,141003,1,0,0:0:0:0:
326,137,141077,1,0,0:0:0:0:
345,166,141151,1,0,0:0:0:0:
345,166,141298,1,0,0:0:0:0:
345,166,141594,1,8,0:0:0:0:
361,163,141889,1,4,0:0:0:0:
284,122,142185,1,8,0:0:0:0:
284,122,142333,1,0,0:0:0:0:
287,190,142628,1,8,0:0:0:0:
315,141,142776,1,0,0:0:0:0:
315,141,142924,1,8,0:0:0:0:
315,141,142998,1,8,0:0:0:0:
318,147,143072,1,8,0:0:0:0:
303,185,143219,1,0,0:0:0:0:
325,153,143367,1,8,0:0:0:0:
325,153,143515,1,8,0:0:0:0:
299,134,143663,1,0,0:0:0:0:
381,137,143811,1,8,0:0:0:0:
285,126,144254,1,0,0:0:0:0:
326,140,144550,1,8,0:0:0:0:
326,140,144697,1,0,0:0:0:0:
310,132,144993,1,8,0:0:0:0:
310,132,145141,1,0,0:0:0:0:
310,132,145288,1,8,0:0:0:0:
310,132,145362,1,8,0:0:0:0:
285,126,145436,1,8,0:0:0:0:
329,154,145584,1,0,0:0:0:0:
285,126,145732,1,8,0:0:0:0:
285,126,145880,1,0,0:0:0:0:
285,126,146027,1,8,0:0:0:0:
285,126,146175,1,0,0:0:0:0:
294,140,146249,1,0,0:0:0:0:
294,140,146323,1,0,0:0:0:0:
285,126,146618,1,0,0:0:0:0:
284,122,146914,1,8,0:0:0:0:
284,122,147062,1,0,0:0:0:0:
287,190,147357,1,8,0:0:0:0:
315,141,147505,1,0,0:0:0:0:
315,141,147653,1,8,0:0:0:0:
315,141,147727,1,8,0:0:0:0:
318,147,147801,1,8,0:0:0:0:
303,185,147949,1,0,0:0:0:0:
325,153,148096,1,8,0:0:0:0:
325,153,148244,1,8,0:0:0:0:
299,134,148392,1,0,0:0:0:0:
363,148,148540,1,8,0:0:0:0:
311,172,148983,1,0,0:0:0:0:
300,170,149131,1,8,0:0:0:0:
300,170,149205,1,8,0:0:0:0:
300,170,149279,1,8,0:0:0:0:
300,183,149426,1,0,0:0:0:0:
310,195,149574,1,0,0:0:0:0:
310,195,149648,1,0,0:0:0:0:
310,195,149722,1,0,0:0:0:0:
303,173,149870,1,0,0:0:0:0:
248,156,150017,1,0,0:0:0:0:
391,191,150165,1,8,0:0:0:0:
328,164,150461,1,0,0:0:0:0:
372,176,150609,1,8,0:0:0:0:
345,166,151052,1,8,0:0:0:0:
321,169,151348,1,4,0:0:0:0:
346,154,151643,1,0,0:0:0:0:
244,128,151791,1,8,0:0:0:0:
345,166,151939,1,0,0:0:0:0:
292,140,152234,1,0,0:0:0:0:
346,154,152382,1,8,0:0:0:0:
346,154,152825,1,0,0:0:0:0:
346,154,153269,1,8,0:0:0:0:
346,154,153712,1,0,0:0:0:0:
346,154,154008,1,0,0:0:0:0:
346,154,154155,1,8,0:0:0:0:
346,154,154303,1,0,0:0:0:0:
346,154,154599,1,0,0:0:0:0:
346,154,154747,1,8,0:0:0:0:
346,154,155042,1,8,0:0:0:0:
346,154,155190,1,0,0:0:0:0:
346,154,155338,1,8,0:0:0:0:
346,154,155485,1,0,0:0:0:0:
346,154,155633,1,8,0:0:0:0:
346,154,155781,1,0,0:0:0:0:
346,154,156077,1,0,0:0:0:0:
346,154,156372,1,0,0:0:0:0:
346,154,156520,1,8,0:0:0:0:
346,154,156668,1,0,0:0:0:0:
346,154,156963,1,0,0:0:0:0:
346,154,157111,1,8,0:0:0:0:
346,154,157554,1,0,0:0:0:0:
337,150,157998,1,8,0:0:0:0:
337,150,158441,1,0,0:0:0:0:
337,150,158737,1,0,0:0:0:0:
337,150,158884,1,8,0:0:0:0:
337,150,159032,1,0,0:0:0:0:
337,150,159328,1,0,0:0:0:0:
337,150,159476,1,8,0:0:0:0:
337,150,159771,1,8,0:0:0:0:
337,150,159919,1,0,0:0:0:0:
337,150,160067,1,0,0:0:0:0:
337,150,160215,1,8,0:0:0:0:
381,162,160510,1,0,0:0:0:0:
337,150,160806,1,8,0:0:0:0:
346,154,161101,1,0,0:0:0:0:
346,154,161249,1,8,0:0:0:0:
346,154,161397,1,0,0:0:0:0:
337,155,161692,1,0,0:0:0:0:
346,154,161840,1,8,0:0:0:0:
346,154,162284,1,0,0:0:0:0:
346,154,162727,1,8,0:0:0:0:
346,154,163170,1,8,0:0:0:0:
346,154,163466,1,0,0:0:0:0:
346,154,163614,1,8,0:0:0:0:
346,154,163761,1,0,0:0:0:0:
346,154,164057,1,0,0:0:0:0:
346,154,164205,1,8,0:0:0:0:
346,154,164500,1,8,0:0:0:0:
346,154,164648,1,0,0:0:0:0:
346,154,164796,1,8,0:0:0:0:
346,154,164944,1,0,0:0:0:0:
346,154,165091,1,8,0:0:0:0:
346,154,165239,1,0,0:0:0:0:
346,154,165535,1,8,0:0:0:0:
346,154,165830,1,0,0:0:0:0:
346,154,165978,1,8,0:0:0:0:
346,154,166126,1,0,0:0:0:0:
346,154,166421,1,0,0:0:0:0:
346,154,166569,1,8,0:0:0:0:
346,154,167013,1,0,0:0:0:0:
337,150,167456,1,8,0:0:0:0:
337,150,167899,1,8,0:0:0:0:
337,150,168195,1,0,0:0:0:0:
337,150,168343,1,8,0:0:0:0:
337,150,168490,1,0,0:0:0:0:
337,150,168786,1,0,0:0:0:0:
337,150,168934,1,8,0:0:0:0:
337,150,169229,1,8,0:0:0:0:
337,150,169377,1,0,0:0:0:0:
337,150,169525,1,0,0:0:0:0:
337,150,169673,1,8,0:0:0:0:
337,150,169968,1,0,0:0:0:0:
381,162,170264,1,8,0:0:0:0:
346,154,170559,1,0,0:0:0:0:
346,154,170855,1,8,0:0:0:0:
337,155,171151,1,0,0:0:0:0:
346,154,171298,1,8,0:0:0:0:
346,154,171742,1,0,0:0:0:0:
346,154,172185,1,8,0:0:0:0:
346,154,172628,1,8,0:0:0:0:
346,154,172924,1,0,0:0:0:0:
346,154,173219,1,8,0:0:0:0:
346,154,173515,1,0,0:0:0:0:
346,154,173663,1,8,0:0:0:0:
346,154,173958,1,8,0:0:0:0:
346,154,174106,1,0,0:0:0:0:
346,154,174254,1,0,0:0:0:0:
346,154,174402,1,8,0:0:0:0:
346,154,174697,1,0,0:0:0:0:
346,154,174993,1,8,0:0:0:0:
346,154,175288,1,0,0:0:0:0:
346,154,175584,1,8,0:0:0:0:
346,154,175880,1,0,0:0:0:0:
346,154,176027,1,8,0:0:0:0:
346,154,176471,1,0,0:0:0:0:
337,150,176914,1,8,0:0:0:0:
337,150,177357,1,8,0:0:0:0:
337,150,177653,1,0,0:0:0:0:
337,150,177949,1,8,0:0:0:0:
337,150,178244,1,0,0:0:0:0:
337,150,178392,1,8,0:0:0:0:
337,150,178687,1,8,0:0:0:0:
337,150,178835,1,0,0:0:0:0:
337,150,178983,1,0,0:0:0:0:
337,150,179131,1,8,0:0:0:0:
337,150,179426,1,0,0:0:0:0:
381,162,179722,1,8,0:0:0:0:
346,154,180756,1,8,0:0:0:0:
346,154,181200,1,0,0:0:0:0:
346,154,181643,1,8,0:0:0:0:
346,154,182086,1,8,0:0:0:0:
346,154,183269,1,0,0:0:0:0:
346,154,183860,1,8,0:0:0:0:
346,154,184155,1,0,0:0:0:0:
346,154,184451,1,8,0:0:0:0:
337,150,185485,1,0,0:0:0:0:
337,150,185929,1,8,0:0:0:0:
346,154,186372,1,0,0:0:0:0:
346,154,186816,1,8,0:0:0:0:
337,150,187998,1,0,0:0:0:0:
337,150,188589,1,0,0:0:0:0:
337,150,188884,1,0,0:0:0:0:
387,112,189180,1,8,0:0:0:0:
