osu file format v14

[General]
AudioFilename: audio.mp3
AudioLeadIn: 0
PreviewTime: 75683
Countdown: 0
SampleSet: Normal
StackLeniency: 0.7
Mode: 1
LetterboxInBreaks: 0
WidescreenStoryboard: 0

[Editor]
Bookmarks: 18934,28392,37850,47308,56766,66224,75683,85141,94599,104057,113515,122973,132431,141889,151348,160806,170264,179722
DistanceSpacing: 1.5
BeatDivisor: 8
GridSize: 4
TimelineZoom: 2.3

[Metadata]
Title:spaceman
TitleUnicode:spaceman
Artist:Kola Kid
ArtistUnicode:Kola Kid
Creator:Gamelan4
Version:freedom
Source:osu!
Tags:fa featured artist rave to the grave chiptune breakcore electronic instrumental 8bit 8-bit Etsu HiroK mpg mg mappers' guild
BeatmapID:2317154
BeatmapSetID:1108777

[Difficulty]
HPDrainRate:5
CircleSize:5
OverallDifficulty:6
ApproachRate:5
SliderMultiplier:1.4
SliderTickRate:1

[Events]
//Background and Video events
0,0,"legomanuwu.jpg",0,0
//Break Periods
//Storyboard Layer 0 (Background)
//Storyboard Layer 1 (Fail)
//Storyboard Layer 2 (Pass)
//Storyboard Layer 3 (Foreground)
//Storyboard Layer 4 (Overlay)
//Storyboard Sound Samples

[TimingPoints]
18,295.566502463054,4,1,0,75,1,0
18,-133.333333333333,4,1,0,75,0,0
18601,-131.578947368421,4,1,0,76,0,0
18675,-129.87012987013,4,1,0,77,0,0
18749,-128.205128205128,4,1,0,78,0,0
18823,-126.582278481013,4,1,0,79,0,0
18897,-125,4,1,0,80,0,0
28059,-123.456790123457,4,1,0,81,0,0
28219,-121.951219512195,4,1,0,81,0,0
28269,-120.481927710843,4,1,0,81,0,0
28318,-119.047619047619,4,1,0,81,0,0
28367,-117.647058823529,4,1,0,81,0,0
37776,-111.111111111111,4,1,0,90,0,0
56692,-105.263157894737,4,1,0,95,0,0
75609,-133.333333333333,4,1,0,85,0,0
94525,-105.263157894737,4,1,0,95,0,0
111151,-40,4,1,0,95,0,0
111594,-133.333333333333,4,1,0,95,0,0
113515,-105.263157894737,4,1,0,95,0,0
132111,-104.166666666667,4,1,0,96,0,0
132160,-103.092783505155,4,1,0,97,0,0
132210,-102.040816326531,4,1,0,98,0,0
132259,-101.010101010101,4,1,0,99,0,0
132431,-100,4,1,0,100,0,1
150867,-102.040816326531,4,1,0,100,0,1
150941,-104.166666666667,4,1,0,100,0,1
151015,-106.382978723404,4,1,0,100,0,1
151089,-108.695652173913,4,1,0,100,0,1
151163,-111.111111111111,4,1,0,100,0,1
151348,-111.111111111111,4,1,0,100,0,0
160732,-117.647058823529,4,1,0,85,0,0
170190,-125,4,1,0,80,0,0
179648,-133.333333333333,4,1,0,75,0,0

[HitObjects]
252,192,18,5,8,1:1:0:0:
260,188,313,1,0,1:1:0:0:
261,189,904,1,8,1:1:0:0:
261,189,1791,1,0,1:1:0:0:
261,189,1939,1,0,1:1:0:0:
261,189,2086,1,0,1:1:0:0:
261,189,2382,1,8,1:1:0:0:
261,189,2678,1,0,1:1:0:0:
261,189,3269,1,8,1:1:0:0:
261,189,3712,1,0,1:1:0:0:
263,182,4008,1,0,1:1:0:0:
263,182,4303,1,8,1:1:0:0:
263,182,4747,1,8,1:1:0:0:
263,182,5042,1,0,1:1:0:0:
263,182,5633,1,8,1:1:0:0:
263,182,6520,1,0,1:1:0:0:
263,182,6668,1,0,1:1:0:0:
263,182,6816,1,0,1:1:0:0:
263,182,7111,1,8,1:1:0:0:
263,182,7407,1,0,1:1:0:0:
263,182,7998,1,8,1:1:0:0:
263,182,8441,1,0,1:1:0:0:
263,182,8737,1,0,1:1:0:0:
272,176,8884,1,8,1:1:0:0:
272,176,9180,1,8,1:1:0:0:
263,182,9476,1,8,1:1:0:0:
263,182,9623,1,8,1:1:0:0:
270,174,9771,1,0,1:1:0:0:
266,174,10362,1,8,1:1:0:0:
271,172,11249,1,0,1:1:0:0:
271,172,11397,1,0,1:1:0:0:
271,172,11545,1,0,1:1:0:0:
263,177,11840,1,8,1:1:0:0:
263,177,12136,1,0,1:1:0:0:
263,177,12727,1,8,1:1:0:0:
263,177,13170,1,0,1:1:0:0:
263,177,13466,1,0,1:1:0:0:
263,177,13761,1,8,1:1:0:0:
256,172,13909,1,0,1:1:0:0:
256,172,14057,1,0,1:1:0:0:
263,177,14205,1,8,1:1:0:0:
263,177,14500,1,0,1:1:0:0:
263,177,14796,1,0,1:1:0:0:
260,176,14944,1,0,1:1:0:0:
263,177,15091,1,8,1:1:0:0:
263,177,15978,1,0,1:1:0:0:
263,177,16126,1,0,1:1:0:0:
263,177,16274,1,0,1:1:0:0:
263,177,16569,1,8,1:1:0:0:
263,177,16865,1,0,1:1:0:0:
263,177,17160,1,0,1:1:0:0:
263,177,17456,1,8,1:1:0:0:
263,177,17899,1,8,1:1:0:0:
272,176,18047,1,8,1:1:0:0:
272,176,18121,1,8,1:1:0:0:
263,177,18195,1,8,1:1:0:0:
263,177,18343,1,0,1:1:0:0:
263,177,18638,1,0,1:1:0:0:
250,177,18712,1,0,1:1:0:0:
250,176,18786,1,0,1:1:0:0:
250,176,18860,1,0,1:1:0:0:
250,176,18934,1,8,1:1:0:0:
264,172,19082,1,0,1:1:0:0:
252,168,19155,1,8,1:1:0:0:
263,177,19229,1,0,1:1:0:0:
263,177,19377,1,8,1:1:0:0:
263,177,19525,1,0,1:1:0:0:
264,172,19673,1,0,1:1:0:0:
264,172,19747,1,0,1:1:0:0:
256,172,19820,1,0,1:1:0:0:
264,176,19968,1,8,1:1:0:0:
255,162,20116,1,8,1:1:0:0:
253,174,20190,1,8,1:1:0:0:
256,160,20264,1,8,1:1:0:0:
256,168,20338,1,0,1:1:0:0:
256,164,20412,1,8,1:1:0:0:
256,168,20559,1,0,1:1:0:0:
256,168,20707,1,0,1:1:0:0:
256,172,20855,1,0,1:1:0:0:
252,172,20929,1,0,1:1:0:0:
252,172,21003,1,8,1:1:0:0:
252,172,21151,1,8,1:1:0:0:
248,164,21298,1,0,1:1:0:0:
260,172,21594,1,0,1:1:0:0:
247,171,21742,1,0,1:1:0:0:
256,172,21889,1,8,1:1:0:0:
252,172,22037,1,0,1:1:0:0:
252,172,22111,1,0,1:1:0:0:
252,172,22185,1,8,1:1:0:0:
248,160,22333,1,8,1:1:0:0:
252,156,22481,1,8,1:1:0:0:
252,168,22554,1,8,1:1:0:0:
252,168,22628,1,8,1:1:0:0:
252,168,22702,1,8,1:1:0:0:
252,168,22776,1,0,1:1:0:0:
247,167,22924,1,8,1:1:0:0:
256,177,23072,1,0,1:1:0:0:
258,169,23219,1,8,1:1:0:0:
254,166,23367,1,0,1:1:0:0:
249,162,23663,1,0,1:1:0:0:
273,170,23737,1,8,1:1:0:0:
258,171,23811,1,8,1:1:0:0:
272,163,23958,1,0,1:1:0:0:
200,160,24106,1,8,1:1:0:0:
256,160,24180,1,8,1:1:0:0:
272,160,24254,1,0,1:1:0:0:
264,164,24402,1,8,1:1:0:0:
288,160,24550,1,0,1:1:0:0:
261,162,24623,1,0,1:1:0:0:
288,160,24697,1,8,1:1:0:0:
252,172,24845,1,0,1:1:0:0:
264,164,24993,1,0,1:1:0:0:
264,164,25067,1,0,1:1:0:0:
264,164,25141,1,0,1:1:0:0:
261,162,25215,1,0,1:1:0:0:
244,160,25288,1,8,1:1:0:0:
264,164,25436,1,8,1:1:0:0:
252,156,25510,1,8,1:1:0:0:
244,160,25584,1,0,1:1:0:0:
264,164,25732,1,8,1:1:0:0:
264,164,25880,1,8,1:1:0:0:
264,164,26027,1,0,1:1:0:0:
284,152,26323,1,0,1:1:0:0:
256,164,26397,1,0,1:1:0:0:
260,152,26471,1,8,1:1:0:0:
260,152,26618,1,8,1:1:0:0:
280,160,26914,1,8,1:1:0:0:
280,160,27062,1,8,1:1:0:0:
292,164,27210,1,0,1:1:0:0:
288,156,27284,1,0,1:1:0:0:
288,156,27357,1,8,1:1:0:0:
256,164,27431,1,8,1:1:0:0:
296,160,27505,1,0,1:1:0:0:
268,148,27653,1,8,1:1:0:0:
280,160,27801,1,0,1:1:0:0:
300,136,27949,1,8,1:1:0:0:
300,136,28096,1,8,1:1:0:0:
256,164,28244,1,8,1:1:0:0:
272,148,28293,1,8,1:1:0:0:
272,176,28343,1,8,1:1:0:0:
268,148,28392,1,0,1:1:0:0:
264,172,28540,1,0,1:1:0:0:
252,168,28614,1,8,1:1:0:0:
263,177,28687,1,0,1:1:0:0:
284,172,28761,1,0,1:1:0:0:
263,177,28835,1,8,1:1:0:0:
263,177,28983,1,0,1:1:0:0:
264,172,29131,1,0,1:1:0:0:
264,172,29205,1,0,1:1:0:0:
256,172,29279,1,8,1:1:0:0:
264,176,29426,1,8,1:1:0:0:
233,171,29574,1,8,1:1:0:0:
233,171,29623,1,8,1:1:0:0:
256,160,29673,1,8,1:1:0:0:
233,163,29722,1,0,0:0:0:0:
256,168,29796,1,0,1:1:0:0:
256,164,29870,1,8,1:1:0:0:
256,168,30017,1,0,1:1:0:0:
260,156,30091,1,8,1:1:0:0:
256,168,30165,1,0,1:1:0:0:
260,164,30239,1,0,1:1:0:0:
260,164,30313,1,0,1:1:0:0:
252,172,30387,1,0,1:1:0:0:
252,172,30461,1,8,1:1:0:0:
252,172,30609,1,8,1:1:0:0:
248,164,30756,1,0,1:1:0:0:
260,172,31052,1,0,1:1:0:0:
249,162,31200,1,0,1:1:0:0:
256,172,31348,1,8,1:1:0:0:
252,172,31495,1,0,1:1:0:0:
252,172,31569,1,0,1:1:0:0:
252,172,31643,1,8,1:1:0:0:
248,160,31791,1,8,1:1:0:0:
252,156,31939,1,8,1:1:0:0:
252,168,32013,1,8,1:1:0:0:
252,168,32086,1,8,1:1:0:0:
252,168,32160,1,8,1:1:0:0:
252,168,32234,1,0,1:1:0:0:
247,167,32382,1,8,1:1:0:0:
256,177,32530,1,0,1:1:0:0:
258,169,32678,1,8,1:1:0:0:
254,166,32825,1,0,1:1:0:0:
249,162,33121,1,0,1:1:0:0:
273,170,33195,1,8,1:1:0:0:
258,171,33269,1,8,1:1:0:0:
272,163,33417,1,0,1:1:0:0:
200,160,33564,1,8,1:1:0:0:
256,160,33638,1,8,1:1:0:0:
272,160,33712,1,0,1:1:0:0:
272,152,33786,1,0,1:1:0:0:
264,164,33860,1,8,1:1:0:0:
288,160,34008,1,0,1:1:0:0:
288,160,34155,1,8,1:1:0:0:
251,156,34303,1,8,1:1:0:0:
264,164,34352,1,8,1:1:0:0:
264,164,34402,1,8,1:1:0:0:
292,152,34451,1,0,0:0:0:0:
264,164,34525,1,0,1:1:0:0:
289,192,34599,1,8,0:0:0:0:
244,160,34747,1,0,1:1:0:0:
192,160,34820,1,8,1:1:0:0:
264,164,34894,1,0,1:1:0:0:
252,156,34968,1,0,1:1:0:0:
244,160,35042,1,0,1:1:0:0:
261,163,35116,1,0,0:0:0:0:
264,164,35190,1,8,1:1:0:0:
264,164,35338,1,8,1:1:0:0:
241,157,35412,1,8,1:1:0:0:
264,164,35485,1,0,1:1:0:0:
284,152,35781,1,0,1:1:0:0:
256,164,35855,1,0,1:1:0:0:
260,152,35929,1,8,1:1:0:0:
260,152,36077,1,8,1:1:0:0:
349,179,36224,1,0,0:0:0:0:
280,160,36372,1,8,1:1:0:0:
292,164,36668,1,8,1:1:0:0:
288,156,36742,1,8,1:1:0:0:
288,156,36816,1,8,1:1:0:0:
256,164,36889,1,8,1:1:0:0:
296,160,36963,1,0,1:1:0:0:
268,148,37111,1,8,1:1:0:0:
280,160,37259,1,0,1:1:0:0:
268,148,37850,5,12,1:1:0:0:
284,160,37998,1,0,1:1:0:0:
300,172,38146,1,0,1:1:0:0:
272,160,38293,1,8,1:1:0:0:
232,179,38441,1,0,1:1:0:0:
276,160,38589,1,0,1:1:0:0:
272,160,38737,1,8,1:1:0:0:
272,160,38884,1,8,1:1:0:0:
276,160,38958,1,0,1:1:0:0:
276,160,39032,1,0,1:1:0:0:
272,160,39106,1,0,1:1:0:0:
272,160,39180,1,8,1:1:0:0:
280,152,39328,1,8,1:1:0:0:
280,152,39402,1,0,1:1:0:0:
280,152,39476,1,8,1:1:0:0:
272,160,39623,1,8,1:1:0:0:
280,152,39697,1,0,1:1:0:0:
292,152,39771,1,0,1:1:0:0:
302,166,39919,1,8,1:1:0:0:
281,162,39993,1,0,1:1:0:0:
305,159,40067,1,0,1:1:0:0:
305,159,40141,1,8,1:1:0:0:
272,160,40215,1,0,1:1:0:0:
272,160,40362,1,8,1:1:0:0:
269,157,40510,1,8,1:1:0:0:
272,160,40658,1,0,1:1:0:0:
272,160,40806,1,0,1:1:0:0:
273,155,40953,1,8,1:1:0:0:
261,154,41101,1,0,1:1:0:0:
272,160,41249,1,0,1:1:0:0:
261,154,41397,1,8,1:1:0:0:
272,160,41545,1,8,1:1:0:0:
251,152,41618,1,0,1:1:0:0:
261,154,41692,1,0,1:1:0:0:
251,152,41766,1,0,1:1:0:0:
272,160,41840,1,8,1:1:0:0:
272,160,41988,1,8,1:1:0:0:
263,140,42062,1,0,1:1:0:0:
272,160,42136,1,8,1:1:0:0:
263,140,42210,1,0,1:1:0:0:
263,140,42284,1,0,1:1:0:0:
272,133,42431,1,8,1:1:0:0:
272,144,42579,1,0,1:1:0:0:
272,144,42727,1,0,1:1:0:0:
272,144,42875,1,8,1:1:0:0:
272,144,43022,1,0,1:1:0:0:
272,144,43170,1,0,1:1:0:0:
282,138,43318,1,8,1:1:0:0:
272,144,43466,1,0,1:1:0:0:
282,138,43614,1,8,1:1:0:0:
282,138,43687,1,8,1:1:0:0:
282,138,43761,1,0,1:1:0:0:
282,138,43835,1,8,1:1:0:0:
282,138,43909,1,0,1:1:0:0:
282,138,44057,1,0,1:1:0:0:
282,138,44205,1,8,1:1:0:0:
282,138,44352,1,8,1:1:0:0:
282,138,44426,1,0,1:1:0:0:
282,138,44500,1,8,1:1:0:0:
282,138,44648,1,0,1:1:0:0:
282,138,44722,1,0,1:1:0:0:
282,138,44796,1,0,1:1:0:0:
282,138,44870,1,0,1:1:0:0:
282,138,44944,1,8,1:1:0:0:
282,138,45091,1,0,1:1:0:0:
282,138,45239,1,8,1:1:0:0:
282,138,45387,1,8,1:1:0:0:
282,138,45461,1,8,1:1:0:0:
282,138,45535,1,0,1:1:0:0:
282,138,45683,1,8,1:1:0:0:
292,128,45830,1,0,1:1:0:0:
292,128,45904,1,8,1:1:0:0:
292,128,45978,1,0,1:1:0:0:
292,128,46126,1,8,1:1:0:0:
292,128,46274,1,0,1:1:0:0:
292,128,46348,1,8,1:1:0:0:
292,128,46421,1,0,1:1:0:0:
292,128,46495,1,0,1:1:0:0:
292,128,46569,1,8,1:1:0:0:
292,128,46717,1,0,1:1:0:0:
292,128,46791,1,0,1:1:0:0:
292,128,46865,1,8,1:1:0:0:
292,128,46939,1,8,1:1:0:0:
292,128,47013,1,0,1:1:0:0:
292,128,47160,1,0,1:1:0:0:
292,128,47308,1,12,1:1:0:0:
284,160,47456,1,0,1:1:0:0:
300,172,47604,1,0,1:1:0:0:
272,160,47751,1,8,1:1:0:0:
232,179,47899,1,0,1:1:0:0:
276,160,48047,1,0,1:1:0:0:
272,160,48195,1,8,1:1:0:0:
272,160,48343,1,8,1:1:0:0:
276,160,48417,1,0,1:1:0:0:
276,160,48490,1,0,1:1:0:0:
272,160,48564,1,0,1:1:0:0:
272,160,48638,1,8,1:1:0:0:
276,156,48712,1,0,1:1:0:0:
280,152,48786,1,8,1:1:0:0:
280,152,48860,1,0,1:1:0:0:
280,152,48934,1,8,1:1:0:0:
272,160,49082,1,0,1:1:0:0:
280,152,49155,1,0,1:1:0:0:
292,152,49229,1,8,1:1:0:0:
302,166,49377,1,8,1:1:0:0:
281,162,49451,1,0,1:1:0:0:
305,159,49525,1,0,1:1:0:0:
305,159,49599,1,8,1:1:0:0:
272,160,49673,1,0,1:1:0:0:
272,160,49820,1,8,1:1:0:0:
269,157,49968,1,8,1:1:0:0:
272,160,50116,1,0,1:1:0:0:
272,160,50264,1,0,1:1:0:0:
273,155,50412,1,8,1:1:0:0:
261,154,50559,1,0,1:1:0:0:
272,160,50707,1,0,1:1:0:0:
261,154,50855,1,8,1:1:0:0:
272,160,51003,1,8,1:1:0:0:
251,152,51077,1,0,1:1:0:0:
261,154,51151,1,0,1:1:0:0:
251,152,51224,1,0,1:1:0:0:
272,160,51298,1,8,1:1:0:0:
272,160,51446,1,8,1:1:0:0:
263,140,51520,1,0,1:1:0:0:
272,160,51594,1,8,1:1:0:0:
263,140,51668,1,0,1:1:0:0:
263,140,51742,1,0,1:1:0:0:
272,133,51889,1,8,1:1:0:0:
272,144,52037,1,0,1:1:0:0:
272,144,52185,1,0,1:1:0:0:
272,144,52333,1,8,1:1:0:0:
272,144,52481,1,0,1:1:0:0:
272,144,52628,1,0,1:1:0:0:
272,144,52776,1,8,1:1:0:0:
282,138,52924,1,0,1:1:0:0:
282,138,53072,1,8,1:1:0:0:
282,138,53146,1,8,1:1:0:0:
282,138,53219,1,0,1:1:0:0:
282,138,53293,1,8,1:1:0:0:
282,138,53367,1,0,1:1:0:0:
282,138,53515,1,0,1:1:0:0:
282,138,53663,1,8,1:1:0:0:
282,138,53811,1,8,1:1:0:0:
282,138,53884,1,8,1:1:0:0:
282,138,53958,1,8,1:1:0:0:
268,132,54032,1,0,1:1:0:0:
282,138,54106,1,8,1:1:0:0:
282,138,54180,1,8,1:1:0:0:
282,138,54254,1,8,1:1:0:0:
282,138,54328,1,0,1:1:0:0:
282,138,54402,1,8,1:1:0:0:
282,138,54550,1,0,1:1:0:0:
282,138,54697,1,8,1:1:0:0:
282,138,54845,1,8,1:1:0:0:
282,138,54919,1,8,1:1:0:0:
282,138,54993,1,0,1:1:0:0:
312,140,55067,1,0,1:1:0:0:
282,138,55141,1,8,1:1:0:0:
312,140,55190,1,8,1:1:0:0:
236,152,55239,1,8,1:1:0:0:
292,128,55288,1,0,1:1:0:0:
292,128,55362,1,8,1:1:0:0:
292,128,55436,1,0,1:1:0:0:
284,124,55510,1,0,1:1:0:0:
292,128,55584,1,8,1:1:0:0:
292,128,55732,1,0,1:1:0:0:
292,128,55806,1,8,1:1:0:0:
292,128,55880,1,0,1:1:0:0:
292,128,55953,1,0,1:1:0:0:
292,128,56027,1,8,1:1:0:0:
268,148,56175,1,4,1:1:0:0:
292,128,56766,1,12,1:1:0:0:
284,160,56914,1,0,1:1:0:0:
300,172,57062,1,0,1:1:0:0:
272,160,57210,1,8,1:1:0:0:
232,179,57357,1,0,1:1:0:0:
276,160,57505,1,0,1:1:0:0:
272,160,57653,1,8,1:1:0:0:
272,160,57801,1,8,1:1:0:0:
276,160,57875,1,0,1:1:0:0:
276,160,57949,1,0,1:1:0:0:
272,160,58022,1,0,1:1:0:0:
272,160,58096,1,8,1:1:0:0:
276,156,58170,1,0,1:1:0:0:
280,152,58244,1,8,1:1:0:0:
280,152,58318,1,0,1:1:0:0:
280,152,58392,1,8,1:1:0:0:
272,160,58540,1,0,1:1:0:0:
280,152,58614,1,0,1:1:0:0:
292,152,58687,1,8,1:1:0:0:
302,166,58835,1,8,1:1:0:0:
281,162,58909,1,0,1:1:0:0:
305,159,58983,1,0,1:1:0:0:
305,159,59057,1,8,1:1:0:0:
272,160,59131,1,0,1:1:0:0:
272,160,59279,1,8,1:1:0:0:
269,157,59426,1,8,1:1:0:0:
272,160,59574,1,0,1:1:0:0:
272,160,59722,1,0,1:1:0:0:
273,155,59870,1,8,1:1:0:0:
261,154,60017,1,0,1:1:0:0:
272,160,60165,1,0,1:1:0:0:
261,154,60313,1,8,1:1:0:0:
272,160,60461,1,8,1:1:0:0:
251,152,60535,1,8,1:1:0:0:
261,154,60609,1,0,1:1:0:0:
251,152,60683,1,0,1:1:0:0:
272,160,60756,1,8,1:1:0:0:
272,160,60904,1,8,1:1:0:0:
263,140,60978,1,0,1:1:0:0:
263,140,61052,1,0,1:1:0:0:
272,160,61126,1,8,1:1:0:0:
263,140,61200,1,0,1:1:0:0:
272,133,61348,1,8,1:1:0:0:
272,144,61495,1,0,1:1:0:0:
272,144,61643,1,0,1:1:0:0:
272,144,61791,1,8,1:1:0:0:
272,144,61939,1,0,1:1:0:0:
272,144,62086,1,0,1:1:0:0:
272,144,62234,1,8,1:1:0:0:
282,138,62382,1,0,1:1:0:0:
282,138,62530,1,8,1:1:0:0:
282,138,62604,1,8,1:1:0:0:
282,138,62678,1,0,1:1:0:0:
282,138,62751,1,8,1:1:0:0:
282,138,62825,1,0,1:1:0:0:
282,138,62973,1,0,1:1:0:0:
282,138,63121,1,8,1:1:0:0:
282,138,63269,1,8,1:1:0:0:
282,138,63343,1,8,1:1:0:0:
282,138,63417,1,8,1:1:0:0:
268,132,63490,1,0,1:1:0:0:
282,138,63564,1,8,1:1:0:0:
282,138,63638,1,8,1:1:0:0:
282,138,63712,1,8,1:1:0:0:
282,138,63786,1,0,1:1:0:0:
282,138,63860,1,8,1:1:0:0:
282,138,64008,1,0,1:1:0:0:
282,138,64155,1,8,1:1:0:0:
282,138,64303,1,8,1:1:0:0:
282,138,64377,1,8,1:1:0:0:
282,138,64451,1,0,1:1:0:0:
312,140,64525,1,0,1:1:0:0:
282,138,64599,1,8,1:1:0:0:
312,140,64648,1,8,1:1:0:0:
236,152,64697,1,8,1:1:0:0:
292,128,64747,1,0,1:1:0:0:
292,128,64820,1,8,1:1:0:0:
292,128,64894,1,0,1:1:0:0:
284,124,64968,1,0,1:1:0:0:
292,128,65042,1,8,1:1:0:0:
292,128,65190,1,0,1:1:0:0:
292,128,65264,1,8,1:1:0:0:
292,128,65338,1,0,1:1:0:0:
292,128,65412,1,0,1:1:0:0:
292,128,65485,1,8,1:1:0:0:
268,148,65633,1,8,1:1:0:0:
280,148,65707,1,8,1:1:0:0:
280,148,65781,1,0,1:1:0:0:
280,148,65855,1,8,1:1:0:0:
280,148,65929,1,0,1:1:0:0:
280,148,66077,1,0,1:1:0:0:
280,148,66224,1,12,1:1:0:0:
284,160,66372,1,0,1:1:0:0:
300,172,66520,1,0,1:1:0:0:
272,131,66594,1,0,0:0:0:0:
272,160,66668,1,8,1:1:0:0:
256,200,66742,1,8,1:1:0:0:
232,179,66816,1,0,1:1:0:0:
276,160,66963,1,0,1:1:0:0:
272,160,67111,1,8,1:1:0:0:
256,200,67185,1,0,1:1:0:0:
272,160,67259,1,8,1:1:0:0:
276,160,67333,1,0,1:1:0:0:
276,160,67407,1,0,1:1:0:0:
272,160,67481,1,0,1:1:0:0:
272,160,67554,1,8,1:1:0:0:
276,156,67628,1,0,1:1:0:0:
280,152,67702,1,8,1:1:0:0:
280,152,67776,1,0,1:1:0:0:
280,152,67850,1,8,1:1:0:0:
272,160,67998,1,0,1:1:0:0:
280,152,68072,1,0,1:1:0:0:
292,152,68146,1,8,1:1:0:0:
302,166,68293,1,8,1:1:0:0:
281,162,68367,1,0,1:1:0:0:
305,159,68441,1,0,1:1:0:0:
305,159,68515,1,8,1:1:0:0:
272,160,68589,1,0,1:1:0:0:
272,160,68737,1,8,1:1:0:0:
269,157,68884,1,8,1:1:0:0:
272,160,69032,1,0,1:1:0:0:
272,160,69180,1,0,1:1:0:0:
271,164,69254,1,0,1:1:0:0:
273,155,69328,1,8,1:1:0:0:
303,172,69402,1,8,1:1:0:0:
261,154,69476,1,0,1:1:0:0:
272,160,69623,1,0,1:1:0:0:
261,154,69771,1,8,1:1:0:0:
256,200,69845,1,8,1:1:0:0:
272,160,69919,1,0,1:1:0:0:
251,152,69993,1,0,1:1:0:0:
261,154,70067,1,0,1:1:0:0:
251,152,70141,1,0,1:1:0:0:
272,160,70215,1,8,1:1:0:0:
272,160,70362,1,8,1:1:0:0:
263,140,70436,1,0,1:1:0:0:
263,140,70510,1,0,1:1:0:0:
272,160,70584,1,8,1:1:0:0:
263,140,70658,1,0,1:1:0:0:
272,133,70806,1,8,1:1:0:0:
272,144,70953,1,0,1:1:0:0:
280,144,71027,1,0,1:1:0:0:
280,144,71101,1,0,1:1:0:0:
272,144,71249,1,8,1:1:0:0:
280,144,71323,1,0,1:1:0:0:
272,144,71397,1,0,1:1:0:0:
272,144,71545,1,0,1:1:0:0:
272,144,71692,1,8,1:1:0:0:
282,138,71840,1,0,1:1:0:0:
280,144,71914,1,0,1:1:0:0:
282,138,71988,1,8,1:1:0:0:
282,138,72062,1,8,1:1:0:0:
282,138,72136,1,0,1:1:0:0:
282,138,72210,1,8,1:1:0:0:
282,138,72284,1,0,1:1:0:0:
282,138,72431,1,0,1:1:0:0:
282,138,72579,1,8,1:1:0:0:
282,138,72727,1,8,1:1:0:0:
282,138,72801,1,8,1:1:0:0:
282,138,72875,1,8,1:1:0:0:
268,132,72949,1,0,1:1:0:0:
282,138,73022,1,8,1:1:0:0:
282,138,73096,1,8,1:1:0:0:
282,138,73170,1,8,1:1:0:0:
282,138,73244,1,0,1:1:0:0:
282,138,73318,1,8,1:1:0:0:
282,138,73466,1,0,1:1:0:0:
282,138,73614,1,8,1:1:0:0:
282,138,73761,1,8,1:1:0:0:
282,138,73835,1,8,1:1:0:0:
282,138,73909,1,0,1:1:0:0:
312,140,73983,1,0,1:1:0:0:
282,138,74057,1,8,1:1:0:0:
312,140,74106,1,8,1:1:0:0:
236,152,74155,1,8,1:1:0:0:
292,128,74205,1,0,1:1:0:0:
292,128,74279,1,8,1:1:0:0:
292,128,74352,1,0,1:1:0:0:
284,124,74426,1,0,1:1:0:0:
292,128,74500,1,8,1:1:0:0:
292,128,74648,1,0,1:1:0:0:
292,128,74722,1,8,1:1:0:0:
292,128,74796,1,0,1:1:0:0:
292,128,74870,1,0,1:1:0:0:
292,128,74944,1,8,1:1:0:0:
268,148,75091,1,8,1:1:0:0:
280,148,75165,1,8,1:1:0:0:
280,148,75239,1,0,1:1:0:0:
280,148,75313,1,8,1:1:0:0:
280,148,75387,1,0,1:1:0:0:
284,144,75683,1,0,1:1:0:0:
284,144,75830,1,8,1:1:0:0:
284,144,76126,1,8,1:1:0:0:
284,144,76421,1,8,1:1:0:0:
284,144,76569,1,0,1:1:0:0:
284,144,76717,1,8,1:1:0:0:
272,132,77013,1,0,1:1:0:0:
284,144,77456,1,8,1:1:0:0:
280,140,78047,1,0,1:1:0:0:
284,144,78195,1,8,1:1:0:0:
284,144,78490,1,8,1:1:0:0:
296,140,78786,1,8,1:1:0:0:
300,132,78934,1,0,1:1:0:0:
300,132,79082,1,0,1:1:0:0:
280,136,79377,1,0,1:1:0:0:
296,140,79673,1,0,1:1:0:0:
296,140,79820,1,8,1:1:0:0:
292,144,79968,1,0,1:1:0:0:
288,152,80412,1,0,1:1:0:0:
288,152,80559,1,8,1:1:0:0:
288,152,80855,1,8,1:1:0:0:
288,152,81151,1,8,1:1:0:0:
288,152,81298,1,0,1:1:0:0:
288,152,81446,1,8,1:1:0:0:
288,152,81742,1,0,1:1:0:0:
288,152,82185,1,8,1:1:0:0:
292,156,82776,1,0,1:1:0:0:
292,156,82924,1,8,1:1:0:0:
292,156,83219,1,8,1:1:0:0:
292,156,83515,1,8,1:1:0:0:
292,156,83663,1,0,1:1:0:0:
292,156,83811,1,8,1:1:0:0:
292,156,84106,1,0,1:1:0:0:
292,156,84402,1,0,1:1:0:0:
292,156,84550,1,8,1:1:0:0:
292,156,85141,1,0,1:1:0:0:
300,148,85288,1,8,1:1:0:0:
292,156,85436,1,0,1:1:0:0:
296,152,85584,1,8,1:1:0:0:
312,152,85880,1,8,1:1:0:0:
312,152,86027,1,0,1:1:0:0:
312,152,86175,1,0,1:1:0:0:
316,152,86471,1,0,1:1:0:0:
312,152,86914,1,8,1:1:0:0:
312,152,87505,1,0,1:1:0:0:
312,152,87653,1,8,1:1:0:0:
312,152,87801,1,0,1:1:0:0:
312,152,87949,1,8,1:1:0:0:
312,152,88244,1,8,1:1:0:0:
312,152,88392,1,0,1:1:0:0:
312,152,88540,1,8,1:1:0:0:
312,152,88835,1,0,1:1:0:0:
304,148,89131,1,0,1:1:0:0:
304,148,89279,1,8,1:1:0:0:
304,148,89426,1,0,1:1:0:0:
304,148,89870,1,0,1:1:0:0:
304,148,90017,1,8,1:1:0:0:
304,148,90165,1,0,1:1:0:0:
304,148,90313,1,8,1:1:0:0:
304,148,90609,1,8,1:1:0:0:
304,148,90756,1,0,1:1:0:0:
304,148,90904,1,0,1:1:0:0:
304,148,91200,1,0,1:1:0:0:
304,148,91643,1,8,1:1:0:0:
304,148,92234,1,0,1:1:0:0:
304,148,92382,1,8,1:1:0:0:
304,148,92530,1,0,1:1:0:0:
304,148,92678,1,8,1:1:0:0:
304,148,92973,1,8,1:1:0:0:
304,148,93121,1,0,1:1:0:0:
304,148,93269,1,8,1:1:0:0:
308,156,93564,1,0,1:1:0:0:
308,156,93860,1,0,1:1:0:0:
308,156,94008,1,8,1:1:0:0:
308,156,94599,1,4,1:1:0:0:
304,156,94747,1,0,1:1:0:0:
304,156,94894,1,8,1:1:0:0:
304,156,95042,1,0,1:1:0:0:
304,156,95190,1,0,1:1:0:0:
304,156,95338,1,8,1:1:0:0:
300,148,95485,1,0,1:1:0:0:
304,156,95633,1,0,1:1:0:0:
300,148,95707,1,8,1:1:0:0:
300,148,95781,1,0,1:1:0:0:
300,148,95855,1,8,1:1:0:0:
276,152,95929,1,0,1:1:0:0:
304,156,96077,1,0,1:1:0:0:
296,152,96224,1,8,1:1:0:0:
292,148,96372,1,0,1:1:0:0:
292,148,96446,1,0,1:1:0:0:
292,148,96520,1,8,1:1:0:0:
292,148,96668,1,8,1:1:0:0:
292,148,96742,1,0,1:1:0:0:
292,148,96816,1,8,1:1:0:0:
292,148,96889,1,8,1:1:0:0:
292,148,96963,1,0,1:1:0:0:
292,148,97111,1,0,1:1:0:0:
292,148,97259,1,8,1:1:0:0:
292,148,97407,1,0,1:1:0:0:
292,148,97554,1,0,1:1:0:0:
292,148,97702,1,8,1:1:0:0:
292,148,97850,1,0,1:1:0:0:
292,148,97998,1,0,1:1:0:0:
296,144,98146,1,8,1:1:0:0:
300,152,98293,1,0,1:1:0:0:
300,152,98367,1,8,1:1:0:0:
300,152,98441,1,0,1:1:0:0:
300,152,98515,1,0,1:1:0:0:
300,152,98589,1,8,1:1:0:0:
300,152,98737,1,8,1:1:0:0:
300,152,98811,1,8,1:1:0:0:
300,152,98884,1,0,1:1:0:0:
300,152,98958,1,0,1:1:0:0:
300,152,99032,1,8,1:1:0:0:
300,152,99180,1,8,1:1:0:0:
300,152,99328,1,0,1:1:0:0:
300,152,99476,1,0,1:1:0:0:
300,152,99623,1,8,1:1:0:0:
300,152,99771,1,0,1:1:0:0:
300,152,99919,1,0,1:1:0:0:
300,152,100067,1,8,1:1:0:0:
300,152,100215,1,0,1:1:0:0:
300,152,100362,1,8,1:1:0:0:
300,152,100436,1,8,1:1:0:0:
300,152,100510,1,0,1:1:0:0:
300,152,100584,1,8,1:1:0:0:
300,152,100658,1,0,1:1:0:0:
300,152,100806,1,0,1:1:0:0:
300,152,100953,1,8,1:1:0:0:
300,152,101101,1,0,1:1:0:0:
300,152,101175,1,0,1:1:0:0:
300,152,101249,1,8,1:1:0:0:
300,152,101397,1,8,1:1:0:0:
300,152,101471,1,8,1:1:0:0:
300,152,101545,1,0,1:1:0:0:
300,152,101618,1,0,1:1:0:0:
300,152,101692,1,8,1:1:0:0:
300,152,101840,1,0,1:1:0:0:
300,152,101988,1,8,1:1:0:0:
300,152,102136,1,8,1:1:0:0:
300,152,102210,1,0,1:1:0:0:
300,152,102284,1,0,1:1:0:0:
300,152,102357,1,8,1:1:0:0:
300,152,102431,1,8,1:1:0:0:
300,152,102579,1,0,1:1:0:0:
300,152,102653,1,8,1:1:0:0:
300,152,102727,1,8,1:1:0:0:
300,152,102875,1,8,1:1:0:0:
300,152,103022,1,8,1:1:0:0:
300,152,103096,1,0,1:1:0:0:
300,152,103170,1,8,1:1:0:0:
300,152,103244,1,8,1:1:0:0:
300,152,103318,1,0,1:1:0:0:
300,152,103466,1,0,1:1:0:0:
300,152,103540,1,8,1:1:0:0:
300,152,103614,1,0,1:1:0:0:
300,152,103687,1,0,1:1:0:0:
300,152,103761,1,8,1:1:0:0:
300,152,103909,1,8,1:1:0:0:
300,152,104057,1,4,1:1:0:0:
304,156,104205,1,0,1:1:0:0:
307,154,104279,1,0,1:1:0:0:
304,156,104352,1,8,1:1:0:0:
304,156,104500,1,0,1:1:0:0:
304,156,104648,1,0,1:1:0:0:
327,159,104722,1,8,1:1:0:0:
304,156,104796,1,8,1:1:0:0:
300,148,104944,1,0,1:1:0:0:
304,156,105091,1,0,1:1:0:0:
300,148,105165,1,8,1:1:0:0:
300,148,105239,1,0,1:1:0:0:
300,148,105313,1,8,1:1:0:0:
276,152,105387,1,0,1:1:0:0:
304,156,105535,1,0,1:1:0:0:
296,152,105683,1,8,1:1:0:0:
292,148,105830,1,0,1:1:0:0:
292,148,105904,1,0,1:1:0:0:
292,148,105978,1,8,1:1:0:0:
292,148,106126,1,8,1:1:0:0:
292,148,106200,1,8,1:1:0:0:
292,148,106274,1,8,1:1:0:0:
292,148,106348,1,8,1:1:0:0:
292,148,106421,1,0,1:1:0:0:
292,148,106569,1,0,1:1:0:0:
292,148,106717,1,8,1:1:0:0:
327,159,106791,1,8,1:1:0:0:
292,148,106865,1,0,1:1:0:0:
292,148,107013,1,0,1:1:0:0:
300,143,107086,1,0,1:1:0:0:
292,148,107160,1,8,1:1:0:0:
306,147,107234,1,8,0:0:0:0:
292,148,107308,1,0,1:1:0:0:
292,148,107456,1,0,1:1:0:0:
296,144,107604,1,8,1:1:0:0:
283,151,107678,1,0,1:1:0:0:
300,152,107751,1,0,1:1:0:0:
300,152,107825,1,8,1:1:0:0:
300,152,107899,1,0,1:1:0:0:
300,152,107973,1,0,1:1:0:0:
300,152,108047,1,8,1:1:0:0:
300,152,108195,1,8,1:1:0:0:
300,152,108269,1,8,1:1:0:0:
300,152,108343,1,0,1:1:0:0:
300,152,108417,1,0,1:1:0:0:
300,152,108490,1,8,1:1:0:0:
300,152,108638,1,8,1:1:0:0:
300,152,108786,1,0,1:1:0:0:
300,152,108934,1,0,1:1:0:0:
290,150,109008,1,0,1:1:0:0:
300,152,109082,1,8,1:1:0:0:
300,152,109229,1,0,1:1:0:0:
300,152,109377,1,0,1:1:0:0:
285,145,109451,1,0,1:1:0:0:
300,152,109525,1,8,1:1:0:0:
300,152,109673,1,0,1:1:0:0:
300,152,109820,1,8,1:1:0:0:
300,152,109894,1,8,1:1:0:0:
300,152,109968,1,0,1:1:0:0:
300,152,110042,1,8,1:1:0:0:
300,152,110116,1,0,1:1:0:0:
300,152,110264,1,0,1:1:0:0:
300,152,110412,1,8,1:1:0:0:
300,152,110559,1,0,1:1:0:0:
300,152,110633,1,0,1:1:0:0:
300,152,110707,1,8,1:1:0:0:
300,152,110855,1,8,1:1:0:0:
306,157,110929,1,8,1:1:0:0:
300,152,111003,1,0,1:1:0:0:
313,147,111077,1,0,1:1:0:0:
256,192,111151,12,0,111594,1:1:0:0:
307,148,111742,5,8,1:1:0:0:
316,149,111816,1,0,1:1:0:0:
307,148,111889,1,0,1:1:0:0:
316,149,111963,1,0,1:1:0:0:
307,148,112037,1,8,1:1:0:0:
297,145,112111,1,0,1:1:0:0:
307,148,112185,1,0,1:1:0:0:
297,145,112259,1,0,1:1:0:0:
297,145,112333,1,8,1:1:0:0:
314,127,112407,1,0,1:1:0:0:
314,127,112481,1,8,1:1:0:0:
314,127,112554,1,0,1:1:0:0:
314,127,112628,1,8,1:1:0:0:
314,127,112702,1,0,1:1:0:0:
314,127,112776,1,8,1:1:0:0:
314,127,112850,1,0,1:1:0:0:
314,127,112924,1,0,1:1:0:0:
314,127,112998,1,8,1:1:0:0:
314,127,113072,1,0,1:1:0:0:
314,127,113146,1,8,1:1:0:0:
314,127,113219,1,0,1:1:0:0:
314,127,113293,1,8,1:1:0:0:
314,127,113367,1,0,1:1:0:0:
314,127,113441,1,8,1:1:0:0:
314,127,113515,1,4,1:1:0:0:
318,128,113663,1,0,1:1:0:0:
318,128,113811,1,8,1:1:0:0:
352,153,113884,1,8,1:1:0:0:
318,128,113958,1,0,1:1:0:0:
318,128,114106,1,0,1:1:0:0:
325,158,114254,1,8,1:1:0:0:
313,133,114402,1,0,1:1:0:0:
325,158,114476,1,0,1:1:0:0:
313,133,114550,1,8,1:1:0:0:
313,133,114697,1,8,1:1:0:0:
313,133,114845,1,0,1:1:0:0:
315,140,114919,1,0,1:1:0:0:
326,132,114993,1,0,1:1:0:0:
321,168,115141,1,8,1:1:0:0:
318,129,115288,1,0,1:1:0:0:
313,149,115436,1,8,1:1:0:0:
314,152,115584,1,8,1:1:0:0:
314,152,115658,1,8,1:1:0:0:
314,152,115732,1,8,1:1:0:0:
291,144,115806,1,8,1:1:0:0:
314,152,115880,1,0,1:1:0:0:
284,132,116027,1,0,1:1:0:0:
291,144,116175,1,8,1:1:0:0:
295,137,116323,1,0,1:1:0:0:
295,137,116471,1,0,1:1:0:0:
291,144,116618,1,8,1:1:0:0:
291,144,116766,1,8,1:1:0:0:
291,144,116840,1,8,1:1:0:0:
289,142,116914,1,0,1:1:0:0:
289,142,117062,1,8,1:1:0:0:
291,144,117210,1,0,1:1:0:0:
289,142,117284,1,0,1:1:0:0:
289,142,117357,1,8,1:1:0:0:
289,142,117431,1,8,1:1:0:0:
289,142,117505,1,0,1:1:0:0:
291,144,117653,1,0,1:1:0:0:
291,144,117727,1,0,1:1:0:0:
291,144,117801,1,8,1:1:0:0:
289,142,117949,1,0,1:1:0:0:
289,142,118096,1,0,1:1:0:0:
291,144,118244,1,0,1:1:0:0:
276,140,118318,1,8,1:1:0:0:
276,140,118392,1,0,1:1:0:0:
276,140,118540,1,8,1:1:0:0:
276,140,118687,1,0,1:1:0:0:
276,140,118835,1,0,1:1:0:0:
282,148,118983,1,8,1:1:0:0:
282,148,119057,1,8,1:1:0:0:
282,148,119131,1,0,1:1:0:0:
282,148,119279,1,0,1:1:0:0:
282,148,119352,1,8,1:1:0:0:
282,148,119426,1,0,1:1:0:0:
282,148,119500,1,0,1:1:0:0:
282,148,119574,1,8,1:1:0:0:
282,148,119648,1,8,1:1:0:0:
282,148,119722,1,0,1:1:0:0:
282,148,119870,1,8,1:1:0:0:
282,148,120017,1,0,1:1:0:0:
282,148,120091,1,0,1:1:0:0:
282,148,120165,1,8,1:1:0:0:
282,148,120313,1,8,1:1:0:0:
282,148,120387,1,8,1:1:0:0:
282,148,120461,1,8,1:1:0:0:
282,148,120535,1,0,1:1:0:0:
282,148,120609,1,8,1:1:0:0:
282,148,120756,1,0,1:1:0:0:
282,148,120904,1,8,1:1:0:0:
282,148,121052,1,8,1:1:0:0:
282,148,121126,1,8,1:1:0:0:
282,148,121200,1,0,1:1:0:0:
282,148,121348,1,8,1:1:0:0:
282,148,121495,1,8,1:1:0:0:
282,148,121569,1,8,1:1:0:0:
282,148,121643,1,0,1:1:0:0:
285,159,121717,1,0,0:0:0:0:
282,148,121791,1,8,1:1:0:0:
282,148,121939,1,0,1:1:0:0:
282,148,122013,1,8,1:1:0:0:
282,148,122086,1,0,1:1:0:0:
282,148,122160,1,0,1:1:0:0:
282,148,122234,1,8,1:1:0:0:
282,148,122382,1,0,1:1:0:0:
282,148,122530,1,0,1:1:0:0:
282,148,122678,1,8,1:1:0:0:
267,147,122751,1,8,1:1:0:0:
282,148,122825,1,0,1:1:0:0:
282,148,122973,1,4,1:1:0:0:
318,128,123121,1,0,1:1:0:0:
318,128,123269,1,8,1:1:0:0:
352,153,123343,1,8,1:1:0:0:
318,128,123417,1,0,1:1:0:0:
318,128,123564,1,0,1:1:0:0:
325,158,123712,1,8,1:1:0:0:
252,168,123786,1,8,1:1:0:0:
313,133,123860,1,0,1:1:0:0:
325,158,123934,1,0,1:1:0:0:
313,133,124008,1,8,1:1:0:0:
313,133,124155,1,8,1:1:0:0:
354,146,124229,1,8,1:1:0:0:
313,133,124303,1,0,1:1:0:0:
326,132,124451,1,0,1:1:0:0:
321,168,124599,1,8,1:1:0:0:
318,129,124747,1,0,1:1:0:0:
313,149,124894,1,8,1:1:0:0:
314,152,125042,1,8,1:1:0:0:
340,160,125116,1,0,1:1:0:0:
314,152,125190,1,8,1:1:0:0:
291,144,125264,1,8,1:1:0:0:
314,152,125338,1,0,1:1:0:0:
284,132,125485,1,0,1:1:0:0:
291,144,125633,1,8,1:1:0:0:
295,137,125781,1,0,1:1:0:0:
295,137,125929,1,0,1:1:0:0:
291,144,126077,1,8,1:1:0:0:
264,136,126151,1,0,1:1:0:0:
291,144,126224,1,8,1:1:0:0:
291,144,126298,1,8,1:1:0:0:
289,142,126372,1,0,1:1:0:0:
289,142,126520,1,8,1:1:0:0:
291,144,126668,1,0,1:1:0:0:
289,142,126742,1,0,1:1:0:0:
289,142,126816,1,8,1:1:0:0:
289,142,126889,1,8,1:1:0:0:
289,142,126963,1,0,1:1:0:0:
291,144,127111,1,0,1:1:0:0:
291,144,127185,1,0,1:1:0:0:
291,144,127259,1,8,1:1:0:0:
289,142,127407,1,0,1:1:0:0:
289,142,127554,1,0,1:1:0:0:
264,136,127628,1,0,1:1:0:0:
291,144,127702,1,0,1:1:0:0:
276,140,127776,1,8,1:1:0:0:
276,140,127850,1,0,1:1:0:0:
276,140,127998,1,8,1:1:0:0:
276,140,128146,1,0,1:1:0:0:
276,140,128293,1,0,1:1:0:0:
282,148,128441,1,8,1:1:0:0:
282,148,128515,1,8,1:1:0:0:
282,148,128589,1,0,1:1:0:0:
282,148,128737,1,0,1:1:0:0:
282,148,128811,1,8,1:1:0:0:
282,148,128884,1,0,1:1:0:0:
282,148,128958,1,0,1:1:0:0:
282,148,129032,1,8,1:1:0:0:
282,148,129106,1,8,1:1:0:0:
282,148,129180,1,0,1:1:0:0:
282,148,129328,1,8,1:1:0:0:
282,148,129476,1,0,1:1:0:0:
282,148,129550,1,0,1:1:0:0:
282,148,129623,1,8,1:1:0:0:
300,184,129697,1,0,0:0:0:0:
282,148,129771,1,8,1:1:0:0:
282,148,129845,1,8,1:1:0:0:
282,148,129919,1,8,1:1:0:0:
282,148,129993,1,8,1:1:0:0:
282,148,130067,1,0,1:1:0:0:
282,148,130215,1,0,1:1:0:0:
282,148,130362,1,8,1:1:0:0:
282,148,130510,1,0,1:1:0:0:
282,148,130584,1,8,1:1:0:0:
282,148,130658,1,0,1:1:0:0:
282,148,130806,1,8,1:1:0:0:
282,148,130953,1,8,1:1:0:0:
282,148,131027,1,8,1:1:0:0:
282,148,131101,1,0,1:1:0:0:
204,183,131175,1,0,0:0:0:0:
282,148,131249,1,8,1:1:0:0:
282,148,131397,1,0,1:1:0:0:
282,148,131471,1,8,1:1:0:0:
282,148,131545,1,0,1:1:0:0:
282,148,131618,1,0,1:1:0:0:
282,148,131692,1,8,1:1:0:0:
282,148,131840,1,0,1:1:0:0:
282,148,131988,1,0,1:1:0:0:
282,148,132136,1,8,1:1:0:0:
320,208,132185,1,8,0:0:0:0:
267,147,132234,1,8,1:1:0:0:
282,148,132284,1,0,1:1:0:0:
283,142,132431,1,4,1:1:0:0:
280,152,132579,1,0,1:1:0:0:
296,128,132653,1,0,1:1:0:0:
282,148,132727,1,8,1:1:0:0:
282,148,132875,1,0,1:1:0:0:
282,148,133022,1,0,1:1:0:0:
296,128,133096,1,0,1:1:0:0:
282,148,133170,1,8,1:1:0:0:
280,152,133244,1,8,1:1:0:0:
282,148,133318,1,0,1:1:0:0:
280,152,133466,1,0,1:1:0:0:
280,152,133614,1,8,1:1:0:0:
282,148,133687,1,8,1:1:0:0:
282,148,133761,1,0,1:1:0:0:
282,148,133909,1,8,1:1:0:0:
282,148,134057,1,8,1:1:0:0:
272,136,134131,1,8,1:1:0:0:
272,136,134205,1,0,1:1:0:0:
280,152,134352,1,0,1:1:0:0:
280,152,134500,1,8,1:1:0:0:
280,152,134574,1,0,1:1:0:0:
280,152,134648,1,8,1:1:0:0:
280,156,134796,1,0,1:1:0:0:
280,156,134944,1,0,1:1:0:0:
280,156,135017,1,0,1:1:0:0:
280,156,135091,1,8,1:1:0:0:
280,156,135165,1,8,1:1:0:0:
280,156,135239,1,0,1:1:0:0:
280,152,135387,1,0,1:1:0:0:
272,148,135535,1,8,1:1:0:0:
272,148,135609,1,8,1:1:0:0:
272,148,135683,1,8,1:1:0:0:
272,136,135830,1,0,1:1:0:0:
272,136,135978,1,8,1:1:0:0:
272,136,136052,1,8,1:1:0:0:
272,136,136126,1,0,1:1:0:0:
272,136,136200,1,0,1:1:0:0:
272,136,136274,1,0,1:1:0:0:
284,144,136348,1,0,1:1:0:0:
264,132,136421,1,8,1:1:0:0:
264,132,136569,1,0,1:1:0:0:
284,144,136717,1,8,1:1:0:0:
284,144,136791,1,0,1:1:0:0:
284,144,136865,1,8,1:1:0:0:
284,132,136939,1,8,1:1:0:0:
280,132,137013,1,0,1:1:0:0:
280,132,137160,1,0,1:1:0:0:
284,132,137308,1,8,1:1:0:0:
284,132,137382,1,8,1:1:0:0:
284,132,137456,1,0,1:1:0:0:
284,132,137604,1,0,1:1:0:0:
284,132,137751,1,8,1:1:0:0:
284,132,137825,1,8,1:1:0:0:
284,132,137899,1,8,1:1:0:0:
284,132,137973,1,8,1:1:0:0:
284,132,138047,1,0,1:1:0:0:
276,120,138195,1,0,0:0:0:0:
276,120,138343,1,8,0:0:0:0:
276,120,138417,1,8,0:0:0:0:
276,120,138490,1,0,0:0:0:0:
284,132,138564,1,0,0:0:0:0:
276,120,138638,1,8,0:0:0:0:
276,132,138786,1,0,0:0:0:0:
276,132,138934,1,0,0:0:0:0:
276,132,139008,1,0,0:0:0:0:
276,132,139082,1,8,0:0:0:0:
284,152,139229,1,8,0:0:0:0:
284,152,139303,1,8,0:0:0:0:
300,160,139377,1,0,0:0:0:0:
296,144,139525,1,4,0:0:0:0:
300,152,139673,1,0,0:0:0:0:
288,156,139820,1,8,0:0:0:0:
288,156,139968,1,0,0:0:0:0:
288,156,140042,1,0,0:0:0:0:
288,156,140116,1,0,0:0:0:0:
288,156,140264,1,8,0:0:0:0:
316,188,140412,1,0,0:0:0:0:
316,188,140485,1,0,0:0:0:0:
316,188,140559,1,0,0:0:0:0:
316,188,140707,1,8,0:0:0:0:
316,188,140855,1,0,0:0:0:0:
316,188,140929,1,0,0:0:0:0:
304,172,141003,1,0,0:0:0:0:
304,172,141077,1,0,0:0:0:0:
304,172,141151,1,8,0:0:0:0:
304,172,141298,1,0,0:0:0:0:
288,160,141446,1,0,0:0:0:0:
288,160,141520,1,0,0:0:0:0:
288,160,141594,1,8,0:0:0:0:
288,160,141668,1,8,0:0:0:0:
288,160,141742,1,0,0:0:0:0:
288,160,141889,1,4,0:0:0:0:
280,152,142037,1,0,1:1:0:0:
296,128,142111,1,0,1:1:0:0:
282,148,142185,1,8,1:1:0:0:
282,148,142333,1,0,1:1:0:0:
282,148,142481,1,0,1:1:0:0:
296,128,142554,1,0,1:1:0:0:
282,148,142628,1,8,1:1:0:0:
280,152,142702,1,8,1:1:0:0:
282,148,142776,1,0,1:1:0:0:
280,152,142924,1,0,1:1:0:0:
328,136,142998,1,8,0:0:0:0:
280,152,143072,1,8,1:1:0:0:
282,148,143146,1,8,1:1:0:0:
282,148,143219,1,0,1:1:0:0:
282,148,143367,1,8,1:1:0:0:
282,148,143515,1,8,1:1:0:0:
272,136,143589,1,8,1:1:0:0:
272,136,143663,1,0,1:1:0:0:
280,152,143811,1,0,1:1:0:0:
280,152,143958,1,8,1:1:0:0:
280,152,144032,1,0,1:1:0:0:
280,152,144106,1,8,1:1:0:0:
288,132,144180,1,8,0:0:0:0:
280,156,144254,1,0,1:1:0:0:
280,156,144402,1,0,1:1:0:0:
280,156,144476,1,0,1:1:0:0:
280,156,144550,1,8,1:1:0:0:
280,156,144623,1,8,1:1:0:0:
280,156,144697,1,0,1:1:0:0:
280,152,144845,1,0,1:1:0:0:
272,148,144993,1,8,1:1:0:0:
272,148,145067,1,8,1:1:0:0:
272,148,145141,1,8,1:1:0:0:
272,136,145288,1,0,1:1:0:0:
272,136,145436,1,8,1:1:0:0:
272,136,145510,1,8,1:1:0:0:
272,136,145584,1,0,1:1:0:0:
272,136,145658,1,0,1:1:0:0:
272,136,145732,1,0,1:1:0:0:
284,144,145806,1,0,1:1:0:0:
264,132,145880,1,8,1:1:0:0:
264,132,146027,1,0,1:1:0:0:
284,144,146175,1,8,1:1:0:0:
284,144,146249,1,0,1:1:0:0:
284,144,146323,1,8,1:1:0:0:
284,132,146397,1,8,1:1:0:0:
280,132,146471,1,0,1:1:0:0:
280,132,146618,1,0,1:1:0:0:
284,132,146766,1,8,1:1:0:0:
284,132,146840,1,8,1:1:0:0:
284,132,146914,1,0,1:1:0:0:
284,132,147062,1,0,1:1:0:0:
284,132,147210,1,8,1:1:0:0:
284,132,147284,1,8,1:1:0:0:
284,132,147357,1,8,1:1:0:0:
284,132,147431,1,8,1:1:0:0:
284,132,147505,1,0,1:1:0:0:
276,120,147653,1,0,0:0:0:0:
276,120,147801,1,8,0:0:0:0:
276,120,147875,1,8,0:0:0:0:
276,120,147949,1,0,0:0:0:0:
284,132,148022,1,0,0:0:0:0:
276,120,148096,1,8,0:0:0:0:
276,132,148244,1,0,0:0:0:0:
276,132,148392,1,0,0:0:0:0:
276,132,148466,1,0,0:0:0:0:
276,132,148540,1,8,0:0:0:0:
292,144,148614,1,8,0:0:0:0:
284,152,148687,1,8,0:0:0:0:
284,152,148761,1,8,0:0:0:0:
300,160,148835,1,0,0:0:0:0:
296,144,148983,1,4,0:0:0:0:
300,152,149131,1,0,0:0:0:0:
288,156,149279,1,8,0:0:0:0:
288,156,149426,1,0,0:0:0:0:
288,156,149500,1,0,0:0:0:0:
288,156,149574,1,0,0:0:0:0:
288,156,149722,1,8,0:0:0:0:
316,188,149870,1,0,0:0:0:0:
316,188,149944,1,0,0:0:0:0:
316,188,150017,1,0,0:0:0:0:
316,188,150165,1,8,0:0:0:0:
316,188,150313,1,0,0:0:0:0:
316,188,150387,1,0,0:0:0:0:
304,172,150461,1,0,0:0:0:0:
304,172,150535,1,0,0:0:0:0:
304,172,150609,1,8,0:0:0:0:
304,172,150756,1,0,0:0:0:0:
288,160,150904,1,0,0:0:0:0:
288,160,150978,1,0,0:0:0:0:
288,160,151052,1,8,0:0:0:0:
288,160,151126,1,8,0:0:0:0:
288,160,151200,1,0,0:0:0:0:
288,160,151348,1,4,0:0:0:0:
291,161,151495,1,0,0:0:0:0:
291,161,151569,1,0,0:0:0:0:
288,168,151643,1,8,0:0:0:0:
276,164,151939,1,0,0:0:0:0:
276,164,152086,1,8,0:0:0:0:
288,152,152382,1,0,0:0:0:0:
276,164,152456,1,0,0:0:0:0:
276,164,152530,1,8,0:0:0:0:
288,152,152825,1,0,0:0:0:0:
280,156,152899,1,8,0:0:0:0:
280,156,152973,1,8,0:0:0:0:
280,156,153269,1,8,0:0:0:0:
280,156,153343,1,8,0:0:0:0:
288,160,153417,1,0,0:0:0:0:
268,160,153712,1,0,0:0:0:0:
292,156,153860,1,0,0:0:0:0:
292,156,154008,1,8,0:0:0:0:
252,152,154303,1,0,0:0:0:0:
252,152,154377,1,0,0:0:0:0:
288,160,154451,1,8,0:0:0:0:
272,168,154599,1,0,0:0:0:0:
292,156,154747,1,8,0:0:0:0:
352,176,154820,1,0,0:0:0:0:
364,176,154894,1,8,0:0:0:0:
352,176,155042,1,0,0:0:0:0:
288,160,155190,1,0,0:0:0:0:
332,172,155264,1,0,0:0:0:0:
296,172,155338,1,8,0:0:0:0:
304,164,155485,1,0,0:0:0:0:
288,156,155633,1,8,0:0:0:0:
304,168,155707,1,0,0:0:0:0:
324,168,155781,1,0,0:0:0:0:
320,176,156077,1,0,0:0:0:0:
288,160,156224,1,0,0:0:0:0:
288,160,156372,1,8,0:0:0:0:
288,156,156668,1,8,0:0:0:0:
292,156,156742,1,0,0:0:0:0:
288,200,156816,1,8,0:0:0:0:
284,168,156963,1,0,0:0:0:0:
284,156,157111,1,0,0:0:0:0:
292,156,157185,1,0,0:0:0:0:
284,156,157259,1,8,0:0:0:0:
288,156,157554,1,0,0:0:0:0:
240,152,157628,1,8,0:0:0:0:
288,156,157702,1,8,0:0:0:0:
284,156,157998,1,8,0:0:0:0:
288,160,158072,1,8,0:0:0:0:
284,156,158146,1,0,0:0:0:0:
288,156,158441,1,0,0:0:0:0:
280,152,158589,1,0,0:0:0:0:
280,152,158737,1,8,0:0:0:0:
276,152,159032,1,8,0:0:0:0:
292,156,159106,1,0,0:0:0:0:
276,152,159180,1,8,0:0:0:0:
288,156,159328,1,0,0:0:0:0:
272,148,159476,1,0,0:0:0:0:
292,156,159550,1,0,0:0:0:0:
272,148,159623,1,8,0:0:0:0:
332,168,159771,1,8,0:0:0:0:
280,148,159919,1,0,0:0:0:0:
292,156,159993,1,8,0:0:0:0:
280,148,160067,1,8,0:0:0:0:
288,152,160215,1,0,0:0:0:0:
280,148,160362,1,8,0:0:0:0:
288,148,160436,1,8,0:0:0:0:
280,148,160510,1,0,0:0:0:0:
280,148,160806,1,0,0:0:0:0:
280,148,161101,1,0,0:0:0:0:
280,148,161249,1,8,0:0:0:0:
280,148,161397,1,0,0:0:0:0:
280,148,161692,1,0,0:0:0:0:
280,148,161840,1,8,0:0:0:0:
280,148,162284,1,0,0:0:0:0:
280,148,162727,1,8,0:0:0:0:
280,148,163170,1,0,0:0:0:0:
280,148,163466,1,0,0:0:0:0:
280,148,163614,1,8,0:0:0:0:
280,148,163761,1,0,0:0:0:0:
280,148,164057,1,0,0:0:0:0:
280,148,164205,1,8,0:0:0:0:
280,148,164500,1,8,0:0:0:0:
280,148,164648,1,0,0:0:0:0:
280,148,164796,1,8,0:0:0:0:
280,148,164944,1,0,0:0:0:0:
280,148,165091,1,8,0:0:0:0:
280,148,165239,1,0,0:0:0:0:
280,148,165535,1,8,0:0:0:0:
280,148,165830,1,0,0:0:0:0:
280,148,165978,1,8,0:0:0:0:
280,148,166126,1,0,0:0:0:0:
280,148,166421,1,0,0:0:0:0:
280,148,166569,1,8,0:0:0:0:
280,148,167013,1,0,0:0:0:0:
280,148,167456,1,8,0:0:0:0:
280,148,167899,1,0,0:0:0:0:
280,148,168195,1,0,0:0:0:0:
280,148,168343,1,8,0:0:0:0:
280,148,168490,1,0,0:0:0:0:
280,148,168786,1,0,0:0:0:0:
280,148,168934,1,8,0:0:0:0:
276,144,169229,1,8,0:0:0:0:
276,144,169377,1,0,0:0:0:0:
276,144,169525,1,0,0:0:0:0:
276,144,169673,1,8,0:0:0:0:
276,144,169968,1,8,0:0:0:0:
276,144,170264,1,0,0:0:0:0:
276,144,170559,1,0,0:0:0:0:
276,144,170855,1,8,0:0:0:0:
276,144,171151,1,0,0:0:0:0:
276,144,171298,1,8,0:0:0:0:
276,144,171742,1,0,0:0:0:0:
276,144,172185,1,8,0:0:0:0:
276,144,172628,1,0,0:0:0:0:
276,144,172924,1,0,0:0:0:0:
276,144,173219,1,8,0:0:0:0:
276,144,173515,1,0,0:0:0:0:
276,144,173663,1,8,0:0:0:0:
276,144,173958,1,8,0:0:0:0:
276,144,174106,1,0,0:0:0:0:
276,144,174254,1,0,0:0:0:0:
276,144,174402,1,8,0:0:0:0:
276,144,174697,1,0,0:0:0:0:
276,144,174993,1,8,0:0:0:0:
276,144,175288,1,0,0:0:0:0:
276,144,175584,1,8,0:0:0:0:
276,144,175880,1,0,0:0:0:0:
276,144,176027,1,8,0:0:0:0:
276,144,176471,1,0,0:0:0:0:
296,144,176914,1,8,0:0:0:0:
292,140,177357,1,0,0:0:0:0:
292,140,177653,1,8,0:0:0:0:
292,140,177949,1,0,0:0:0:0:
292,140,178244,1,0,0:0:0:0:
292,140,178392,1,8,0:0:0:0:
292,140,178687,1,8,0:0:0:0:
292,140,178835,1,0,0:0:0:0:
292,140,178983,1,0,0:0:0:0:
292,140,179131,1,8,0:0:0:0:
292,140,179426,1,0,0:0:0:0:
292,140,179722,1,8,0:0:0:0:
276,144,180017,1,0,0:0:0:0:
276,144,180313,1,8,0:0:0:0:
276,144,180609,1,0,0:0:0:0:
276,144,180756,1,8,0:0:0:0:
276,144,181200,1,0,0:0:0:0:
276,144,181643,1,8,0:0:0:0:
276,144,182086,1,0,0:0:0:0:
276,144,182382,1,0,0:0:0:0:
276,144,182678,1,8,0:0:0:0:
276,144,182973,1,0,0:0:0:0:
276,144,183121,1,8,0:0:0:0:
276,144,183417,1,8,0:0:0:0:
276,144,183564,1,0,0:0:0:0:
276,144,183712,1,0,0:0:0:0:
276,144,183860,1,8,0:0:0:0:
276,144,184155,1,0,0:0:0:0:
276,144,184451,1,8,0:0:0:0:
276,144,184747,1,0,0:0:0:0:
276,144,185042,1,8,0:0:0:0:
276,144,185338,1,0,0:0:0:0:
276,144,185485,1,8,0:0:0:0:
276,144,185929,1,0,0:0:0:0:
296,144,186372,1,8,0:0:0:0:
292,140,186816,1,0,0:0:0:0:
292,140,187111,1,8,0:0:0:0:
292,140,187407,1,0,0:0:0:0:
292,140,187702,1,0,0:0:0:0:
292,140,187850,1,8,0:0:0:0:
292,140,188146,1,8,0:0:0:0:
292,140,188293,1,0,0:0:0:0:
292,140,188441,1,0,0:0:0:0:
292,140,188589,1,8,0:0:0:0:
292,140,188884,1,0,0:0:0:0:
292,140,189180,1,8,0:0:0:0:
