osu file format v14

[General]
AudioFilename: audio.mp3
AudioLeadIn: 0
PreviewTime: 9815
Countdown: 0
SampleSet: Normal
StackLeniency: 0.7
Mode: 1
LetterboxInBreaks: 0
WidescreenStoryboard: 0

[Editor]
Bookmarks: 9815,38615
DistanceSpacing: 1.5
BeatDivisor: 4
GridSize: 32
TimelineZoom: 1

[Metadata]
Title:sea shells
TitleUnicode:sea shells
Artist:Kola Kid
ArtistUnicode:Kola Kid
Creator:Vulkin
Version:oni
Source:osu!
Tags:featured artist fa contra 88 electronic chiptune breakcore instrumental axer xtrem3x
BeatmapID:2357374
BeatmapSetID:1128333

[Difficulty]
HPDrainRate:7.5
CircleSize:7
OverallDifficulty:5
ApproachRate:10
SliderMultiplier:1.4
SliderTickRate:1

[Events]
//Background and Video events
0,0,"msp_1906_0580.jpg",0,0
//Break Periods
//Storyboard Layer 0 (Background)
//Storyboard Layer 1 (Fail)
//Storyboard Layer 2 (Pass)
//Storyboard Layer 3 (Foreground)
//Storyboard Layer 4 (Overlay)
//Storyboard Sound Samples

[TimingPoints]
215,300,4,1,0,60,1,0
215,-125,4,1,0,60,0,0
9740,-111.111111111111,4,1,0,70,0,0
19340,-100,4,1,0,80,0,0
38015,-100,4,1,0,80,0,0
38090,-101.252595863426,4,1,0,80,0,0
38240,-103.854346356322,4,1,0,80,0,0
38315,-105.206125100603,4,1,0,80,0,0
38465,-108.017840226492,4,1,0,80,0,0
38615,-110.983972804487,4,1,0,80,0,0
47615,-113.636363636364,4,1,0,80,0,0
47765,-116.279069767442,4,1,0,80,0,0
47915,-119.047619047619,4,1,0,80,0,0
48065,-121.951219512195,4,1,0,80,0,0
48215,-124.681905289131,4,1,0,80,0,0
48290,-125,4,1,0,25,0,0
57365,-100,4,1,0,80,0,0

[HitObjects]
256,192,215,5,0,0:0:0:0:
256,192,515,1,8,0:0:0:0:
256,192,815,1,8,0:0:0:0:
256,192,1415,1,8,0:0:0:0:
256,192,1715,1,8,0:0:0:0:
256,192,2015,1,0,0:0:0:0:
256,192,2615,1,0,0:0:0:0:
256,192,2915,1,8,0:0:0:0:
256,192,3215,1,8,0:0:0:0:
256,192,3815,1,8,0:0:0:0:
256,192,4115,1,8,0:0:0:0:
256,192,4415,1,0,0:0:0:0:
256,192,5015,1,0,0:0:0:0:
256,192,5315,1,0,0:0:0:0:
256,192,5615,1,8,0:0:0:0:
256,192,6215,1,0,0:0:0:0:
256,192,6515,1,8,0:0:0:0:
256,192,6815,1,0,0:0:0:0:
256,192,7415,1,8,0:0:0:0:
256,192,7715,1,0,0:0:0:0:
256,192,8015,1,8,0:0:0:0:
256,192,8615,1,8,0:0:0:0:
256,192,8915,1,8,0:0:0:0:
256,192,9215,1,0,0:0:0:0:
256,192,9815,1,0,0:0:0:0:
256,192,10115,1,0,0:0:0:0:
256,192,10415,1,0,0:0:0:0:
256,192,10565,1,8,0:0:0:0:
256,192,10715,1,0,0:0:0:0:
256,192,10790,1,8,0:0:0:0:
256,192,10865,1,8,0:0:0:0:
256,192,10940,1,8,0:0:0:0:
256,192,11015,1,0,0:0:0:0:
256,192,11165,1,8,0:0:0:0:
256,192,11240,1,8,0:0:0:0:
256,192,11315,1,0,0:0:0:0:
256,192,11615,1,0,0:0:0:0:
256,192,11765,1,8,0:0:0:0:
256,192,11915,1,8,0:0:0:0:
256,192,12065,1,8,0:0:0:0:
256,192,12140,1,8,0:0:0:0:
256,192,12215,1,0,0:0:0:0:
256,192,12515,1,0,0:0:0:0:
256,192,12665,1,0,0:0:0:0:
256,192,12815,1,0,0:0:0:0:
256,192,12965,1,8,0:0:0:0:
256,192,13115,1,0,0:0:0:0:
256,192,13415,1,0,0:0:0:0:
256,192,13565,1,8,0:0:0:0:
256,192,13715,1,0,0:0:0:0:
256,192,13790,1,0,0:0:0:0:
256,192,13865,1,8,0:0:0:0:
256,192,13940,1,8,0:0:0:0:
256,192,14015,1,0,0:0:0:0:
256,192,14165,1,8,0:0:0:0:
256,192,14315,1,0,0:0:0:0:
256,192,14390,1,8,0:0:0:0:
256,192,14540,1,8,0:0:0:0:
256,192,14615,1,0,0:0:0:0:
256,192,14765,1,0,0:0:0:0:
256,192,14915,1,0,0:0:0:0:
256,192,15065,1,0,0:0:0:0:
256,192,15215,1,0,0:0:0:0:
256,192,15365,1,8,0:0:0:0:
256,192,15515,1,0,0:0:0:0:
256,192,15815,1,0,0:0:0:0:
256,192,15965,1,8,0:0:0:0:
256,192,16115,1,0,0:0:0:0:
256,192,16415,1,0,0:0:0:0:
256,192,16565,1,8,0:0:0:0:
256,192,16715,1,0,0:0:0:0:
256,192,16865,1,0,0:0:0:0:
256,192,17015,1,8,0:0:0:0:
256,192,17090,1,8,0:0:0:0:
256,192,17165,1,0,0:0:0:0:
256,192,17315,1,8,0:0:0:0:
256,192,17465,1,0,0:0:0:0:
256,192,17615,1,8,0:0:0:0:
256,192,17690,1,8,0:0:0:0:
256,192,17765,1,0,0:0:0:0:
256,192,17915,1,8,0:0:0:0:
256,192,18065,1,0,0:0:0:0:
256,192,18215,1,0,0:0:0:0:
256,192,18290,1,8,0:0:0:0:
256,192,18365,1,8,0:0:0:0:
256,192,18440,1,8,0:0:0:0:
256,192,18515,1,0,0:0:0:0:
256,192,18665,1,8,0:0:0:0:
256,192,18815,1,0,0:0:0:0:
256,192,19415,1,0,0:0:0:0:
256,192,19565,1,0,0:0:0:0:
256,192,19715,1,8,0:0:0:0:
256,192,19865,1,0,0:0:0:0:
256,192,19940,1,8,0:0:0:0:
256,192,20015,1,0,0:0:0:0:
256,192,20165,1,8,0:0:0:0:
256,192,20315,1,0,0:0:0:0:
256,192,20390,1,8,0:0:0:0:
256,192,20540,1,8,0:0:0:0:
256,192,20615,1,0,0:0:0:0:
256,192,20765,1,8,0:0:0:0:
256,192,20915,1,8,0:0:0:0:
256,192,20990,1,8,0:0:0:0:
256,192,21065,1,0,0:0:0:0:
256,192,21140,1,0,0:0:0:0:
256,192,21215,1,0,0:0:0:0:
256,192,21365,1,0,0:0:0:0:
256,192,21515,1,8,0:0:0:0:
256,192,21665,1,8,0:0:0:0:
256,192,21740,1,8,0:0:0:0:
256,192,21815,1,0,0:0:0:0:
256,192,21890,1,8,0:0:0:0:
256,192,21965,1,0,0:0:0:0:
256,192,22115,1,8,0:0:0:0:
256,192,22265,1,0,0:0:0:0:
256,192,22340,1,0,0:0:0:0:
256,192,22415,1,0,0:0:0:0:
256,192,22565,1,8,0:0:0:0:
256,192,22865,1,8,0:0:0:0:
256,192,23015,1,0,0:0:0:0:
256,192,23090,1,0,0:0:0:0:
256,192,23165,1,0,0:0:0:0:
256,192,23315,1,8,0:0:0:0:
256,192,23465,1,0,0:0:0:0:
256,192,23540,1,8,0:0:0:0:
256,192,23615,1,0,0:0:0:0:
256,192,23765,1,0,0:0:0:0:
256,192,23915,1,8,0:0:0:0:
256,192,23990,1,0,0:0:0:0:
256,192,24065,1,8,0:0:0:0:
256,192,24215,1,0,0:0:0:0:
256,192,24365,1,0,0:0:0:0:
256,192,24440,1,8,0:0:0:0:
256,192,24515,1,0,0:0:0:0:
256,192,24665,1,8,0:0:0:0:
256,192,24815,1,0,0:0:0:0:
256,192,24965,1,8,0:0:0:0:
256,192,25115,1,0,0:0:0:0:
256,192,25190,1,0,0:0:0:0:
256,192,25265,1,8,0:0:0:0:
256,192,25340,1,8,0:0:0:0:
256,192,25415,1,0,0:0:0:0:
256,192,25565,1,0,0:0:0:0:
256,192,25640,1,0,0:0:0:0:
256,192,25715,1,8,0:0:0:0:
256,192,25865,1,8,0:0:0:0:
256,192,26165,1,8,0:0:0:0:
256,192,26315,1,0,0:0:0:0:
256,192,26390,1,8,0:0:0:0:
256,192,26465,1,8,0:0:0:0:
256,192,26615,1,0,0:0:0:0:
256,192,26765,1,0,0:0:0:0:
256,192,26915,1,8,0:0:0:0:
256,192,27065,1,0,0:0:0:0:
256,192,27140,1,8,0:0:0:0:
256,192,27215,1,0,0:0:0:0:
256,192,27365,1,8,0:0:0:0:
256,192,27440,1,8,0:0:0:0:
256,192,27515,1,0,0:0:0:0:
256,192,27590,1,8,0:0:0:0:
256,192,27665,1,8,0:0:0:0:
256,192,27815,1,0,0:0:0:0:
256,192,28115,1,8,0:0:0:0:
256,192,28190,1,0,0:0:0:0:
256,192,28265,1,8,0:0:0:0:
256,192,28415,1,0,0:0:0:0:
256,192,28565,1,8,0:0:0:0:
256,192,28715,1,0,0:0:0:0:
256,192,28790,1,8,0:0:0:0:
256,192,28865,1,8,0:0:0:0:
256,192,29015,1,0,0:0:0:0:
256,192,29165,1,0,0:0:0:0:
256,192,29315,1,8,0:0:0:0:
256,192,29390,1,8,0:0:0:0:
256,192,29465,1,0,0:0:0:0:
256,192,29540,1,0,0:0:0:0:
256,192,29615,1,0,0:0:0:0:
256,192,29765,1,8,0:0:0:0:
256,192,29915,1,8,0:0:0:0:
256,192,30065,1,0,0:0:0:0:
256,192,30140,1,8,0:0:0:0:
256,192,30215,1,0,0:0:0:0:
256,192,30365,1,8,0:0:0:0:
256,192,30515,1,0,0:0:0:0:
256,192,30590,1,8,0:0:0:0:
256,192,30665,1,8,0:0:0:0:
256,192,30815,1,0,0:0:0:0:
256,192,30965,1,0,0:0:0:0:
256,192,31115,1,8,0:0:0:0:
256,192,31415,1,0,0:0:0:0:
256,192,31565,1,8,0:0:0:0:
256,192,31640,1,0,0:0:0:0:
256,192,31715,1,8,0:0:0:0:
256,192,31865,1,8,0:0:0:0:
256,192,32015,1,0,0:0:0:0:
256,192,32165,1,8,0:0:0:0:
256,192,32240,1,8,0:0:0:0:
256,192,32315,1,0,0:0:0:0:
256,192,32390,1,8,0:0:0:0:
256,192,32465,1,8,0:0:0:0:
256,192,32615,1,0,0:0:0:0:
256,192,32765,1,0,0:0:0:0:
256,192,32915,1,8,0:0:0:0:
256,192,33065,1,0,0:0:0:0:
256,192,33140,1,8,0:0:0:0:
256,192,33215,1,0,0:0:0:0:
256,192,33365,1,0,0:0:0:0:
256,192,33515,1,8,0:0:0:0:
256,192,33665,1,8,0:0:0:0:
256,192,33815,1,0,0:0:0:0:
256,192,34115,1,8,0:0:0:0:
256,192,34265,1,0,0:0:0:0:
256,192,34415,1,0,0:0:0:0:
256,192,34565,1,8,0:0:0:0:
256,192,34715,1,0,0:0:0:0:
256,192,34790,1,0,0:0:0:0:
256,192,34865,1,8,0:0:0:0:
256,192,34940,1,8,0:0:0:0:
256,192,35015,1,0,0:0:0:0:
256,192,35165,1,0,0:0:0:0:
256,192,35240,1,8,0:0:0:0:
256,192,35315,1,8,0:0:0:0:
256,192,35465,1,8,0:0:0:0:
256,192,35615,1,0,0:0:0:0:
256,192,35765,1,8,0:0:0:0:
256,192,35915,1,0,0:0:0:0:
256,192,35990,1,0,0:0:0:0:
256,192,36065,1,8,0:0:0:0:
256,192,36215,1,0,0:0:0:0:
256,192,36365,1,0,0:0:0:0:
256,192,36515,1,8,0:0:0:0:
256,192,36665,1,0,0:0:0:0:
256,192,36740,1,8,0:0:0:0:
256,192,36815,1,0,0:0:0:0:
256,192,36965,1,8,0:0:0:0:
256,192,37115,1,0,0:0:0:0:
256,192,37190,1,8,0:0:0:0:
256,192,37265,1,8,0:0:0:0:
256,192,37415,1,0,0:0:0:0:
256,192,37565,1,0,0:0:0:0:
256,192,37640,1,0,0:0:0:0:
256,192,37715,1,8,0:0:0:0:
256,192,37790,1,0,0:0:0:0:
256,192,37865,1,8,0:0:0:0:
256,192,38015,1,0,0:0:0:0:
256,192,38090,1,8,0:0:0:0:
256,192,38240,1,8,0:0:0:0:
256,192,38315,1,8,0:0:0:0:
256,192,38465,1,8,0:0:0:0:
256,192,38615,1,0,0:0:0:0:
256,192,38915,1,0,0:0:0:0:
256,192,39215,1,0,0:0:0:0:
256,192,39365,1,8,0:0:0:0:
256,192,39515,1,0,0:0:0:0:
256,192,39590,1,8,0:0:0:0:
256,192,39665,1,8,0:0:0:0:
256,192,39740,1,8,0:0:0:0:
256,192,39815,1,0,0:0:0:0:
256,192,39965,1,8,0:0:0:0:
256,192,40040,1,8,0:0:0:0:
256,192,40115,1,0,0:0:0:0:
256,192,40415,1,0,0:0:0:0:
256,192,40490,1,0,0:0:0:0:
256,192,40565,1,8,0:0:0:0:
256,192,40715,1,8,0:0:0:0:
256,192,40865,1,8,0:0:0:0:
256,192,40940,1,8,0:0:0:0:
256,192,41015,1,0,0:0:0:0:
256,192,41315,1,0,0:0:0:0:
256,192,41465,1,0,0:0:0:0:
256,192,41615,1,0,0:0:0:0:
256,192,41765,1,8,0:0:0:0:
256,192,41915,1,0,0:0:0:0:
256,192,42215,1,0,0:0:0:0:
256,192,42365,1,8,0:0:0:0:
256,192,42515,1,0,0:0:0:0:
256,192,42590,1,0,0:0:0:0:
256,192,42665,1,8,0:0:0:0:
256,192,42740,1,8,0:0:0:0:
256,192,42815,1,0,0:0:0:0:
256,192,42965,1,8,0:0:0:0:
256,192,43115,1,0,0:0:0:0:
256,192,43190,1,8,0:0:0:0:
256,192,43340,1,8,0:0:0:0:
256,192,43415,1,0,0:0:0:0:
256,192,43565,1,0,0:0:0:0:
256,192,43715,1,0,0:0:0:0:
256,192,43790,1,0,0:0:0:0:
256,192,43865,1,0,0:0:0:0:
256,192,44015,1,0,0:0:0:0:
256,192,44165,1,8,0:0:0:0:
256,192,44315,1,0,0:0:0:0:
256,192,44615,1,0,0:0:0:0:
256,192,44765,1,8,0:0:0:0:
256,192,44915,1,0,0:0:0:0:
256,192,45215,1,0,0:0:0:0:
256,192,45365,1,8,0:0:0:0:
256,192,45515,1,0,0:0:0:0:
256,192,45665,1,0,0:0:0:0:
256,192,45815,1,8,0:0:0:0:
256,192,45890,1,8,0:0:0:0:
256,192,45965,1,0,0:0:0:0:
256,192,46115,1,8,0:0:0:0:
256,192,46265,1,0,0:0:0:0:
256,192,46415,1,8,0:0:0:0:
256,192,46490,1,8,0:0:0:0:
256,192,46565,1,0,0:0:0:0:
256,192,46715,1,8,0:0:0:0:
256,192,46865,1,0,0:0:0:0:
256,192,47015,1,0,0:0:0:0:
256,192,47090,1,8,0:0:0:0:
256,192,47165,1,8,0:0:0:0:
256,192,47240,1,8,0:0:0:0:
256,192,47315,1,0,0:0:0:0:
256,192,47465,1,8,0:0:0:0:
256,192,47615,1,0,0:0:0:0:
256,192,47765,1,0,0:0:0:0:
256,192,47915,1,0,0:0:0:0:
256,192,48065,1,0,0:0:0:0:
256,192,48215,1,0,0:0:0:0:
256,192,48365,12,0,50465,0:0:0:0:
256,192,50615,12,0,52865,0:0:0:0:
256,192,53015,12,0,55265,0:0:0:0:
256,192,55415,12,0,57215,0:0:0:0:
256,192,57515,5,8,0:0:0:0:
