osu file format v14

[General]
AudioFilename: audio.mp3
AudioLeadIn: 0
PreviewTime: 215
Countdown: 0
SampleSet: Drum
StackLeniency: 1
Mode: 3
LetterboxInBreaks: 0
SpecialStyle: 0
WidescreenStoryboard: 1

[Editor]
Bookmarks: 19415,29015,38615,48215
DistanceSpacing: 1.5
BeatDivisor: 4
GridSize: 4
TimelineZoom: 1.9

[Metadata]
Title:sea shells
TitleUnicode:sea shells
Artist:Kola Kid
ArtistUnicode:Kola Kid
Creator:Feerum
Version:easy
Source:osu!
Tags:fa featured artist mappers' guild MG 8-bit 8 bit chiptune retro electronic instrumental experimental hydria CONTRA 88
BeatmapID:2329038
BeatmapSetID:1114940

[Difficulty]
HPDrainRate:6.5
CircleSize:4
OverallDifficulty:6.5
ApproachRate:10
SliderMultiplier:1.4
SliderTickRate:1

[Events]
//Background and Video events
0,0,"BG.jpg",0,0
//Break Periods
//Storyboard Layer 0 (Background)
//Storyboard Layer 1 (Fail)
//Storyboard Layer 2 (Pass)
//Storyboard Layer 3 (Foreground)
//Storyboard Layer 4 (Overlay)
//Storyboard Sound Samples

[TimingPoints]
215,300,4,3,1,70,1,0

[HitObjects]
64,192,215,5,0,0:0:0:0:
192,192,515,1,0,0:0:0:0:
448,192,815,1,0,0:0:0:0:
192,192,1415,1,0,0:0:0:0:
448,192,1715,1,0,0:0:0:0:
320,192,2015,1,0,0:0:0:0:
64,192,2615,1,0,0:0:0:0:
192,192,2915,1,0,0:0:0:0:
448,192,3215,1,0,0:0:0:0:
192,192,3815,1,0,0:0:0:0:
448,192,4115,1,0,0:0:0:0:
320,192,4415,1,0,0:0:0:0:
448,192,5015,1,0,0:0:0:0:
320,192,5315,1,0,0:0:0:0:
64,192,5615,1,0,0:0:0:0:
320,192,6215,1,0,0:0:0:0:
64,192,6515,1,0,0:0:0:0:
192,192,6815,1,0,0:0:0:0:
448,192,7415,1,0,0:0:0:0:
320,192,7715,1,0,0:0:0:0:
64,192,8015,1,0,0:0:0:0:
320,192,8615,1,0,0:0:0:0:
64,192,8915,1,0,0:0:0:0:
448,192,9215,1,0,0:0:0:0:
192,192,9815,1,2,0:0:0:0:
192,192,10115,1,2,0:0:0:0:
320,192,10415,1,2,0:0:0:0:
320,192,10715,1,2,0:0:0:0:
64,192,11015,1,2,0:0:0:0:
64,192,11315,1,2,0:0:0:0:
448,192,11615,1,2,0:0:0:0:
448,192,11915,1,2,0:0:0:0:
320,192,12065,1,0,0:0:0:0:
192,192,12215,1,2,0:0:0:0:
64,192,12515,1,2,0:0:0:0:
192,192,12665,1,2,0:0:0:0:
320,192,12815,1,2,0:0:0:0:
64,192,13115,1,2,0:0:0:0:
448,192,13415,1,2,0:0:0:0:
320,192,13715,128,2,14015:0:0:0:0:
192,192,14015,1,2,0:0:0:0:
64,192,14315,1,2,0:0:0:0:
448,192,14615,128,2,14915:0:0:0:0:
192,192,14915,128,2,15215:0:0:0:0:
320,192,15215,1,2,0:0:0:0:
320,192,15515,1,2,0:0:0:0:
192,192,15815,1,2,0:0:0:0:
192,192,16115,1,2,0:0:0:0:
64,192,16415,1,2,0:0:0:0:
64,192,16715,1,2,0:0:0:0:
448,192,17015,1,0,0:0:0:0:
320,192,17165,1,2,0:0:0:0:
192,192,17315,1,2,0:0:0:0:
64,192,17615,1,0,0:0:0:0:
192,192,17765,1,2,0:0:0:0:
320,192,17915,1,2,0:0:0:0:
448,192,18215,1,2,0:0:0:0:
192,192,18515,1,2,0:0:0:0:
320,192,18815,1,2,0:0:0:0:
64,192,19115,1,2,0:0:0:0:
448,192,19415,1,0,0:0:0:0:
320,192,19565,1,2,0:0:0:0:
64,192,19715,1,8,0:0:0:0:
192,192,20015,1,2,0:0:0:0:
320,192,20465,1,2,0:0:0:0:
64,192,20615,1,2,0:0:0:0:
192,192,20915,128,0,21215:0:0:0:0:
448,192,21215,1,2,0:0:0:0:
320,192,21365,1,2,0:0:0:0:
64,192,21515,1,8,0:0:0:0:
192,192,21815,1,2,0:0:0:0:
64,192,22265,1,2,0:0:0:0:
448,192,22415,1,2,0:0:0:0:
320,192,22865,1,8,0:0:0:0:
192,192,23015,1,2,0:0:0:0:
320,192,23315,1,8,0:0:0:0:
64,192,23615,1,2,0:0:0:0:
192,192,23765,1,2,0:0:0:0:
448,192,23915,1,8,0:0:0:0:
320,192,24065,1,8,0:0:0:0:
192,192,24515,1,8,0:0:0:0:
320,192,24665,1,2,0:0:0:0:
64,192,24815,1,2,0:0:0:0:
448,192,25115,1,0,0:0:0:0:
192,192,25415,1,2,0:0:0:0:
320,192,25565,1,2,0:0:0:0:
64,192,25715,1,8,0:0:0:0:
448,192,26015,1,2,0:0:0:0:
192,192,26315,128,0,26615:0:0:0:0:
320,192,26615,1,2,0:0:0:0:
64,192,26765,1,2,0:0:0:0:
448,192,26915,1,8,0:0:0:0:
192,192,27215,1,2,0:0:0:0:
64,192,27365,1,0,0:0:0:0:
320,192,27515,128,0,27815:0:0:0:0:
192,192,27815,128,0,28115:0:0:0:0:
448,192,28115,1,8,0:0:0:0:
320,192,28265,1,8,0:0:0:0:
64,192,28415,1,2,0:0:0:0:
192,192,28565,1,2,0:0:0:0:
448,192,28715,128,0,29015:0:0:0:0:
64,192,29015,1,2,0:0:0:0:
192,192,29165,1,2,0:0:0:0:
320,192,29315,1,8,0:0:0:0:
448,192,29615,1,2,0:0:0:0:
192,192,30065,1,2,0:0:0:0:
320,192,30215,1,2,0:0:0:0:
64,192,30515,1,0,0:0:0:0:
448,192,30815,1,2,0:0:0:0:
192,192,30965,1,2,0:0:0:0:
320,192,31115,128,8,31415:0:0:0:0:
64,192,31415,1,2,0:0:0:0:
448,192,31865,1,2,0:0:0:0:
192,192,32015,1,2,0:0:0:0:
320,192,32315,1,0,0:0:0:0:
64,192,32615,1,2,0:0:0:0:
192,192,32765,1,2,0:0:0:0:
448,192,32915,1,8,0:0:0:0:
320,192,33215,1,2,0:0:0:0:
64,192,33365,1,0,0:0:0:0:
448,192,33515,1,8,0:0:0:0:
192,192,33665,1,8,0:0:0:0:
320,192,33815,1,2,0:0:0:0:
448,192,34265,1,2,0:0:0:0:
192,192,34415,1,2,0:0:0:0:
320,192,34715,1,0,0:0:0:0:
64,192,35015,1,2,0:0:0:0:
192,192,35165,1,2,0:0:0:0:
448,192,35315,1,8,0:0:0:0:
320,192,35465,1,8,0:0:0:0:
64,192,35615,128,2,35915:0:0:0:0:
448,192,35915,128,0,36215:0:0:0:0:
192,192,36215,1,2,0:0:0:0:
320,192,36365,1,2,0:0:0:0:
64,192,36515,1,2,0:0:0:0:
448,192,36815,1,2,0:0:0:0:
192,192,37115,1,0,0:0:0:0:
320,192,37415,1,2,0:0:0:0:
192,192,37565,1,2,0:0:0:0:
448,192,37715,1,8,0:0:0:0:
64,192,38015,1,2,0:0:0:0:
320,192,38165,1,2,0:0:0:0:
192,192,38315,128,8,38615:0:0:0:0:
320,192,38615,1,2,0:0:0:0:
320,192,38915,1,2,0:0:0:0:
192,192,39215,1,2,0:0:0:0:
192,192,39515,1,2,0:0:0:0:
448,192,39815,1,2,0:0:0:0:
448,192,40115,1,2,0:0:0:0:
64,192,40415,1,0,0:0:0:0:
192,192,40565,1,2,0:0:0:0:
320,192,40715,1,2,0:0:0:0:
64,192,41015,1,2,0:0:0:0:
448,192,41315,1,2,0:0:0:0:
320,192,41465,1,2,0:0:0:0:
192,192,41615,1,2,0:0:0:0:
448,192,41915,1,2,0:0:0:0:
320,192,42215,1,2,0:0:0:0:
64,192,42515,1,2,0:0:0:0:
192,192,42665,1,0,0:0:0:0:
320,192,42815,1,2,0:0:0:0:
64,192,43115,1,2,0:0:0:0:
448,192,43415,128,0,43715:0:0:0:0:
192,192,43715,128,0,44015:0:0:0:0:
320,192,44015,1,2,0:0:0:0:
64,192,44315,1,2,0:0:0:0:
448,192,44615,1,2,0:0:0:0:
320,192,44915,1,2,0:0:0:0:
192,192,45215,1,2,0:0:0:0:
64,192,45515,1,2,0:0:0:0:
448,192,45815,1,0,0:0:0:0:
320,192,45965,1,2,0:0:0:0:
192,192,46115,1,2,0:0:0:0:
64,192,46415,1,0,0:0:0:0:
192,192,46565,1,2,0:0:0:0:
320,192,46715,1,2,0:0:0:0:
192,192,47015,1,2,0:0:0:0:
448,192,47315,1,2,0:0:0:0:
64,192,47615,128,2,47915:0:0:0:0:
320,192,47915,128,2,48215:0:0:0:0:
192,192,48215,1,2,0:0:0:0:
