osu file format v14

[General]
AudioFilename: audio.mp3
AudioLeadIn: 0
PreviewTime: 9815
Countdown: 0
SampleSet: Normal
StackLeniency: 1
Mode: 1
LetterboxInBreaks: 0
WidescreenStoryboard: 1

[Editor]
DistanceSpacing: 1
BeatDivisor: 4
GridSize: 32
TimelineZoom: 3

[Metadata]
Title:sea shells
TitleUnicode:sea shells
Artist:Kola Kid
ArtistUnicode:Kola Kid
Creator:Fallmorph
Version:oni
Source:osu!
Tags:8-bit 8 bit breakcore contra 88 chiptune electronic fa featured artist instrumental
BeatmapID:2310305
BeatmapSetID:1105356

[Difficulty]
HPDrainRate:7.5
CircleSize:2
OverallDifficulty:5
ApproachRate:10
SliderMultiplier:1.4
SliderTickRate:1

[Events]
//Background and Video events
0,0,"bg.jpg",0,0
//Break Periods
//Storyboard Layer 0 (Background)
//Storyboard Layer 1 (Fail)
//Storyboard Layer 2 (Pass)
//Storyboard Layer 3 (Foreground)
//Storyboard Layer 4 (Overlay)
//Storyboard Sound Samples

[TimingPoints]
215,300,4,1,0,60,1,0
215,-133.333333333333,4,1,0,60,0,0
9740,-100,4,1,0,80,0,0
19340,-100,4,1,0,100,0,0
19415,-100,4,1,0,100,0,1
38615,-100,4,1,0,100,0,0
38690,-100,4,1,0,80,0,0
48290,-133.333333333333,4,1,0,34,0,0
48365,-133.333333333333,4,1,0,38,0,0
48440,-133.333333333333,4,1,0,41,0,0
48515,-133.333333333333,4,1,0,45,0,0
48590,-133.333333333333,4,1,0,49,0,0
48665,-133.333333333333,4,1,0,52,0,0
48740,-133.333333333333,4,1,0,56,0,0
48815,-133.333333333333,4,1,0,60,0,0
48890,-133.333333333333,4,1,0,59,0,0
48965,-133.333333333333,4,1,0,58,0,0
49040,-133.333333333333,4,1,0,56,0,0
49115,-133.333333333333,4,1,0,55,0,0
49190,-133.333333333333,4,1,0,54,0,0
49265,-133.333333333333,4,1,0,52,0,0
49340,-133.333333333333,4,1,0,51,0,0
49415,-133.333333333333,4,1,0,50,0,0
49490,-133.333333333333,4,1,0,49,0,0
49565,-133.333333333333,4,1,0,48,0,0
49640,-133.333333333333,4,1,0,46,0,0
49715,-133.333333333333,4,1,0,45,0,0
49790,-133.333333333333,4,1,0,44,0,0
49865,-133.333333333333,4,1,0,42,0,0
49940,-133.333333333333,4,1,0,41,0,0
50015,-133.333333333333,4,1,0,40,0,0
50090,-133.333333333333,4,1,0,39,0,0
50165,-133.333333333333,4,1,0,38,0,0
50240,-133.333333333333,4,1,0,36,0,0
50315,-133.333333333333,4,1,0,35,0,0
50390,-133.333333333333,4,1,0,34,0,0
50465,-133.333333333333,4,1,0,32,0,0
50540,-133.333333333333,4,1,0,31,0,0
50615,-133.333333333333,4,1,0,30,0,0
53090,-133.333333333333,4,1,0,34,0,0
53165,-133.333333333333,4,1,0,38,0,0
53240,-133.333333333333,4,1,0,41,0,0
53315,-133.333333333333,4,1,0,45,0,0
53390,-133.333333333333,4,1,0,49,0,0
53465,-133.333333333333,4,1,0,52,0,0
53540,-133.333333333333,4,1,0,56,0,0
53615,-133.333333333333,4,1,0,60,0,0
53690,-133.333333333333,4,1,0,59,0,0
53765,-133.333333333333,4,1,0,58,0,0
53840,-133.333333333333,4,1,0,56,0,0
53915,-133.333333333333,4,1,0,55,0,0
53990,-133.333333333333,4,1,0,54,0,0
54065,-133.333333333333,4,1,0,52,0,0
54140,-133.333333333333,4,1,0,51,0,0
54215,-133.333333333333,4,1,0,50,0,0
54290,-133.333333333333,4,1,0,49,0,0
54365,-133.333333333333,4,1,0,48,0,0
54440,-133.333333333333,4,1,0,46,0,0
54515,-133.333333333333,4,1,0,45,0,0
54590,-133.333333333333,4,1,0,44,0,0
54665,-133.333333333333,4,1,0,42,0,0
54740,-133.333333333333,4,1,0,41,0,0
54815,-133.333333333333,4,1,0,40,0,0
54890,-133.333333333333,4,1,0,39,0,0
54965,-133.333333333333,4,1,0,38,0,0
55040,-133.333333333333,4,1,0,36,0,0
55115,-133.333333333333,4,1,0,35,0,0
55190,-133.333333333333,4,1,0,34,0,0
55265,-133.333333333333,4,1,0,32,0,0
55340,-133.333333333333,4,1,0,31,0,0
55415,-133.333333333333,4,1,0,30,0,0
57440,-100,4,1,0,60,0,0

[HitObjects]
256,192,215,5,0,0:0:0:0:
256,192,515,1,0,0:0:0:0:
256,192,815,1,8,0:0:0:0:
256,192,1115,1,0,0:0:0:0:
256,192,1415,1,0,0:0:0:0:
256,192,1715,1,8,0:0:0:0:
256,192,2015,1,0,0:0:0:0:
256,192,2615,1,0,0:0:0:0:
256,192,2915,1,0,0:0:0:0:
256,192,3215,1,8,0:0:0:0:
256,192,3815,1,8,0:0:0:0:
256,192,4115,1,8,0:0:0:0:
256,192,4415,1,0,0:0:0:0:
256,192,5015,1,0,0:0:0:0:
256,192,5315,1,8,0:0:0:0:
256,192,5615,1,8,0:0:0:0:
256,192,5915,1,0,0:0:0:0:
256,192,6215,1,0,0:0:0:0:
256,192,6515,1,8,0:0:0:0:
256,192,6815,1,0,0:0:0:0:
256,192,7415,1,0,0:0:0:0:
256,192,7715,1,8,0:0:0:0:
256,192,8015,1,8,0:0:0:0:
256,192,8615,1,8,0:0:0:0:
256,192,8915,1,8,0:0:0:0:
256,192,9215,1,0,0:0:0:0:
256,192,9815,1,0,0:0:0:0:
256,192,9965,1,8,0:0:0:0:
256,192,10115,1,0,0:0:0:0:
256,192,10265,1,0,0:0:0:0:
256,192,10415,1,8,0:0:0:0:
256,192,10715,1,0,0:0:0:0:
256,192,10865,1,0,0:0:0:0:
256,192,10940,1,8,0:0:0:0:
256,192,11015,1,0,0:0:0:0:
256,192,11165,1,0,0:0:0:0:
256,192,11315,1,8,0:0:0:0:
256,192,11465,1,8,0:0:0:0:
256,192,11615,1,0,0:0:0:0:
256,192,11915,1,0,0:0:0:0:
256,192,12065,1,0,0:0:0:0:
256,192,12140,1,0,0:0:0:0:
256,192,12215,1,0,0:0:0:0:
256,192,12365,1,8,0:0:0:0:
256,192,12515,1,0,0:0:0:0:
256,192,12665,1,0,0:0:0:0:
256,192,12815,1,8,0:0:0:0:
256,192,13115,1,0,0:0:0:0:
256,192,13265,1,8,0:0:0:0:
256,192,13415,1,0,0:0:0:0:
256,192,13565,1,0,0:0:0:0:
256,192,13715,1,8,0:0:0:0:
256,192,13790,1,8,0:0:0:0:
256,192,13865,1,0,0:0:0:0:
256,192,13940,1,8,0:0:0:0:
256,192,14015,1,0,0:0:0:0:
256,192,14165,1,8,0:0:0:0:
256,192,14315,1,0,0:0:0:0:
256,192,14465,1,8,0:0:0:0:
256,192,14540,1,8,0:0:0:0:
256,192,14615,1,0,0:0:0:0:
256,192,14765,1,0,0:0:0:0:
256,192,14915,1,0,0:0:0:0:
256,192,15065,1,0,0:0:0:0:
256,192,15215,1,8,0:0:0:0:
256,192,15515,1,0,0:0:0:0:
256,192,15665,1,8,0:0:0:0:
256,192,15815,1,0,0:0:0:0:
256,192,15965,1,0,0:0:0:0:
256,192,16115,1,8,0:0:0:0:
256,192,16265,1,8,0:0:0:0:
256,192,16415,1,0,0:0:0:0:
256,192,16715,1,0,0:0:0:0:
256,192,16865,1,8,0:0:0:0:
256,192,17015,1,0,0:0:0:0:
256,192,17090,1,0,0:0:0:0:
256,192,17165,1,0,0:0:0:0:
256,192,17315,1,0,0:0:0:0:
256,192,17465,1,0,0:0:0:0:
256,192,17615,1,8,0:0:0:0:
256,192,17690,1,8,0:0:0:0:
256,192,17765,1,0,0:0:0:0:
256,192,17915,1,0,0:0:0:0:
256,192,18065,1,8,0:0:0:0:
256,192,18215,1,0,0:0:0:0:
256,192,18365,1,0,0:0:0:0:
256,192,18440,1,8,0:0:0:0:
256,192,18515,1,8,0:0:0:0:
256,192,18665,1,8,0:0:0:0:
256,192,18815,1,0,0:0:0:0:
256,192,19115,1,8,0:0:0:0:
256,192,19415,1,0,0:0:0:0:
256,192,19565,1,0,0:0:0:0:
256,192,19715,1,8,0:0:0:0:
256,192,19865,1,0,0:0:0:0:
256,192,19940,1,8,0:0:0:0:
256,192,20015,1,0,0:0:0:0:
256,192,20165,1,8,0:0:0:0:
256,192,20315,1,8,0:0:0:0:
256,192,20465,1,0,0:0:0:0:
256,192,20540,1,0,0:0:0:0:
256,192,20615,1,0,0:0:0:0:
256,192,20765,1,8,0:0:0:0:
256,192,20915,1,8,0:0:0:0:
256,192,20990,1,0,0:0:0:0:
256,192,21065,1,8,0:0:0:0:
256,192,21140,1,8,0:0:0:0:
256,192,21215,1,0,0:0:0:0:
256,192,21365,1,0,0:0:0:0:
256,192,21515,1,8,0:0:0:0:
256,192,21815,1,0,0:0:0:0:
256,192,21965,1,8,0:0:0:0:
256,192,22040,1,0,0:0:0:0:
256,192,22115,1,8,0:0:0:0:
256,192,22265,1,0,0:0:0:0:
256,192,22415,1,0,0:0:0:0:
256,192,22565,1,8,0:0:0:0:
256,192,22640,1,8,0:0:0:0:
256,192,22715,1,8,0:0:0:0:
256,192,22865,1,8,0:0:0:0:
256,192,23015,1,0,0:0:0:0:
256,192,23090,1,0,0:0:0:0:
256,192,23165,1,0,0:0:0:0:
256,192,23240,1,0,0:0:0:0:
256,192,23315,1,8,0:0:0:0:
256,192,23465,1,8,0:0:0:0:
256,192,23765,1,0,0:0:0:0:
256,192,23915,1,8,0:0:0:0:
256,192,23990,1,0,0:0:0:0:
256,192,24065,1,8,0:0:0:0:
256,192,24215,1,0,0:0:0:0:
256,192,24440,1,0,0:0:0:0:
256,192,24515,1,8,0:0:0:0:
256,192,24665,1,0,0:0:0:0:
256,192,24815,1,0,0:0:0:0:
256,192,24965,1,8,0:0:0:0:
256,192,25115,1,8,0:0:0:0:
256,192,25190,1,0,0:0:0:0:
256,192,25265,1,8,0:0:0:0:
256,192,25340,1,8,0:0:0:0:
256,192,25415,1,0,0:0:0:0:
256,192,25565,1,0,0:0:0:0:
256,192,25715,1,8,0:0:0:0:
256,192,25865,1,8,0:0:0:0:
256,192,25940,1,8,0:0:0:0:
256,192,26015,1,0,0:0:0:0:
256,192,26165,1,8,0:0:0:0:
256,192,26315,1,0,0:0:0:0:
256,192,26390,1,8,0:0:0:0:
256,192,26465,1,8,0:0:0:0:
256,192,26615,1,0,0:0:0:0:
256,192,26915,1,8,0:0:0:0:
256,192,27065,1,0,0:0:0:0:
256,192,27140,1,8,0:0:0:0:
256,192,27215,1,0,0:0:0:0:
256,192,27365,1,8,0:0:0:0:
256,192,27515,1,8,0:0:0:0:
256,192,27590,1,0,0:0:0:0:
256,192,27665,1,8,0:0:0:0:
256,192,27815,1,0,0:0:0:0:
256,192,27890,1,0,0:0:0:0:
256,192,27965,1,0,0:0:0:0:
256,192,28040,1,0,0:0:0:0:
256,192,28115,1,8,0:0:0:0:
256,192,28265,1,8,0:0:0:0:
256,192,28565,1,0,0:0:0:0:
256,192,28715,1,8,0:0:0:0:
256,192,28790,1,8,0:0:0:0:
256,192,28865,1,8,0:0:0:0:
256,192,28940,1,8,0:0:0:0:
256,192,29015,1,0,0:0:0:0:
256,192,29315,1,8,0:0:0:0:
256,192,29465,1,0,0:0:0:0:
256,192,29540,1,8,0:0:0:0:
256,192,29615,1,0,0:0:0:0:
256,192,29765,1,8,0:0:0:0:
256,192,29915,1,8,0:0:0:0:
256,192,30065,1,0,0:0:0:0:
256,192,30140,1,0,0:0:0:0:
256,192,30215,1,0,0:0:0:0:
256,192,30365,1,8,0:0:0:0:
256,192,30515,1,0,0:0:0:0:
256,192,30665,1,0,0:0:0:0:
256,192,30740,1,8,0:0:0:0:
256,192,30815,1,0,0:0:0:0:
256,192,30965,1,0,0:0:0:0:
256,192,31115,1,8,0:0:0:0:
256,192,31190,1,8,0:0:0:0:
256,192,31265,1,8,0:0:0:0:
256,192,31340,1,8,0:0:0:0:
256,192,31415,1,0,0:0:0:0:
256,192,31565,1,8,0:0:0:0:
256,192,31640,1,0,0:0:0:0:
256,192,31715,1,8,0:0:0:0:
256,192,32015,1,0,0:0:0:0:
256,192,32165,1,0,0:0:0:0:
256,192,32240,1,8,0:0:0:0:
256,192,32315,1,0,0:0:0:0:
256,192,32390,1,8,0:0:0:0:
256,192,32465,1,8,0:0:0:0:
256,192,32615,1,0,0:0:0:0:
256,192,32765,1,0,0:0:0:0:
256,192,32915,1,8,0:0:0:0:
256,192,33065,1,8,0:0:0:0:
256,192,33140,1,8,0:0:0:0:
256,192,33215,1,0,0:0:0:0:
256,192,33365,1,0,0:0:0:0:
256,192,33440,1,0,0:0:0:0:
256,192,33515,1,8,0:0:0:0:
256,192,33665,1,8,0:0:0:0:
256,192,33815,1,0,0:0:0:0:
256,192,34040,1,0,0:0:0:0:
256,192,34115,1,8,0:0:0:0:
256,192,34265,1,0,0:0:0:0:
256,192,34415,1,0,0:0:0:0:
256,192,34565,1,8,0:0:0:0:
256,192,34715,1,8,0:0:0:0:
256,192,34790,1,0,0:0:0:0:
256,192,34865,1,8,0:0:0:0:
256,192,34940,1,8,0:0:0:0:
256,192,35015,1,0,0:0:0:0:
256,192,35165,1,0,0:0:0:0:
256,192,35240,1,0,0:0:0:0:
256,192,35315,1,8,0:0:0:0:
256,192,35465,1,0,0:0:0:0:
256,192,35765,1,8,0:0:0:0:
256,192,35915,1,0,0:0:0:0:
256,192,35990,1,8,0:0:0:0:
256,192,36065,1,8,0:0:0:0:
256,192,36215,1,0,0:0:0:0:
256,192,36515,1,8,0:0:0:0:
256,192,36665,1,0,0:0:0:0:
256,192,36740,1,8,0:0:0:0:
256,192,36815,1,0,0:0:0:0:
256,192,36965,1,8,0:0:0:0:
256,192,37040,1,0,0:0:0:0:
256,192,37115,1,8,0:0:0:0:
256,192,37190,1,8,0:0:0:0:
256,192,37265,1,8,0:0:0:0:
256,192,37415,1,0,0:0:0:0:
256,192,37565,1,0,0:0:0:0:
256,192,37715,1,8,0:0:0:0:
256,192,37790,1,0,0:0:0:0:
256,192,37865,1,8,0:0:0:0:
256,192,38015,1,0,0:0:0:0:
256,192,38165,1,0,0:0:0:0:
256,192,38315,1,8,0:0:0:0:
256,192,38390,1,8,0:0:0:0:
256,192,38465,1,8,0:0:0:0:
256,192,38540,1,8,0:0:0:0:
256,192,38615,1,0,0:0:0:0:
256,192,38915,1,0,0:0:0:0:
256,192,39065,1,8,0:0:0:0:
256,192,39215,1,0,0:0:0:0:
256,192,39515,1,0,0:0:0:0:
256,192,39665,1,8,0:0:0:0:
256,192,39740,1,8,0:0:0:0:
256,192,39815,1,0,0:0:0:0:
256,192,40115,1,0,0:0:0:0:
256,192,40265,1,8,0:0:0:0:
256,192,40415,1,0,0:0:0:0:
256,192,40490,1,0,0:0:0:0:
256,192,40565,1,0,0:0:0:0:
256,192,40715,1,0,0:0:0:0:
256,192,40865,1,0,0:0:0:0:
256,192,40940,1,0,0:0:0:0:
256,192,41015,1,0,0:0:0:0:
256,192,41315,1,0,0:0:0:0:
256,192,41465,1,0,0:0:0:0:
256,192,41615,1,0,0:0:0:0:
256,192,41915,1,0,0:0:0:0:
256,192,42065,1,8,0:0:0:0:
256,192,42215,1,0,0:0:0:0:
256,192,42515,1,0,0:0:0:0:
256,192,42590,1,0,0:0:0:0:
256,192,42665,1,0,0:0:0:0:
256,192,42740,1,0,0:0:0:0:
256,192,42815,1,0,0:0:0:0:
256,192,42965,1,8,0:0:0:0:
256,192,43115,1,0,0:0:0:0:
256,192,43265,1,8,0:0:0:0:
256,192,43340,1,8,0:0:0:0:
256,192,43415,1,0,0:0:0:0:
256,192,43565,1,0,0:0:0:0:
256,192,43715,1,0,0:0:0:0:
256,192,43790,1,0,0:0:0:0:
256,192,43865,1,0,0:0:0:0:
256,192,44015,1,0,0:0:0:0:
256,192,44315,1,0,0:0:0:0:
256,192,44465,1,8,0:0:0:0:
256,192,44615,1,0,0:0:0:0:
256,192,44915,1,0,0:0:0:0:
256,192,45065,1,8,0:0:0:0:
256,192,45215,1,0,0:0:0:0:
256,192,45515,1,0,0:0:0:0:
256,192,45665,1,8,0:0:0:0:
256,192,45815,1,0,0:0:0:0:
256,192,45890,1,0,0:0:0:0:
256,192,45965,1,0,0:0:0:0:
256,192,46115,1,0,0:0:0:0:
256,192,46265,1,8,0:0:0:0:
256,192,46415,1,0,0:0:0:0:
256,192,46490,1,0,0:0:0:0:
256,192,46565,1,0,0:0:0:0:
256,192,46715,1,0,0:0:0:0:
256,192,46865,1,8,0:0:0:0:
256,192,47015,1,0,0:0:0:0:
256,192,47165,1,8,0:0:0:0:
256,192,47240,1,8,0:0:0:0:
256,192,47315,1,0,0:0:0:0:
256,192,47465,1,8,0:0:0:0:
256,192,47615,1,0,0:0:0:0:
256,192,47765,1,0,0:0:0:0:
256,192,47915,1,0,0:0:0:0:
256,192,48065,1,0,0:0:0:0:
256,192,48215,8,0,50315,0:0:0:0:
256,192,50615,8,0,52715,0:0:0:0:
256,192,53015,8,0,55115,0:0:0:0:
256,192,55415,8,0,57365,0:0:0:0:
256,192,57515,5,8,0:0:0:0:
