osu file format v14

[General]
AudioFilename: audio.mp3
AudioLeadIn: 0
PreviewTime: 9615
Countdown: 0
SampleSet: Soft
StackLeniency: 0.7
Mode: 2
LetterboxInBreaks: 0
WidescreenStoryboard: 0

[Editor]
Bookmarks: 38412
DistanceSpacing: 1
BeatDivisor: 4
GridSize: 8
TimelineZoom: 2.599999

[Metadata]
Title:sea shells
TitleUnicode:sea shells
Artist:Kola Kid
ArtistUnicode:Kola Kid
Creator:Dapuluous
Version:MBomb's Salad
Source:osu!
Tags:osu! fa featured artist mappers guild 8-bit 8 bit breakcore contra 88 chiptune electronic instrumental russian -joni- ajamez jemzuu mbomb magic bomb
BeatmapID:2327668
BeatmapSetID:1107581

[Difficulty]
HPDrainRate:3.5
CircleSize:3
OverallDifficulty:7
ApproachRate:7
SliderMultiplier:1.2
SliderTickRate:1

[Events]
//Background and Video events
0,0,"55.png",0,0
//Break Periods
//Storyboard Layer 0 (Background)
//Storyboard Layer 1 (Fail)
//Storyboard Layer 2 (Pass)
//Storyboard Layer 3 (Foreground)
//Storyboard Layer 4 (Overlay)
//Storyboard Sound Samples

[TimingPoints]
215,300,4,2,1,35,1,0
3215,-100,4,2,1,40,0,0
5615,-100,4,2,1,45,0,0
8015,-100,4,2,1,50,0,0
9612,-100,4,2,1,50,0,0
9665,-100,4,2,1,5,0,0
9815,-100,4,2,1,60,0,1
9965,-100,4,2,1,60,0,0
19115,-100,4,2,1,40,0,0
19212,-100,4,2,1,40,0,0
19265,-100,4,2,1,5,0,0
19415,-100,4,2,1,85,0,1
38412,-100,4,2,1,85,0,1
38615,-100,4,2,1,60,0,0
41015,-100,4,2,1,55,0,0
43415,-100,4,2,1,50,0,0
45815,-100,4,2,1,45,0,0
48012,-100,4,2,1,45,0,0
48365,-100,4,2,1,40,0,0
50562,-100,4,2,1,40,0,0
50615,-100,4,2,1,35,0,0
52962,-100,4,2,1,35,0,0
53015,-100,4,2,1,40,0,0
55362,-100,4,2,1,40,0,0
56015,-100,4,2,1,35,0,0
56615,-100,4,2,1,30,0,0
57215,-100,4,2,1,25,0,0
57312,-100,4,2,1,25,0,0

[Colours]
Combo1 : 210,230,200
Combo2 : 5,90,180
Combo3 : 130,200,240

[HitObjects]
320,192,215,5,0,0:0:0:0:
464,192,515,2,0,B|344:192,1,120,0|10,0:0|0:3,0:0:0:0:
104,192,1415,2,0,L|232:192,2,120,0|0|2,0:0|0:0|0:3,0:0:0:0:
296,192,2615,5,0,0:0:0:0:
152,192,2915,2,0,L|272:192,1,120,0|10,0:0|0:3,0:0:0:0:
32,192,3815,1,0,0:0:0:0:
152,192,4115,1,0,0:0:0:0:
272,192,4415,1,2,0:3:0:0:
488,192,5015,5,0,0:0:0:0:
344,192,5315,2,0,L|224:192,1,120,0|10,0:0|0:3,0:0:0:0:
464,192,6215,1,0,0:0:0:0:
344,192,6515,1,0,0:0:0:0:
224,192,6815,1,2,0:3:0:0:
32,192,7415,5,0,0:0:0:0:
176,192,7715,2,0,L|56:192,1,120,0|10,0:0|0:3,0:0:0:0:
296,192,8615,2,0,L|424:192,2,120,0|0|2,0:0|0:0|0:3,0:0:0:0:
16,192,9815,5,2,0:0:0:0:
160,192,10115,2,0,L|224:192,2,60,8|0|2,0:0|0:0|0:0,0:0:0:0:
280,192,10715,2,0,L|352:192,1,60,8|0,0:0|0:0,0:0:0:0:
248,192,11015,6,0,P|184:176|192:120,1,120,2|8,0:0|0:0,0:0:0:0:
328,192,11615,1,2,0:0:0:0:
456,192,11915,1,8,0:0:0:0:
384,192,12065,1,0,0:0:0:0:
224,192,12215,5,2,0:0:0:0:
80,192,12515,2,0,L|80:128,1,60,8|2,0:0|0:0,0:0:0:0:
168,192,12815,1,2,0:0:0:0:
288,192,13115,1,8,0:0:0:0:
144,192,13415,5,2,0:0:0:0:
288,192,13715,1,8,0:0:0:0:
216,192,13865,1,0,0:0:0:0:
144,192,14015,2,0,P|72:160|88:120,1,120,2|8,0:0|0:0,0:0:0:0:
152,192,14465,1,2,0:0:0:0:
312,192,14615,5,2,0:0:0:0:
376,192,14765,1,2,0:0:0:0:
376,192,14915,1,2,0:0:0:0:
312,192,15065,1,2,0:0:0:0:
240,192,15215,2,0,P|176:176|160:128,1,120,2|8,0:0|0:0,0:0:0:0:
304,192,15815,6,0,L|168:192,1,120,2|8,0:0|0:0,0:0:0:0:
312,192,16415,2,0,P|384:176|400:128,1,120,2|8,0:0|0:0,0:0:0:0:
128,192,17015,6,0,L|208:192,1,60,2|2,0:0|0:0,0:0:0:0:
264,192,17315,1,8,0:0:0:0:
120,192,17615,2,0,L|56:192,2,60,2|2|8,0:0|0:0|0:0,0:0:0:0:
264,192,18215,5,2,0:0:0:0:
328,192,18365,2,0,L|328:128,1,60,0|8,0:0|0:0,0:0:0:0:
184,192,18815,1,2,0:0:0:0:
184,192,19115,2,0,L|264:192,1,60,4|0,0:1|0:0,0:0:0:0:
400,192,19415,6,0,L|472:192,2,60,6|0|8,0:0|0:0|0:0,0:0:0:0:
256,192,20015,1,2,0:0:0:0:
256,192,20165,1,8,0:0:0:0:
384,192,20465,1,0,0:0:0:0:
304,192,20615,5,2,0:0:0:0:
168,192,20915,2,0,L|104:192,2,60,8|2|2,0:0|0:0|0:0,0:0:0:0:
240,192,21365,1,0,0:0:0:0:
168,192,21515,1,8,0:0:0:0:
432,192,21815,6,0,L|432:120,1,60,2|0,0:0|0:0,0:0:0:0:
352,192,22115,1,8,0:0:0:0:
208,192,22415,2,0,L|344:192,1,120,2|8,0:0|0:0,0:0:0:0:
256,192,22865,1,0,0:0:0:0:
176,192,23015,6,0,L|104:192,1,60,2|0,0:0|0:0,0:0:0:0:
116,192,23315,1,8,0:0:0:0:
256,192,23615,2,0,L|320:192,2,60,2|2|8,0:0|0:0|0:0,0:0:0:0:
184,192,24065,1,8,0:0:0:0:
24,192,24215,6,0,L|24:128,1,60,2|0,0:0|0:0,0:0:0:0:
96,192,24515,1,8,0:0:0:0:
240,192,24815,2,0,L|304:192,1,60,2|2,0:0|0:0,0:0:0:0:
168,192,25265,1,2,0:0:0:0:
240,192,25415,5,2,0:0:0:0:
368,192,25715,2,0,B|424:176|424:176|360:192,1,120,8|2,0:0|0:0,0:0:0:0:
288,192,26165,1,0,0:0:0:0:
348,192,26315,1,8,0:0:0:0:
408,192,26465,1,2,0:0:0:0:
256,192,26615,5,2,0:0:0:0:
192,192,26765,1,2,0:0:0:0:
256,192,26915,1,8,0:0:0:0:
112,192,27215,2,0,P|48:184|32:128,1,120,2|8,0:0|0:0,0:0:0:0:
104,192,27665,1,0,0:0:0:0:
184,192,27815,6,0,L|248:192,2,60,2|0|8,0:0|0:0|0:0,0:0:0:0:
104,192,28265,1,8,0:0:0:0:
232,192,28565,1,2,0:0:0:0:
160,192,28715,2,0,L|160:120,1,60,8|0,0:0|0:0,0:0:0:0:
320,192,29015,5,2,0:0:0:0:
392,192,29165,1,0,0:0:0:0:
432,192,29315,1,8,0:0:0:0:
296,192,29615,1,2,0:0:0:0:
296,192,29765,1,8,0:0:0:0:
296,192,29915,1,8,0:0:0:0:
160,192,30215,6,0,L|160:128,1,60,2|0,0:0|0:0,0:0:0:0:
232,192,30515,1,8,0:0:0:0:
168,192,30665,1,0,0:0:0:0:
104,192,30815,2,0,P|64:160|112:136,1,120,2|8,0:0|0:0,0:0:0:0:
184,192,31265,1,0,0:0:0:0:
344,192,31415,5,2,0:0:0:0:
408,192,31565,1,2,0:0:0:0:
344,192,31715,1,8,0:0:0:0:
280,192,31865,1,0,0:0:0:0:
344,192,32015,2,0,P|424:176|440:128,1,120,2|8,0:0|0:0,0:0:0:0:
304,192,32615,6,0,L|232:192,1,60,2|0,0:0|0:0,0:0:0:0:
328,192,32915,2,0,L|328:120,1,60,8|0,0:0|0:0,0:0:0:0:
192,192,33365,1,2,0:0:0:0:
264,192,33515,1,8,0:0:0:0:
336,192,33665,1,2,0:0:0:0:
184,192,33815,6,0,P|120:176|104:128,2,120,2|8|2,0:0|0:0|0:0,0:0:0:0:
256,192,34565,1,2,0:0:0:0:
184,192,34715,2,0,L|120:192,1,60,8|2,0:0|0:0,0:0:0:0:
200,192,35015,5,2,0:0:0:0:
336,192,35315,1,8,0:0:0:0:
264,192,35465,1,0,0:0:0:0:
200,192,35615,1,2,0:0:0:0:
160,192,35765,1,0,0:0:0:0:
200,192,35915,1,8,0:0:0:0:
464,192,36215,6,0,L|464:128,1,60,2|0,0:0|0:0,0:0:0:0:
392,192,36515,1,8,0:0:0:0:
240,192,36815,2,0,L|368:192,1,120,2|8,0:0|0:0,0:0:0:0:
288,192,37265,1,0,0:0:0:0:
216,192,37415,5,2,0:0:0:0:
88,192,37715,2,0,L|88:112,1,60,8|0,0:0|0:0,0:0:0:0:
160,192,38015,2,0,L|160:128,1,60,2|0,0:0|0:0,0:0:0:0:
80,192,38315,1,8,0:0:0:0:
184,192,38465,1,0,0:0:0:0:
352,192,38615,6,0,P|440:160|456:128,3,120,2|2|2|2,0:0|0:0|0:0|0:0,0:0:0:0:
312,192,39815,5,2,0:0:0:0:
176,192,40115,1,2,0:0:0:0:
312,192,40415,1,2,0:0:0:0:
376,192,40565,1,0,0:0:0:0:
376,192,40715,1,2,0:0:0:0:
312,192,40865,1,2,0:0:0:0:
152,192,41015,6,0,P|88:176|80:128,1,120,2|2,0:0|0:0,0:0:0:0:
144,192,41465,1,2,0:0:0:0:
216,192,41615,1,2,0:0:0:0:
88,192,41915,1,2,0:0:0:0:
232,192,42215,5,2,0:0:0:0:
368,192,42515,1,2,0:0:0:0:
296,192,42665,1,0,0:0:0:0:
224,192,42815,1,2,0:0:0:0:
96,192,43115,1,2,0:0:0:0:
360,192,43415,6,0,L|440:192,2,60,2|2|2,0:0|0:0|0:0,0:0:0:0:
288,192,43865,1,0,0:0:0:0:
360,192,44015,2,0,P|424:176|448:120,1,120,2|2,0:0|0:0,0:0:0:0:
312,192,44615,6,0,L|184:192,1,120,2|2,0:0|0:0,0:0:0:0:
336,192,45215,2,0,L|336:72,1,120,2|2,0:0|0:0,0:0:0:0:
64,192,45815,5,2,0:0:0:0:
128,192,45965,1,2,0:0:0:0:
192,192,46115,1,8,0:0:0:0:
48,192,46415,1,2,0:0:0:0:
112,192,46565,1,2,0:0:0:0:
176,192,46715,1,8,0:0:0:0:
320,192,47015,6,0,L|192:192,1,120,2|2,0:0|0:0,0:0:0:0:
336,192,47615,1,2,0:0:0:0:
256,192,47765,1,2,0:0:0:0:
184,192,47915,1,2,0:0:0:0:
256,192,48065,1,2,0:0:0:0:
416,192,48215,5,6,0:0:0:0:
256,192,48515,12,0,50315,0:0:0:0:
256,192,50615,12,0,52715,0:0:0:0:
256,192,53015,12,0,55115,0:0:0:0:
256,192,55415,12,10,57515,0:3:0:0:
