osu file format v14

[General]
AudioFilename: audio.mp3
AudioLeadIn: 0
PreviewTime: 20417
Countdown: 0
SampleSet: Normal
StackLeniency: 0.7
Mode: 1
LetterboxInBreaks: 0
WidescreenStoryboard: 0

[Editor]
Bookmarks: 1217,10817,20417,30017,39617
DistanceSpacing: 1.5
BeatDivisor: 4
GridSize: 32
TimelineZoom: 2.6

[Metadata]
Title:press start
TitleUnicode:press start
Artist:Kola Kid
ArtistUnicode:Kola Kid
Creator:xtrem3x
Version:oni
Source:osu!
Tags:Featured Artists FA bitpop electro 8bit 8-bit breakcore bubblegumbass chiptune trap cash machine go! pixel electronic instrumental
BeatmapID:2353797
BeatmapSetID:1126522

[Difficulty]
HPDrainRate:6
CircleSize:5
OverallDifficulty:6
ApproachRate:5
SliderMultiplier:1.4
SliderTickRate:1

[Events]
//Background and Video events
0,0,"BG Free.jpg",0,-80
//Break Periods
//Storyboard Layer 0 (Background)
//Storyboard Layer 1 (Fail)
//Storyboard Layer 2 (Pass)
//Storyboard Layer 3 (Foreground)
//Storyboard Layer 4 (Overlay)
//Storyboard Sound Samples

[TimingPoints]
27,300,4,1,0,80,1,0
20427,-100,4,1,0,80,0,1
30027,-100,4,1,0,80,0,0

[HitObjects]
256,192,27,5,2,0:0:0:0:
256,192,327,1,2,0:0:0:0:
256,192,627,1,2,0:0:0:0:
256,192,927,1,2,0:0:0:0:
256,192,1227,1,2,0:0:0:0:
256,192,1377,1,0,0:0:0:0:
256,192,1527,1,0,0:0:0:0:
256,192,1677,1,2,0:0:0:0:
256,192,1977,1,0,0:0:0:0:
256,192,2127,1,2,0:0:0:0:
256,192,2427,1,2,0:0:0:0:
256,192,2577,1,0,0:0:0:0:
256,192,2727,1,0,0:0:0:0:
256,192,2877,1,2,0:0:0:0:
256,192,3177,1,0,0:0:0:0:
256,192,3327,1,2,0:0:0:0:
256,192,3627,1,2,0:0:0:0:
256,192,3777,1,0,0:0:0:0:
256,192,3927,1,0,0:0:0:0:
256,192,4077,1,2,0:0:0:0:
256,192,4377,1,0,0:0:0:0:
256,192,4527,1,2,0:0:0:0:
256,192,4827,1,2,0:0:0:0:
256,192,4977,1,0,0:0:0:0:
256,192,5127,1,2,0:0:0:0:
256,192,5277,1,0,0:0:0:0:
256,192,5427,1,2,0:0:0:0:
256,192,5727,1,2,0:0:0:0:
256,192,6027,1,2,0:0:0:0:
256,192,6177,1,0,0:0:0:0:
256,192,6327,1,0,0:0:0:0:
256,192,6477,1,2,0:0:0:0:
256,192,6777,1,0,0:0:0:0:
256,192,6927,1,2,0:0:0:0:
256,192,7227,1,2,0:0:0:0:
256,192,7377,1,0,0:0:0:0:
256,192,7527,1,0,0:0:0:0:
256,192,7677,1,2,0:0:0:0:
256,192,7977,1,0,0:0:0:0:
256,192,8127,1,2,0:0:0:0:
256,192,8427,1,2,0:0:0:0:
256,192,8577,1,0,0:0:0:0:
256,192,8727,1,0,0:0:0:0:
256,192,8877,1,2,0:0:0:0:
256,192,9177,1,0,0:0:0:0:
256,192,9327,1,2,0:0:0:0:
256,192,9477,1,2,0:0:0:0:
256,192,9777,1,2,0:0:0:0:
256,192,9927,1,0,0:0:0:0:
256,192,10227,1,2,0:0:0:0:
256,192,10377,1,0,0:0:0:0:
256,192,10527,1,2,0:0:0:0:
256,192,10677,1,0,0:0:0:0:
256,192,10827,1,8,0:0:0:0:
256,192,11127,1,8,0:0:0:0:
256,192,11277,1,8,0:0:0:0:
256,192,11427,1,0,0:0:0:0:
256,192,11577,1,0,0:0:0:0:
256,192,11727,1,8,0:0:0:0:
256,192,11802,1,0,0:0:0:0:
256,192,11877,1,8,0:0:0:0:
256,192,12027,1,8,0:0:0:0:
256,192,12327,1,0,0:0:0:0:
256,192,12477,1,0,0:0:0:0:
256,192,12627,1,8,0:0:0:0:
256,192,12777,1,8,0:0:0:0:
256,192,12852,1,0,0:0:0:0:
256,192,12927,1,8,0:0:0:0:
256,192,13077,1,8,0:0:0:0:
256,192,13227,1,8,0:0:0:0:
256,192,13527,1,0,0:0:0:0:
256,192,13602,1,8,0:0:0:0:
256,192,13677,1,0,0:0:0:0:
256,192,13827,1,0,0:0:0:0:
256,192,13977,1,0,0:0:0:0:
256,192,14127,1,8,0:0:0:0:
256,192,14202,1,0,0:0:0:0:
256,192,14277,1,8,0:0:0:0:
256,192,14427,1,8,0:0:0:0:
256,192,14727,1,8,0:0:0:0:
256,192,14877,1,0,0:0:0:0:
256,192,15027,1,8,0:0:0:0:
256,192,15177,1,0,0:0:0:0:
256,192,15252,1,0,0:0:0:0:
256,192,15327,1,8,0:0:0:0:
256,192,15627,1,8,0:0:0:0:
256,192,15777,1,0,0:0:0:0:
256,192,15927,1,8,0:0:0:0:
256,192,16077,1,8,0:0:0:0:
256,192,16227,1,0,0:0:0:0:
256,192,16302,1,8,0:0:0:0:
256,192,16377,1,0,0:0:0:0:
256,192,16527,1,8,0:0:0:0:
256,192,16827,1,8,0:0:0:0:
256,192,16977,1,8,0:0:0:0:
256,192,17127,1,8,0:0:0:0:
256,192,17277,1,0,0:0:0:0:
256,192,17427,1,0,0:0:0:0:
256,192,17577,1,8,0:0:0:0:
256,192,17652,1,0,0:0:0:0:
256,192,17727,1,8,0:0:0:0:
256,192,18027,1,8,0:0:0:0:
256,192,18177,1,0,0:0:0:0:
256,192,18327,1,0,0:0:0:0:
256,192,18402,1,8,0:0:0:0:
256,192,18477,1,0,0:0:0:0:
256,192,18627,1,8,0:0:0:0:
256,192,18777,1,0,0:0:0:0:
256,192,18927,1,8,0:0:0:0:
256,192,19227,1,0,0:0:0:0:
256,192,19377,1,8,0:0:0:0:
256,192,19527,1,8,0:0:0:0:
256,192,19827,1,0,0:0:0:0:
256,192,19977,1,0,0:0:0:0:
256,192,20052,1,8,0:0:0:0:
256,192,20127,1,0,0:0:0:0:
256,192,20427,1,8,0:0:0:0:
256,192,20502,1,0,0:0:0:0:
256,192,20577,1,0,0:0:0:0:
256,192,20727,1,8,0:0:0:0:
256,192,20877,1,0,0:0:0:0:
256,192,20952,1,0,0:0:0:0:
256,192,21027,1,8,0:0:0:0:
256,192,21177,1,8,0:0:0:0:
256,192,21477,1,0,0:0:0:0:
256,192,21552,1,8,0:0:0:0:
256,192,21627,1,0,0:0:0:0:
256,192,21777,1,0,0:0:0:0:
256,192,21927,1,8,0:0:0:0:
256,192,22077,1,0,0:0:0:0:
256,192,22227,1,8,0:0:0:0:
256,192,22302,1,0,0:0:0:0:
256,192,22377,1,8,0:0:0:0:
256,192,22677,1,0,0:0:0:0:
256,192,22752,1,8,0:0:0:0:
256,192,22827,1,0,0:0:0:0:
256,192,22977,1,8,0:0:0:0:
256,192,23127,1,8,0:0:0:0:
256,192,23202,1,0,0:0:0:0:
256,192,23277,1,0,0:0:0:0:
256,192,23427,1,0,0:0:0:0:
256,192,23577,1,8,0:0:0:0:
256,192,23877,1,0,0:0:0:0:
256,192,23952,1,8,0:0:0:0:
256,192,24027,1,0,0:0:0:0:
256,192,24177,1,0,0:0:0:0:
256,192,24327,1,8,0:0:0:0:
256,192,24477,1,8,0:0:0:0:
256,192,24552,1,0,0:0:0:0:
256,192,24627,1,8,0:0:0:0:
256,192,24777,1,8,0:0:0:0:
256,192,24927,1,0,0:0:0:0:
256,192,25227,1,8,0:0:0:0:
256,192,25302,1,0,0:0:0:0:
256,192,25377,1,0,0:0:0:0:
256,192,25527,1,8,0:0:0:0:
256,192,25677,1,0,0:0:0:0:
256,192,25752,1,0,0:0:0:0:
256,192,25827,1,8,0:0:0:0:
256,192,25977,1,8,0:0:0:0:
256,192,26277,1,0,0:0:0:0:
256,192,26352,1,0,0:0:0:0:
256,192,26427,1,8,0:0:0:0:
256,192,26577,1,0,0:0:0:0:
256,192,26727,1,8,0:0:0:0:
256,192,26877,1,0,0:0:0:0:
256,192,26952,1,0,0:0:0:0:
256,192,27027,1,8,0:0:0:0:
256,192,27177,1,8,0:0:0:0:
256,192,27477,1,0,0:0:0:0:
256,192,27552,1,0,0:0:0:0:
256,192,27627,1,0,0:0:0:0:
256,192,27777,1,0,0:0:0:0:
256,192,27927,1,8,0:0:0:0:
256,192,28077,1,0,0:0:0:0:
256,192,28152,1,0,0:0:0:0:
256,192,28227,1,8,0:0:0:0:
256,192,28377,1,8,0:0:0:0:
256,192,28677,1,0,0:0:0:0:
256,192,28752,1,0,0:0:0:0:
256,192,28827,1,0,0:0:0:0:
256,192,28977,1,8,0:0:0:0:
256,192,29127,1,0,0:0:0:0:
256,192,29277,1,0,0:0:0:0:
256,192,29352,1,0,0:0:0:0:
256,192,29427,1,8,0:0:0:0:
256,192,29577,1,8,0:0:0:0:
256,192,30027,1,2,0:0:0:0:
256,192,30177,1,0,0:0:0:0:
256,192,30327,1,0,0:0:0:0:
256,192,30477,1,2,0:0:0:0:
256,192,30777,1,0,0:0:0:0:
256,192,30927,1,2,0:0:0:0:
256,192,31227,1,2,0:0:0:0:
256,192,31377,1,0,0:0:0:0:
256,192,31527,1,0,0:0:0:0:
256,192,31677,1,2,0:0:0:0:
256,192,31977,1,0,0:0:0:0:
256,192,32127,1,2,0:0:0:0:
256,192,32427,1,2,0:0:0:0:
256,192,32577,1,0,0:0:0:0:
256,192,32727,1,0,0:0:0:0:
256,192,32877,1,2,0:0:0:0:
256,192,33177,1,0,0:0:0:0:
256,192,33327,1,2,0:0:0:0:
256,192,33627,1,2,0:0:0:0:
256,192,33777,1,0,0:0:0:0:
256,192,33927,1,2,0:0:0:0:
256,192,34077,1,0,0:0:0:0:
256,192,34227,1,2,0:0:0:0:
256,192,34527,1,2,0:0:0:0:
256,192,34827,1,2,0:0:0:0:
256,192,34977,1,0,0:0:0:0:
256,192,35127,1,0,0:0:0:0:
256,192,35277,1,2,0:0:0:0:
256,192,35577,1,0,0:0:0:0:
256,192,35727,1,2,0:0:0:0:
256,192,36027,1,2,0:0:0:0:
256,192,36177,1,0,0:0:0:0:
256,192,36327,1,0,0:0:0:0:
256,192,36477,1,2,0:0:0:0:
256,192,36777,1,0,0:0:0:0:
256,192,36927,1,2,0:0:0:0:
256,192,37227,1,2,0:0:0:0:
256,192,37377,1,0,0:0:0:0:
256,192,37527,1,0,0:0:0:0:
256,192,37677,1,2,0:0:0:0:
256,192,37977,1,0,0:0:0:0:
256,192,38127,1,2,0:0:0:0:
256,192,38277,1,2,0:0:0:0:
256,192,38577,1,0,0:0:0:0:
256,192,38727,1,2,0:0:0:0:
256,192,39027,1,2,0:0:0:0:
256,192,39177,1,0,0:0:0:0:
256,192,39327,1,0,0:0:0:0:
256,192,39477,1,2,0:0:0:0:
256,192,39627,1,0,0:0:0:0:
