osu file format v14

[General]
AudioFilename: audio.mp3
AudioLeadIn: 0
PreviewTime: 1142
Countdown: 0
SampleSet: Soft
StackLeniency: 0.7
Mode: 0
LetterboxInBreaks: 0
WidescreenStoryboard: 1

[Editor]
Bookmarks: 1217,10817,20417,30017,39617
DistanceSpacing: 1
BeatDivisor: 4
GridSize: 32
TimelineZoom: 2.4

[Metadata]
Title:press start
TitleUnicode:press start
Artist:Kola Kid
ArtistUnicode:Kola Kid
Creator:Trynna
Version:normal
Source:osu!
Tags:featured artist fa mappers' guild mpg instrumental electronic
BeatmapID:2315136
BeatmapSetID:1107725

[Difficulty]
HPDrainRate:4
CircleSize:3.5
OverallDifficulty:5
ApproachRate:6
SliderMultiplier:1.1
SliderTickRate:1

[Events]
//Background and Video events
0,0,"pixelated test.jpg",0,0
//Break Periods
//Storyboard Layer 0 (Background)
//Storyboard Layer 1 (Fail)
//Storyboard Layer 2 (Pass)
//Storyboard Layer 3 (Foreground)
//Storyboard Layer 4 (Overlay)
//Storyboard Sound Samples

[TimingPoints]
17,300,4,2,1,80,1,0
12317,-100,4,2,1,80,0,0
12767,-100,4,2,1,80,0,0
12917,-100,4,2,1,80,0,0
13517,-100,4,2,1,80,0,0
14717,-100,4,2,1,80,0,0
15167,-100,4,2,1,80,0,0
15317,-100,4,2,1,80,0,0
15617,-100,4,2,1,80,0,0
17117,-100,4,2,1,80,0,0
17567,-100,4,2,1,80,0,0
17717,-100,4,2,1,80,0,0
18317,-100,4,2,1,80,0,0
19517,-100,4,2,1,80,0,0
19967,-100,4,2,1,80,0,0
20117,-100,4,2,1,80,0,0
20417,-100,4,2,1,60,0,0
30017,-100,4,2,1,80,0,0

[Colours]
Combo1 : 107,170,245
Combo2 : 149,231,129
Combo3 : 248,223,139
Combo4 : 245,112,115

[HitObjects]
55,104,1217,6,0,P|110:103|161:82,1,110,2|2,3:2|0:2,0:0:0:0:
203,46,1667,1,0,1:0:0:0:
203,46,1817,2,0,L|201:166,1,110,2|2,0:2|1:2,0:0:0:0:
151,239,2417,2,0,L|88:248,2,55,2|2|2,3:2|0:2|0:2,0:0:0:0:
193,274,2867,2,0,L|312:292,1,110,2|2,1:2|0:2,0:0:0:0:
342,327,3317,1,2,1:2:0:0:
437,380,3617,6,0,P|457:330|440:279,1,110,2|2,3:2|0:2,0:0:0:0:
401,240,4067,2,0,P|380:190|397:139,1,110,2|2,1:2|0:2,0:0:0:0:
431,101,4517,1,2,1:2:0:0:
344,33,4817,2,0,P|292:52|238:50,1,110,2|2,3:2|0:2,0:0:0:0:
137,7,5417,2,0,L|125:123,1,110,2|2,0:2|1:2,0:0:0:0:
51,197,6017,6,0,L|-7:175,2,55,2|0|2,3:2|0:2|0:2,0:0:0:0:
126,276,6617,2,0,L|194:268,1,55,2|2,0:0|0:0,0:0:0:0:
234,296,6917,1,0,1:0:0:0:
234,296,7067,1,2,0:0:0:0:
337,259,7367,1,2,0:0:0:0:
389,244,7517,2,0,P|415:247|435:265,1,55,2|2,0:0|1:2,0:0:0:0:
466,311,7817,2,0,L|473:379,2,55,2|2|2,0:2|0:2|1:2,0:0:0:0:
491,203,8417,6,0,L|485:148,1,55,2|0,3:2|0:2,0:0:0:0:
512,99,8717,2,0,L|478:51,1,55,2|0,0:2|1:0,0:0:0:0:
467,0,9017,1,2,0:2:0:0:
364,39,9317,1,0,1:0:0:0:
318,70,9467,2,0,P|276:64|184:54,1,110,2|2,0:2|0:2,0:0:0:0:
177,101,9917,2,0,P|127:116|108:126,1,55,0|2,0:0|1:2,0:0:0:0:
105,168,10217,1,2,0:2:0:0:
187,241,10517,1,2,1:2:0:0:
110,319,10817,6,0,L|49:329,1,55,2|0,3:2|0:0,0:0:0:0:
8,298,11117,2,0,L|-2:235,1,55,2|2,0:0|1:2,0:0:0:0:
31,198,11417,1,2,0:2:0:0:
2,91,11717,1,2,1:2:0:0:
90,25,12017,2,0,L|158:32,1,55,2|2,3:2|0:2,0:0:0:0:
177,81,12317,1,2,0:0:0:0:
177,81,12467,2,0,B|232:77|216:42|283:55,1,110,2|2,1:2|0:2,0:0:0:0:
317,95,12917,1,2,1:2:0:0:
418,53,13217,6,0,L|495:47,1,55,2|2,3:2|0:2,0:0:0:0:
501,96,13517,2,0,P|488:127|485:166,1,55,2|2,0:2|1:2,0:0:0:0:
447,188,13817,2,0,P|471:244|481:309,1,110,2|2,0:2|1:2,0:0:0:0:
389,354,14417,2,0,P|340:337|330:319,1,55,2|2,3:2|0:2,0:0:0:0:
297,300,14717,2,0,P|256:309|245:325,1,55,2|0,0:2|1:0,0:0:0:0:
213,359,15017,2,0,L|138:341,2,55,2|2|2,0:2|0:2|1:2,0:0:0:0:
190,251,15617,6,0,L|202:180,1,55,2|0,3:2|0:2,0:0:0:0:
242,162,15917,2,0,L|231:99,1,55,2|2,0:2|1:2,0:0:0:0:
200,62,16217,2,0,B|138:58|154:90|95:85,1,110,2|2,0:2|1:2,0:0:0:0:
53,187,16817,2,0,L|67:261,1,55,2|2,3:2|0:2,0:0:0:0:
103,278,17117,1,2,0:2:0:0:
103,278,17267,2,0,P|147:278|196:346,1,110,0|2,1:0|0:2,0:0:0:0:
196,377,17717,1,2,1:2:0:0:
302,348,18017,6,0,P|331:363|375:368,1,55,2|0,3:2|0:2,0:0:0:0:
401,342,18317,2,0,P|430:327|474:322,1,55,2|2,0:2|1:2,0:0:0:0:
501,344,18617,1,2,0:2:0:0:
508,234,18917,1,2,1:2:0:0:
440,147,19217,2,0,L|429:93,1,55,2|2,3:2|0:2,0:0:0:0:
378,71,19517,2,0,L|306:80,1,55,2|0,0:2|1:0,0:0:0:0:
284,116,19817,2,0,L|296:176,2,55,2|2|2,0:2|0:2|1:3,0:0:0:0:
200,44,20417,6,0,L|143:62,1,55,0|0,3:0|3:0,0:0:0:0:
96,38,20717,1,2,0:0:0:0:
51,138,21017,2,0,P|24:145|-1:154,2,55,0|2|0,3:0|3:2|1:0,0:0:0:0:
95,171,21467,1,0,0:0:0:0:
95,171,21617,2,0,L|87:231,1,55,0|0,3:0|3:0,0:0:0:0:
116,272,21917,1,2,0:0:0:0:
209,330,22217,2,0,L|265:338,1,55,0|2,3:0|3:2,0:0:0:0:
308,305,22517,2,0,L|379:317,1,55,0|0,1:0|3:0,0:0:0:0:
402,352,22817,6,0,P|439:329|471:326,1,55,0|0,3:0|0:0,0:0:0:0:
504,330,23117,1,2,3:2:0:0:
457,230,23417,2,0,L|389:221,2,55,0|2|0,3:0|3:2|1:0,0:0:0:0:
494,189,23867,1,0,0:0:0:0:
494,189,24017,2,0,L|496:128,1,55,0|0,3:0|3:0,0:0:0:0:
458,93,24317,1,2,0:2:0:0:
386,9,24617,2,0,L|320:17,1,55,0|2,3:0|3:2,0:0:0:0:
292,54,24917,2,0,L|226:62,1,55,0|0,1:0|3:0,0:0:0:0:
212,109,25217,6,0,P|203:134|219:155,1,55,0|0,3:0|3:0,0:0:0:0:
262,190,25517,1,2,0:0:0:0:
277,298,25817,2,0,P|250:289|223:289,1,55,0|2,3:0|0:0,0:0:0:0:
182,326,26117,2,0,P|155:334|128:334,1,55,0|0,1:0|3:0,0:0:0:0:
82,303,26417,2,0,L|82:241,2,55,0|0|2,3:0|3:0|3:2,0:0:0:0:
163,229,27017,2,0,P|152:182|129:173,1,55,0|2,3:0|3:2,0:0:0:0:
121,132,27317,2,0,L|49:142,1,55,0|0,1:0|3:0,0:0:0:0:
22,106,27617,6,0,P|27:65|52:47,1,55,0|0,3:0|3:0,0:0:0:0:
84,29,27917,1,2,0:0:0:0:
189,60,28217,2,0,L|199:6,2,55,0|2|0,3:0|3:2|1:0,0:0:0:0:
228,98,28667,1,0,0:0:0:0:
228,98,28817,2,0,P|254:87|281:83,1,55,0|0,3:0|3:0,0:0:0:0:
328,110,29117,1,2,3:2:0:0:
440,113,29417,2,0,P|437:140|423:164,1,55,0|2,3:0|3:2,0:0:0:0:
386,205,29717,2,0,P|389:232|403:255,1,55,2|2,1:2|0:2,0:0:0:0:
441,295,30017,6,0,P|376:304|326:334,1,110,2|2,3:2|0:2,0:0:0:0:
293,357,30467,1,0,1:0:0:0:
293,357,30617,2,0,P|251:349|249:283,1,110,2|2,0:2|1:2,0:0:0:0:
279,185,31217,2,0,L|262:120,1,55,2|2,3:2|0:2,0:0:0:0:
280,78,31517,1,2,0:2:0:0:
280,78,31667,2,0,B|238:79|238:79|215:68|215:68|172:70,1,110,2|2,1:2|0:2,0:0:0:0:
125,40,32117,1,2,1:2:0:0:
42,112,32417,6,0,P|29:152|61:224,1,110,2|2,3:2|0:2,0:0:0:0:
93,248,32867,1,2,1:2:0:0:
176,320,33167,2,0,L|170:378,2,55,2|2|2,0:2|1:2|0:2,0:0:0:0:
216,282,33617,2,0,L|230:161,1,110,2|2,3:2|0:2,0:0:0:0:
192,68,34217,2,0,P|244:56|294:77,1,110,2|2,0:2|1:2,0:0:0:0:
384,141,34817,6,0,P|430:128|440:120,2,55,2|0|2,3:2|0:2|0:2,0:0:0:0:
310,222,35417,2,0,L|319:281,1,55,2|2,0:0|0:0,0:0:0:0:
301,328,35717,1,0,1:0:0:0:
301,328,35867,1,2,0:0:0:0:
406,358,36167,1,2,0:0:0:0:
445,320,36317,2,0,P|453:289|438:251,1,55,2|2,0:0|1:2,0:0:0:0:
415,222,36617,2,0,P|407:195|411:169,2,55,2|2|2,0:2|0:2|1:2,0:0:0:0:
488,140,37217,6,0,P|454:97|401:87,1,110,2|2,3:2|0:2,0:0:0:0:
308,27,37817,2,0,P|280:32|253:35,1,55,2|0,0:2|0:0,0:0:0:0:
219,79,38117,1,0,1:0:0:0:
219,79,38267,2,0,P|167:64|91:52,1,110,2|2,0:2|0:2,0:0:0:0:
64,81,38717,2,0,L|71:142,1,55,0|2,0:0|1:2,0:0:0:0:
47,185,39017,1,2,0:2:0:0:
126,261,39317,2,0,L|111:320,1,55,2|0,1:2|0:0,0:0:0:0:
132,365,39617,1,0,0:0:0:0:
