osu file format v14

[General]
AudioFilename: audio.mp3
AudioLeadIn: 0
PreviewTime: 1142
Countdown: 0
SampleSet: Soft
StackLeniency: 0.7
Mode: 0
LetterboxInBreaks: 0
WidescreenStoryboard: 1

[Editor]
Bookmarks: 1217,10817,20417,30017,39617
DistanceSpacing: 0.8
BeatDivisor: 4
GridSize: 32
TimelineZoom: 2.4

[Metadata]
Title:press start
TitleUnicode:press start
Artist:Kola Kid
ArtistUnicode:Kola Kid
Creator:Trynna
Version:insane
Source:osu!
Tags:featured artist fa mappers' guild mpg instrumental electronic
BeatmapID:2315134
BeatmapSetID:1107725

[Difficulty]
HPDrainRate:6
CircleSize:4
OverallDifficulty:8
ApproachRate:9
SliderMultiplier:1.7
SliderTickRate:1

[Events]
//Background and Video events
0,0,"pixelated test.jpg",0,0
//Break Periods
//Storyboard Layer 0 (Background)
//Storyboard Layer 1 (Fail)
//Storyboard Layer 2 (Pass)
//Storyboard Layer 3 (Foreground)
//Storyboard Layer 4 (Overlay)
//Storyboard Sound Samples

[TimingPoints]
17,300,4,2,1,80,1,0
12317,-66.6666666666667,4,2,1,80,0,0
12767,-100,4,2,1,80,0,0
12917,-83.3333333333333,4,2,1,80,0,0
13517,-100,4,2,1,80,0,0
14717,-83.3333333333333,4,2,1,80,0,0
15167,-100,4,2,1,80,0,0
15317,-83.3333333333333,4,2,1,80,0,0
15617,-100,4,2,1,80,0,0
17117,-83.3333333333333,4,2,1,80,0,0
17567,-100,4,2,1,80,0,0
17717,-83.3333333333333,4,2,1,80,0,0
18317,-100,4,2,1,80,0,0
19517,-66.6666666666667,4,2,1,80,0,0
19967,-100,4,2,1,80,0,0
20117,-83.3333333333333,4,2,1,80,0,0
20417,-100,4,2,1,60,0,0
30017,-100,4,2,1,80,0,0

[Colours]
Combo1 : 107,170,245
Combo2 : 149,231,129
Combo3 : 248,223,139
Combo4 : 245,112,115

[HitObjects]
88,31,17,5,2,0:0:0:0:
141,119,317,1,2,0:0:0:0:
71,246,617,1,2,0:0:0:0:
18,158,917,1,2,0:0:0:0:
181,222,1217,6,0,L|280:208,1,85,2|2,3:2|0:2,0:0:0:0:
355,252,1517,1,2,0:2:0:0:
342,140,1667,1,0,1:0:0:0:
442,277,1817,2,0,P|419:317|380:336,1,85,2|2,0:2|0:2,0:0:0:0:
295,375,2117,2,0,P|272:335|233:316,1,85,2|0,1:2|0:0,0:0:0:0:
113,363,2417,5,2,3:2:0:0:
158,288,2567,1,2,0:2:0:0:
108,213,2717,1,2,0:2:0:0:
226,234,2867,5,2,1:2:0:0:
181,159,3017,1,0,0:0:0:0:
231,84,3167,1,2,0:2:0:0:
115,95,3317,5,2,1:2:0:0:
237,0,3617,5,2,3:2:0:0:
320,56,3767,2,0,P|367:63|396:102,1,85,2|2,0:2|0:2,0:0:0:0:
502,50,4067,2,0,P|476:109|464:171,1,127.5,2|0,1:2|0:0,0:0:0:0:
474,197,4367,1,2,0:2:0:0:
379,265,4517,1,2,1:2:0:0:
479,329,4667,1,2,0:2:0:0:
356,267,4817,5,2,3:2:0:0:
276,315,4967,1,0,0:0:0:0:
379,265,5117,5,2,0:2:0:0:
285,209,5267,1,0,1:0:0:0:
399,263,5417,5,2,0:2:0:0:
377,159,5567,1,0,0:0:0:0:
418,262,5717,5,2,1:2:0:0:
342,34,6017,5,2,3:2:0:0:
449,64,6167,1,0,0:2:0:0:
326,54,6317,2,0,P|278:46|240:33,1,85,2|0,0:2|1:0,0:0:0:0:
81,112,6617,1,2,0:0:0:0:
129,38,6767,2,0,P|161:64|170:105,1,85,2|0,0:0|1:0,0:0:0:0:
270,176,7067,2,0,P|207:189|150:216,1,127.5,2|0,0:0|0:0,0:0:0:0:
137,249,7367,1,2,0:0:0:0:
301,195,7517,5,2,0:0:0:0:
384,241,7667,1,2,1:2:0:0:
368,339,7817,1,2,0:2:0:0:
275,348,7967,1,2,0:2:0:0:
234,264,8117,1,2,1:2:0:0:
314,279,8267,1,0,0:0:0:0:
376,152,8417,6,0,L|361:62,1,85,2|0,3:2|0:2,0:0:0:0:
460,205,8717,2,0,L|475:115,1,85,2|0,0:2|1:0,0:0:0:0:
375,44,9017,1,2,0:2:0:0:
278,93,9167,2,0,P|236:86|203:60,1,85,0|0,0:0|1:0,0:0:0:0:
46,21,9467,6,0,P|117:57|102:135,1,170,2|2,0:2|0:2,0:0:0:0:
135,231,9917,1,0,0:0:0:0:
57,285,10067,1,2,1:2:0:0:
135,362,10217,2,0,L|231:348,1,85,2|0,0:0|0:0,0:0:0:0:
311,374,10517,2,0,P|353:373|391:355,1,85,2|0,1:2|0:0,0:0:0:0:
501,355,10817,5,2,3:2:0:0:
454,277,10967,1,0,0:0:0:0:
509,201,11117,2,0,L|494:88,1,85,2|2,0:0|1:2,0:0:0:0:
480,28,11417,2,0,B|403:31|441:76|368:77,1,127.5,2|0,0:2|0:0,0:0:0:0:
347,102,11717,2,0,L|291:92,2,42.5,2|2|2,1:2|0:2|0:2,0:0:0:0:
132,48,12017,5,2,3:2:0:0:
216,2,12167,1,2,0:2:0:0:
231,143,12317,1,2,0:0:0:0:
147,189,12467,1,2,1:2:0:0:
74,122,12617,5,0,0:0:0:0:
231,143,12767,1,2,0:2:0:0:
135,283,12917,2,0,L|123:388,1,101.999996887207,2|0,1:2|0:0,0:0:0:0:
254,252,13217,5,2,3:2:0:0:
335,309,13367,1,2,0:2:0:0:
429,271,13517,1,2,0:2:0:0:
429,271,13592,1,2,0:2:0:0:
429,271,13667,1,2,1:2:0:0:
437,163,13817,2,0,P|408:108|320:84,1,127.5,2|0,0:2|0:0,0:0:0:0:
326,95,14117,2,0,L|277:85,2,42.5,2|2|2,1:2|0:2|0:2,0:0:0:0:
482,43,14417,5,2,3:2:0:0:
453,135,14567,1,2,0:2:0:0:
491,229,14717,2,0,L|469:328,1,101.999996887207,2|0,0:2|1:0,0:0:0:0:
372,364,15017,1,2,0:2:0:0:
301,294,15167,1,2,0:2:0:0:
205,363,15317,2,0,P|160:325|106:338,1,101.999996887207,2|0,1:2|0:0,0:0:0:0:
191,218,15617,6,0,L|309:205,1,85,2|0,3:2|0:2,0:0:0:0:
318,124,15917,1,2,0:2:0:0:
222,129,16067,1,2,1:2:0:0:
123,143,16217,2,0,P|119:91|201:41,1,127.5,2|0,0:2|0:0,0:0:0:0:
193,18,16517,2,0,L|267:25,2,42.5,2|2|2,1:2|0:2|0:2,0:0:0:0:
40,25,16817,5,2,3:2:0:0:
13,111,16967,1,2,0:2:0:0:
57,197,17117,1,2,0:2:0:0:
31,278,17267,1,0,1:0:0:0:
121,262,17417,2,0,L|220:282,1,101.999996887207,2|2,0:2|0:2,0:0:0:0:
308,257,17717,2,0,P|317:305|287:345,1,101.999996887207,2|0,1:2|0:0,0:0:0:0:
450,372,18017,6,0,L|433:263,1,101.999996887207,2|0,3:2|0:2,0:0:0:0:
480,191,18317,1,2,0:2:0:0:
480,191,18392,1,2,0:2:0:0:
480,191,18467,1,2,1:2:0:0:
417,100,18617,2,0,B|345:99|369:140|299:140,1,127.5,2|0,0:2|0:0,0:0:0:0:
279,163,18917,2,0,L|286:214,2,42.5,2|2|2,1:2|0:2|0:2,0:0:0:0:
167,11,19217,5,2,3:2:0:0:
69,24,19367,1,2,0:2:0:0:
82,125,19517,1,2,0:2:0:0:
180,112,19667,1,0,1:0:0:0:
165,213,19817,2,0,L|149:351,1,127.500004863739,2|2,0:2|0:2,0:0:0:0:
266,361,20117,6,0,B|312:329|312:329|357:363|404:360,1,152.999995330811,2|0,1:3|0:0,0:0:0:0:
433,371,20417,5,0,3:0:0:0:
433,371,20492,1,0,3:0:0:0:
433,371,20567,1,0,3:0:0:0:
389,270,20717,1,2,0:0:0:0:
441,172,20867,2,0,L|464:207,1,42.5,0|0,1:0|0:0,0:0:0:0:
437,131,21017,2,0,L|456:92,1,42.5,0|0,3:0|3:0,0:0:0:0:
401,154,21167,2,0,L|358:157,1,42.5,2|0,3:2|3:0,0:0:0:0:
298,210,21317,2,0,P|255:176|193:186,1,85,0|0,1:0|0:0,0:0:0:0:
152,261,21617,6,0,L|106:270,1,42.5,0|0,3:0|3:0,0:0:0:0:
92,288,21767,1,0,3:0:0:0:
51,183,21917,2,0,P|38:142|40:100,1,85,2|0,0:0|1:0,0:0:0:0:
63,74,22142,1,0,0:0:0:0:
63,74,22217,2,0,L|105:67,1,42.5,0|0,3:0|3:0,0:0:0:0:
129,50,22367,2,0,L|171:56,1,42.5,2|0,3:2|3:0,0:0:0:0:
192,81,22517,1,0,1:0:0:0:
291,38,22667,5,0,3:0:0:0:
291,38,22742,1,0,3:0:0:0:
291,38,22817,1,0,3:0:0:0:
291,38,22892,2,0,L|403:45,1,85,0|0,3:0|1:0,0:0:0:0:
395,63,23117,1,2,3:2:0:0:
465,140,23267,1,0,1:0:0:0:
434,154,23342,1,0,3:0:0:0:
415,182,23417,2,0,L|428:232,1,42.5,0|0,3:0|3:0,0:0:0:0:
326,145,23567,1,2,3:2:0:0:
241,193,23717,2,0,L|210:182,4,21.25,0|0|0|0|0,1:0|0:0|0:0|0:0|0:0,0:0:0:0:
323,269,24017,5,0,3:0:0:0:
323,269,24092,1,0,3:0:0:0:
323,269,24167,1,0,3:0:0:0:
247,339,24317,2,0,P|200:346|164:357,1,85,2|0,0:2|1:0,0:0:0:0:
139,338,24542,1,0,3:0:0:0:
139,338,24617,2,0,P|102:317|77:315,1,42.5,0|0,3:0|3:0,0:0:0:0:
70,319,24767,1,2,3:2:0:0:
101,235,24917,2,0,P|96:192|103:129,1,85,0|0,1:0|3:0,0:0:0:0:
30,78,25217,6,0,P|40:59|45:39,2,42.5,0|0|0,3:0|3:0|3:0,0:0:0:0:
131,75,25517,2,0,P|169:97|181:144,1,85,2|0,0:0|1:0,0:0:0:0:
204,149,25742,1,0,3:0:0:0:
204,149,25817,2,0,L|264:140,1,42.5,0|0,3:0|0:0,0:0:0:0:
309,90,25967,1,2,0:0:0:0:
441,137,26117,1,0,1:0:0:0:
441,137,26192,1,0,3:0:0:0:
441,137,26267,1,0,3:0:0:0:
512,77,26417,5,0,3:0:0:0:
417,42,26567,1,0,3:0:0:0:
441,137,26717,2,0,L|458:220,1,85,2|0,3:2|1:0,0:0:0:0:
446,246,26942,1,0,3:0:0:0:
444,247,27017,2,0,L|380:241,1,42.5,0|0,3:0|3:0,0:0:0:0:
375,270,27167,2,0,L|332:273,1,42.5,2|0,3:2|3:0,0:0:0:0:
308,301,27317,1,0,1:0:0:0:
208,233,27467,1,0,3:0:0:0:
135,324,27617,6,0,L|140:369,2,42.5,0|0|0,3:0|3:0|3:0,0:0:0:0:
111,303,27842,1,0,0:0:0:0:
111,303,27917,2,0,P|108:245|98:207,1,85,2|0,0:0|1:0,0:0:0:0:
76,195,28142,1,0,3:0:0:0:
69,161,28217,1,0,3:0:0:0:
79,128,28292,1,0,3:0:0:0:
108,111,28367,1,2,3:2:0:0:
141,114,28442,1,0,3:0:0:0:
141,114,28517,2,0,P|215:103|241:93,1,85,0|0,1:0|0:0,0:0:0:0:
319,29,28817,5,0,3:0:0:0:
319,29,28892,1,0,3:0:0:0:
319,29,28967,2,0,L|324:80,1,42.5,0|0,3:0|3:0,0:0:0:0:
413,112,29117,2,0,L|401:174,2,42.5,2|0|0,3:2|3:0|1:0,0:0:0:0:
498,81,29417,5,0,3:0:0:0:
469,212,29567,1,2,3:2:0:0:
506,303,29717,1,2,1:2:0:0:
348,265,29867,1,2,0:2:0:0:
259,300,30017,6,0,P|210:307|181:339,1,85,2|2,3:2|0:2,0:0:0:0:
33,337,30317,2,0,P|64:364|106:367,1,85,2|0,0:2|1:0,0:0:0:0:
162,235,30617,1,2,0:2:0:0:
99,287,30767,1,2,0:2:0:0:
117,159,30917,2,0,L|136:54,1,85,2|0,1:2|0:0,0:0:0:0:
240,24,31217,5,2,3:2:0:0:
311,76,31367,1,2,0:2:0:0:
391,38,31517,1,2,0:2:0:0:
359,156,31667,5,2,1:2:0:0:
437,117,31817,1,0,0:0:0:0:
510,168,31967,1,2,0:2:0:0:
429,218,32117,5,2,1:2:0:0:
496,355,32417,5,2,3:2:0:0:
405,319,32567,2,0,P|362:321|321:332,1,85,2|2,0:2|0:2,0:0:0:0:
218,368,32867,2,0,P|228:313|199:233,1,127.5,2|0,1:2|0:0,0:0:0:0:
196,223,33167,1,2,0:2:0:0:
134,305,33317,2,0,P|99:268|63:256,1,85,2|2,1:2|0:2,0:0:0:0:
22,175,33617,5,2,3:2:0:0:
113,125,33767,1,0,0:0:0:0:
43,58,33917,5,2,0:2:0:0:
131,111,34067,1,0,1:0:0:0:
149,0,34217,5,2,0:2:0:0:
147,102,34367,1,0,0:0:0:0:
248,47,34517,5,2,1:2:0:0:
289,232,34817,6,0,L|271:315,1,85,2|0,3:2|0:2,0:0:0:0:
349,367,35117,2,0,P|378:337|467:332,1,127.5,2|0,0:2|0:0,0:0:0:0:
479,343,35417,1,2,0:0:0:0:
461,247,35567,2,0,P|470:206|472:161,1,85,2|0,0:0|1:0,0:0:0:0:
479,70,35867,6,0,B|384:62|419:125|319:110,1,170,2|2,0:0|0:0,0:0:0:0:
232,25,36317,5,2,0:0:0:0:
149,71,36467,1,2,1:2:0:0:
165,169,36617,1,2,0:2:0:0:
258,178,36767,1,2,0:2:0:0:
299,94,36917,1,2,1:2:0:0:
219,109,37067,1,0,0:0:0:0:
248,260,37217,6,0,L|262:349,1,85,2|0,3:2|0:2,0:0:0:0:
156,296,37517,2,0,L|142:385,1,85,2|0,0:2|1:0,0:0:0:0:
47,321,37817,1,2,0:2:0:0:
74,228,37967,2,0,P|67:184|39:139,1,85,0|0,0:0|1:0,0:0:0:0:
104,64,38267,6,0,P|179:100|261:87,1,170,2|2,0:2|0:2,0:0:0:0:
422,57,38717,1,0,0:0:0:0:
333,12,38867,1,2,1:2:0:0:
355,141,39017,2,0,L|346:234,1,85,2|0,0:0|0:0,0:0:0:0:
445,183,39317,2,0,L|436:276,1,85,2|0,1:2|0:0,0:0:0:0:
339,326,39617,5,2,1:2:0:0:
