osu file format v14

[General]
AudioFilename: audio.mp3
AudioLeadIn: 0
PreviewTime: 1142
Countdown: 0
SampleSet: Soft
StackLeniency: 0.7
Mode: 0
LetterboxInBreaks: 0
WidescreenStoryboard: 1

[Editor]
Bookmarks: 1217,10817,20417,30017,39617
DistanceSpacing: 1.2
BeatDivisor: 4
GridSize: 32
TimelineZoom: 2.4

[Metadata]
Title:press start
TitleUnicode:press start
Artist:Kola Kid
ArtistUnicode:Kola Kid
Creator:Trynna
Version:hard
Source:osu!
Tags:featured artist fa mappers' guild mpg instrumental electronic
BeatmapID:2315133
BeatmapSetID:1107725

[Difficulty]
HPDrainRate:5
CircleSize:3.8
OverallDifficulty:7
ApproachRate:8
SliderMultiplier:1.5
SliderTickRate:1

[Events]
//Background and Video events
0,0,"pixelated test.jpg",0,0
//Break Periods
//Storyboard Layer 0 (Background)
//Storyboard Layer 1 (Fail)
//Storyboard Layer 2 (Pass)
//Storyboard Layer 3 (Foreground)
//Storyboard Layer 4 (Overlay)
//Storyboard Sound Samples

[TimingPoints]
17,300,4,2,1,80,1,0
12317,-100,4,2,1,80,0,0
12767,-100,4,2,1,80,0,0
12917,-100,4,2,1,80,0,0
13517,-100,4,2,1,80,0,0
14717,-100,4,2,1,80,0,0
15167,-100,4,2,1,80,0,0
15317,-100,4,2,1,80,0,0
15617,-100,4,2,1,80,0,0
17117,-100,4,2,1,80,0,0
17567,-100,4,2,1,80,0,0
17717,-100,4,2,1,80,0,0
18317,-100,4,2,1,80,0,0
19517,-100,4,2,1,80,0,0
19967,-100,4,2,1,80,0,0
20117,-100,4,2,1,80,0,0
20417,-100,4,2,1,60,0,0
30017,-100,4,2,1,80,0,0

[Colours]
Combo1 : 107,170,245
Combo2 : 149,231,129
Combo3 : 248,223,139
Combo4 : 245,112,115

[HitObjects]
90,62,17,5,2,0:0:0:0:
94,81,317,1,2,0:0:0:0:
98,100,617,1,2,0:0:0:0:
102,119,917,1,2,0:0:0:0:
237,50,1217,6,0,L|227:132,1,75,2|2,3:2|0:2,0:0:0:0:
267,205,1517,1,2,0:2:0:0:
350,172,1667,1,0,1:0:0:0:
338,261,1817,2,0,L|365:337,1,75,2|2,0:2|0:2,0:0:0:0:
453,341,2117,2,0,P|479:310|472:263,1,75,2|0,1:2|0:0,0:0:0:0:
437,197,2417,6,0,L|452:120,2,75,2|2|2,3:2|0:2|0:2,0:0:0:0:
350,172,2867,2,0,P|312:172|277:184,1,75,2|0,1:2|0:0,0:0:0:0:
212,247,3167,1,2,0:2:0:0:
189,159,3317,2,0,L|162:33,1,112.5,2|0,1:2|0:0,0:0:0:0:
176,31,3617,5,2,3:2:0:0:
86,30,3767,2,0,P|47:59|49:91,1,75,2|2,0:2|0:2,0:0:0:0:
1,160,4067,2,0,P|56:164|116:231,1,150,2|2,1:2|0:2,0:0:0:0:
84,316,4517,1,2,1:2:0:0:
168,347,4667,1,2,0:2:0:0:
227,279,4817,6,0,P|258:309|261:344,1,75,2|0,3:2|0:0,0:0:0:0:
352,346,5117,2,0,P|362:303|391:283,1,75,2|0,0:2|1:0,0:0:0:0:
348,205,5417,2,0,P|306:217|274:202,1,75,2|0,0:2|0:0,0:0:0:0:
260,116,5717,2,0,P|313:101|367:116,1,112.5,2|0,1:2|0:0,0:0:0:0:
391,129,6017,5,2,3:2:0:0:
474,94,6167,1,0,0:2:0:0:
409,30,6317,2,0,P|371:18|335:14,1,75,2|0,0:2|1:0,0:0:0:0:
247,31,6617,1,2,0:0:0:0:
247,31,6767,2,0,P|209:43|173:46,1,75,2|0,0:0|1:0,0:0:0:0:
87,21,7067,2,0,P|146:53|153:139,1,150,2|2,0:0|0:0,0:0:0:0:
170,219,7517,5,2,0:0:0:0:
122,295,7667,1,2,1:2:0:0:
42,253,7817,1,2,0:2:0:0:
87,175,7967,1,2,0:2:0:0:
170,219,8117,2,0,L|272:205,1,75,2|0,1:2|0:0,0:0:0:0:
326,245,8417,6,0,B|362:248|362:248|400:234,1,75,2|0,3:2|0:2,0:0:0:0:
388,145,8717,2,0,B|352:142|352:142|313:155,1,75,2|0,0:2|1:0,0:0:0:0:
466,187,9017,2,0,P|480:116|427:68,1,150,2|0,0:2|1:0,0:0:0:0:
362,4,9467,6,0,L|279:9,1,75,2|0,0:2|3:0,0:0:0:0:
230,78,9767,2,0,L|155:73,1,75,2|0,0:2|0:0,0:0:0:0:
77,28,10067,1,2,1:2:0:0:
77,28,10217,1,2,0:2:0:0:
81,117,10367,1,0,0:0:0:0:
85,206,10517,2,0,L|69:338,1,112.5,2|0,1:2|0:0,0:0:0:0:
90,338,10817,6,0,L|187:325,1,75,2|0,3:2|0:0,0:0:0:0:
233,270,11117,1,2,0:0:0:0:
299,330,11267,1,2,1:2:0:0:
313,240,11417,2,0,P|272:182|200:185,1,150,2|2,0:2|1:2,0:0:0:0:
61,71,12017,5,2,3:2:0:0:
144,37,12167,1,2,0:2:0:0:
227,71,12317,2,0,L|301:77,1,75,2|2,0:0|1:2,0:0:0:0:
387,48,12617,1,0,0:0:0:0:
375,137,12767,1,2,0:2:0:0:
449,187,12917,2,0,B|451:232|451:232|440:256|440:256|440:297,1,112.5,2|0,1:2|0:0,0:0:0:0:
464,321,13217,6,0,L|384:329,1,75,2|2,3:2|0:2,0:0:0:0:
313,279,13517,2,0,L|275:273,1,37.5,2|2,0:2|0:2,0:0:0:0:
251,289,13667,1,2,1:2:0:0:
167,317,13817,2,0,P|162:244|219:200,1,150,2|2,0:2|1:2,0:0:0:0:
366,97,14417,5,2,3:2:0:0:
439,44,14567,1,2,0:2:0:0:
357,6,14717,2,0,P|316:19|269:22,1,75,2|0,0:2|1:0,0:0:0:0:
219,86,15017,1,2,0:2:0:0:
182,3,15167,1,2,0:2:0:0:
194,96,15317,2,0,L|207:214,1,112.5,2|0,1:2|0:0,0:0:0:0:
189,230,15617,6,0,P|145:238|117:258,1,75,2|0,3:2|0:2,0:0:0:0:
144,341,15917,1,2,0:2:0:0:
230,316,16067,1,2,1:2:0:0:
314,285,16217,2,0,B|395:275|373:335|452:324,1,150,2|2,0:2|1:2,0:0:0:0:
494,149,16817,5,2,3:2:0:0:
480,60,16967,1,2,0:2:0:0:
406,112,17117,2,0,L|329:122,1,75,2|0,0:2|1:0,0:0:0:0:
260,65,17417,1,2,0:2:0:0:
342,29,17567,1,2,0:2:0:0:
331,121,17717,2,0,B|327:163|327:163|332:187|332:187|326:233,1,112.5,2|0,1:2|0:0,0:0:0:0:
341,259,18017,6,0,L|243:279,1,75,2|0,3:2|0:2,0:0:0:0:
182,306,18317,2,0,L|177:251,1,37.5,2|2,0:2|0:2,0:0:0:0:
160,246,18467,1,2,1:2:0:0:
102,176,18617,2,0,B|77:131|77:131|97:29,1,150,2|2,0:2|1:2,0:0:0:0:
255,118,19217,5,2,3:2:0:0:
343,99,19367,1,2,0:2:0:0:
430,78,19517,2,0,L|508:92,1,75,2|0,0:2|1:0,0:0:0:0:
405,168,19817,1,2,0:2:0:0:
440,250,19967,1,2,0:2:0:0:
386,322,20117,2,0,P|326:333|298:312,1,75,2|0,1:3|0:0,0:0:0:0:
253,262,20417,6,0,L|262:219,2,37.5,0|0|0,3:0|3:0|3:0,0:0:0:0:
175,305,20717,2,0,L|89:314,1,75,2|0,0:0|1:0,0:0:0:0:
82,339,20942,1,0,0:0:0:0:
83,337,21017,2,0,L|86:374,2,37.5,0|0|2,3:0|3:0|3:2,0:0:0:0:
61,249,21317,1,0,1:0:0:0:
143,212,21467,1,0,0:0:0:0:
72,155,21617,6,0,L|60:80,1,75,0|0,3:0|3:0,0:0:0:0:
130,23,21917,1,2,0:0:0:0:
201,77,22067,2,0,L|199:114,1,37.5,0|0,1:0|0:0,0:0:0:0:
224,132,22217,2,0,L|330:115,1,75,0|2,3:0|3:2,0:0:0:0:
364,59,22517,1,0,1:0:0:0:
381,147,22667,1,0,3:0:0:0:
457,99,22817,6,0,P|472:132|469:169,1,75,0|0,3:0|0:0,0:0:0:0:
480,259,23117,2,0,L|394:248,1,75,2|0,3:2|1:0,0:0:0:0:
339,310,23417,2,0,L|335:358,2,37.5,0|0|2,3:0|3:0|3:2,0:0:0:0:
267,252,23717,2,0,L|253:178,1,75,0|0,1:0|0:0,0:0:0:0:
298,104,24017,5,0,3:0:0:0:
298,104,24092,1,0,3:0:0:0:
298,104,24167,1,0,3:0:0:0:
207,105,24317,2,0,P|175:144|173:177,1,75,2|0,0:2|1:0,0:0:0:0:
149,192,24542,1,0,3:0:0:0:
149,192,24617,2,0,L|103:199,2,37.5,0|0|2,3:0|3:0|3:2,0:0:0:0:
160,281,24917,2,0,L|74:296,1,75,0|0,1:0|3:0,0:0:0:0:
30,223,25217,5,0,3:0:0:0:
56,137,25367,1,0,3:0:0:0:
24,51,25517,2,0,P|59:42|94:55,1,75,2|0,0:0|1:0,0:0:0:0:
178,88,25817,1,0,3:0:0:0:
262,57,25967,1,2,0:0:0:0:
347,28,26117,2,0,L|402:37,2,37.5,0|0|0,1:0|3:0|3:0,0:0:0:0:
329,116,26417,6,0,L|353:197,1,75,0|0,3:0|3:0,0:0:0:0:
440,191,26717,2,0,L|416:272,1,75,2|0,3:2|1:0,0:0:0:0:
431,295,26942,1,0,3:0:0:0:
431,295,27017,2,0,L|476:308,2,37.5,0|0|2,3:0|3:0|3:2,0:0:0:0:
346,326,27317,2,0,P|301:338|276:370,1,75,0|0,1:0|3:0,0:0:0:0:
200,319,27617,6,0,L|191:270,1,37.5,0|0,3:0|3:0,0:0:0:0:
176,267,27767,1,0,3:0:0:0:
251,217,27917,2,0,L|246:129,1,75,2|0,0:0|1:0,0:0:0:0:
268,122,28142,1,0,3:0:0:0:
268,122,28217,2,0,L|267:84,2,37.5,0|0|2,3:0|3:0|3:2,0:0:0:0:
341,174,28517,1,0,1:0:0:0:
422,136,28667,1,0,0:0:0:0:
405,47,28817,6,0,L|330:36,1,75,0|0,3:0|3:0,0:0:0:0:
245,5,29117,1,2,3:2:0:0:
174,61,29267,2,0,L|124:67,1,37.5,0|0,1:0|0:0,0:0:0:0:
109,50,29417,1,0,3:0:0:0:
46,114,29567,1,2,3:2:0:0:
94,189,29717,2,0,L|85:264,1,75,2|2,1:2|0:2,0:0:0:0:
153,321,30017,6,0,P|193:295|238:301,1,75,2|2,3:2|0:2,0:0:0:0:
300,254,30317,2,0,P|340:280|385:274,1,75,2|0,0:2|1:0,0:0:0:0:
434,340,30617,1,2,0:2:0:0:
454,252,30767,1,2,0:2:0:0:
469,163,30917,2,0,L|446:55,1,75,2|0,1:2|0:0,0:0:0:0:
367,63,31217,6,0,P|378:28|410:10,2,75,2|2|2,3:2|0:2|0:2,0:0:0:0:
300,124,31667,2,0,L|204:135,1,75,2|0,1:2|0:0,0:0:0:0:
141,99,31967,1,2,0:2:0:0:
180,18,32117,2,0,P|224:49|233:103,1,112.5,2|0,1:2|0:0,0:0:0:0:
225,132,32417,6,0,L|239:213,1,75,2|2,3:2|0:2,0:0:0:0:
297,273,32717,1,2,0:2:0:0:
216,313,32867,2,0,P|164:298|122:298,1,75,2|0,1:2|0:0,0:0:0:0:
65,249,33167,1,2,0:2:0:0:
62,338,33317,1,2,1:2:0:0:
143,296,33467,1,2,0:2:0:0:
147,206,33617,6,0,P|122:170|81:156,1,75,2|0,3:2|0:0,0:0:0:0:
111,68,33917,2,0,P|154:64|187:35,1,75,2|0,0:2|1:0,0:0:0:0:
248,105,34217,2,0,P|229:144|237:187,1,75,2|0,0:2|0:0,0:0:0:0:
305,228,34517,2,0,P|342:216|409:162,1,112.5,2|0,1:2|0:0,0:0:0:0:
411,152,34817,6,0,L|405:73,1,75,2|0,3:2|0:2,0:0:0:0:
495,71,35117,2,0,L|500:145,1,75,2|0,0:2|1:0,0:0:0:0:
464,228,35417,1,2,0:0:0:0:
510,305,35567,1,2,0:0:0:0:
420,307,35717,1,0,1:0:0:0:
344,356,35867,2,0,P|286:309|213:312,1,150,2|2,0:0|0:0,0:0:0:0:
124,330,36317,5,2,0:0:0:0:
39,298,36467,1,2,1:2:0:0:
71,214,36617,1,2,0:2:0:0:
157,238,36767,1,2,0:2:0:0:
132,151,36917,2,0,L|153:79,1,75,2|0,1:2|0:0,0:0:0:0:
232,36,37217,6,0,P|273:58|284:107,1,75,2|0,3:2|0:2,0:0:0:0:
358,134,37517,2,0,P|399:112|410:63,1,75,2|0,0:2|1:0,0:0:0:0:
455,9,37817,2,0,P|457:83|473:156,1,150,2|0,0:2|1:0,0:0:0:0:
467,246,38267,6,0,P|428:280|389:283,1,75,2|0,0:2|3:0,0:0:0:0:
334,339,38567,2,0,P|298:327|273:300,1,75,2|0,0:2|0:0,0:0:0:0:
184,281,38867,1,2,1:2:0:0:
184,281,39017,2,0,P|199:237|251:215,1,75,2|0,0:2|0:0,0:0:0:0:
308,200,39317,2,0,P|293:156|241:134,1,75,2|0,1:2|0:0,0:0:0:0:
187,105,39617,5,2,1:2:0:0:
