osu file format v14

[General]
AudioFilename: audio.mp3
AudioLeadIn: 0
PreviewTime: 1142
Countdown: 0
SampleSet: Soft
StackLeniency: 0.7
Mode: 0
LetterboxInBreaks: 0
WidescreenStoryboard: 1

[Editor]
Bookmarks: 1217,10817,20417,30017,39617
DistanceSpacing: 1
BeatDivisor: 4
GridSize: 32
TimelineZoom: 2.4

[Metadata]
Title:press start
TitleUnicode:press start
Artist:Kola Kid
ArtistUnicode:Kola Kid
Creator:Trynna
Version:easy
Source:osu!
Tags:featured artist fa mappers' guild mpg instrumental electronic
BeatmapID:2315132
BeatmapSetID:1107725

[Difficulty]
HPDrainRate:3
CircleSize:3
OverallDifficulty:4
ApproachRate:5
SliderMultiplier:0.899999999999999
SliderTickRate:1

[Events]
//Background and Video events
0,0,"pixelated test.jpg",0,0
//Break Periods
//Storyboard Layer 0 (Background)
//Storyboard Layer 1 (Fail)
//Storyboard Layer 2 (Pass)
//Storyboard Layer 3 (Foreground)
//Storyboard Layer 4 (Overlay)
//Storyboard Sound Samples

[TimingPoints]
17,300,4,2,1,80,1,0
12317,-100,4,2,1,80,0,0
12767,-100,4,2,1,80,0,0
12917,-100,4,2,1,80,0,0
13517,-100,4,2,1,80,0,0
14717,-100,4,2,1,80,0,0
15167,-100,4,2,1,80,0,0
15317,-100,4,2,1,80,0,0
15617,-100,4,2,1,80,0,0
17117,-100,4,2,1,80,0,0
17567,-100,4,2,1,80,0,0
17717,-100,4,2,1,80,0,0
18317,-100,4,2,1,80,0,0
19517,-100,4,2,1,80,0,0
19967,-100,4,2,1,80,0,0
20117,-100,4,2,1,80,0,0
20417,-100,4,2,1,60,0,0
30017,-100,4,2,1,80,0,0

[Colours]
Combo1 : 107,170,245
Combo2 : 149,231,129
Combo3 : 248,223,139
Combo4 : 245,112,115

[HitObjects]
24,132,1217,6,0,P|68:124|108:104,1,89.9999999999999,2|2,3:2|0:2,0:0:0:0:
171,40,1817,2,0,P|213:48|252:85,1,89.9999999999999,2|2,0:2|1:2,0:0:0:0:
286,159,2417,1,2,3:2:0:0:
260,291,2867,2,0,P|326:280|393:285,1,135,2|2,1:2|1:2,0:0:0:0:
466,337,3617,6,0,P|481:272|446:217,1,135,2|2,3:2|1:2,0:0:0:0:
373,102,4517,1,2,1:2:0:0:
294,58,4817,2,0,P|251:70|203:70,1,89.9999999999999,2|2,3:2|0:2,0:0:0:0:
130,119,5417,2,0,P|87:107|39:107,1,89.9999999999999,2|2,0:2|1:2,0:0:0:0:
20,194,6017,6,0,L|46:290,1,89.9999999999999,2|2,3:2|0:2,0:0:0:0:
68,367,6617,2,0,P|106:348|127:256,1,135,2|2,0:0|0:0,0:0:0:0:
257,218,7517,1,2,0:0:0:0:
322,279,7817,2,0,L|416:291,1,89.9999999999999,2|2,0:2|1:2,0:0:0:0:
472,224,8417,6,0,P|503:257|511:314,2,89.9999999999999,2|2|2,3:2|0:2|0:2,0:0:0:0:
403,107,9467,2,0,L|410:9,1,89.9999999999999,2|2,0:2|0:2,0:0:0:0:
280,57,10217,1,2,0:2:0:0:
192,36,10517,1,2,1:2:0:0:
146,113,10817,6,0,L|163:209,1,89.9999999999999,2|2,3:2|0:0,0:0:0:0:
129,285,11417,1,2,0:2:0:0:
303,331,12017,2,0,P|345:319|371:283,1,89.9999999999999,2|2,3:2|0:0,0:0:0:0:
320,209,12617,1,0,0:0:0:0:
230,218,12917,1,2,1:2:0:0:
165,154,13217,6,0,L|175:55,1,89.9999999999999,2|2,3:2|0:2,0:0:0:0:
258,32,13817,1,2,0:2:0:0:
426,95,14417,2,0,P|465:75|510:73,1,89.9999999999999,2|2,3:2|0:2,0:0:0:0:
487,160,15017,1,2,0:2:0:0:
510,246,15317,1,2,1:2:0:0:
449,312,15617,6,0,L|345:293,1,89.9999999999999,2|2,3:2|0:2,0:0:0:0:
278,333,16217,1,2,0:2:0:0:
100,300,16817,2,0,P|87:256|101:207,1,89.9999999999999,2|2,3:2|0:2,0:0:0:0:
175,257,17417,1,2,0:2:0:0:
231,187,17717,1,2,1:2:0:0:
305,238,18017,6,0,L|401:242,1,89.9999999999999,2|2,3:2|0:2,0:0:0:0:
453,173,18617,1,2,0:2:0:0:
315,57,19217,2,0,P|267:66|210:68,1,89.9999999999999,2|2,3:2|0:2,0:0:0:0:
136,58,19817,1,2,0:2:0:0:
108,143,20117,1,2,1:3:0:0:
169,209,20417,6,0,L|187:310,1,89.9999999999999,0|2,3:0|0:0,0:0:0:0:
256,353,21017,2,0,P|304:336|316:290,1,89.9999999999999,0|0,3:0|1:0,0:0:0:0:
288,216,21617,1,0,3:0:0:0:
320,132,21917,1,2,0:0:0:0:
292,46,22217,2,0,P|324:38|385:68,1,89.9999999999999,0|0,3:0|1:0,0:0:0:0:
441,118,22817,6,0,L|428:217,1,89.9999999999999,0|2,3:0|3:2,0:0:0:0:
451,294,23417,2,0,L|359:320,1,89.9999999999999,0|0,3:0|1:0,0:0:0:0:
290,370,24017,1,0,3:0:0:0:
216,318,24317,1,2,0:2:0:0:
134,356,24617,2,0,B|90:365|90:365|47:350,1,89.9999999999999,0|0,3:0|1:0,0:0:0:0:
91,272,25217,6,0,P|81:229|85:184,1,89.9999999999999,0|2,3:0|0:0,0:0:0:0:
38,107,25817,2,0,P|50:63|76:27,1,89.9999999999999,0|0,3:0|1:0,0:0:0:0:
161,59,26417,1,0,3:0:0:0:
245,27,26717,1,2,3:2:0:0:
282,108,27017,2,0,L|267:199,1,89.9999999999999,0|0,3:0|1:0,0:0:0:0:
252,284,27617,6,0,P|297:283|336:261,1,89.9999999999999,0|2,3:0|0:0,0:0:0:0:
373,179,28217,2,0,P|417:180|456:202,1,89.9999999999999,0|0,3:0|1:0,0:0:0:0:
508,275,28817,1,0,3:0:0:0:
456,348,29117,1,2,3:2:0:0:
368,368,29417,2,0,L|258:375,1,89.9999999999999,0|2,3:0|1:2,0:0:0:0:
208,317,30017,6,0,P|202:268|230:224,1,89.9999999999999,2|2,3:2|0:2,0:0:0:0:
285,170,30617,2,0,P|291:121|263:77,1,89.9999999999999,2|2,0:2|1:2,0:0:0:0:
192,44,31217,1,2,3:2:0:0:
71,104,31667,2,0,B|71:158|71:158|84:192|84:192|86:238,1,135,2|2,1:2|1:2,0:0:0:0:
141,307,32417,6,0,P|208:307|275:315,1,135,2|2,3:2|1:2,0:0:0:0:
399,263,33317,1,2,1:2:0:0:
477,306,33617,2,0,P|493:265|484:222,1,89.9999999999999,2|2,3:2|0:2,0:0:0:0:
425,154,34217,2,0,P|415:110|432:69,1,89.9999999999999,2|2,0:2|1:2,0:0:0:0:
364,10,34817,6,0,P|326:24|263:35,1,89.9999999999999,2|2,3:2|0:2,0:0:0:0:
217,100,35417,2,0,P|164:75|74:73,1,135,2|2,0:0|0:0,0:0:0:0:
47,199,36317,2,0,L|56:305,2,89.9999999999999,2|2|2,0:0|0:2|1:2,0:0:0:0:
129,162,37217,5,2,3:2:0:0:
193,225,37517,2,0,L|289:235,1,89.9999999999999,2|2,0:2|0:2,0:0:0:0:
393,310,38267,2,0,P|417:273|425:229,1,89.9999999999999,2|2,0:2|0:2,0:0:0:0:
332,131,39017,1,2,0:2:0:0:
256,81,39317,1,2,1:2:0:0:
179,127,39617,5,2,1:2:0:0:
